osu file format v14

[General]
AudioFilename: The Globglogabgalab2.mp3
AudioLeadIn: 0
PreviewTime: 1158132
Countdown: 0
SampleSet: Soft
StackLeniency: 0.3
Mode: 0
LetterboxInBreaks: 0
WidescreenStoryboard: 1

[Editor]
DistanceSpacing: 1.2
BeatDivisor: 4
GridSize: 32
TimelineZoom: 2.18

[Metadata]
Title:The Globglogabgalab
TitleUnicode:The Globglogabgalab
Artist:Tony Halstead
ArtistUnicode:Tony Halstead
Creator:ProfessionalBox
Version:What is Glob
Source:Strawinsky and the Mysterious House
Tags:probox meme youtube grandayy
BeatmapID:1686507
BeatmapSetID:753730

[Difficulty]
HPDrainRate:5
CircleSize:4
OverallDifficulty:8.3
ApproachRate:9.4
SliderMultiplier:2.82
SliderTickRate:1

[Events]
//Background and Video events
0,0,"What is Glob.png",0,0
//Break Periods
//Storyboard Layer 0 (Background)
//Storyboard Layer 1 (Fail)
//Storyboard Layer 2 (Pass)
//Storyboard Layer 3 (Foreground)
//Storyboard Sound Samples

[TimingPoints]
1097358,484.261501210654,4,2,0,60,1,0
1099537,-100,4,2,0,5,0,0
1101232,-222.222222222222,4,2,0,60,0,0
1102200,-250,4,2,0,5,0,0
1102442,-250,4,2,0,25,0,0
1103169,-90.0900900900901,4,2,0,60,0,0
1111098,-90.0900900900901,4,2,0,5,0,0
1111159,-90.0900900900901,4,2,0,60,0,0
1111583,-90.0900900900901,4,2,0,5,0,0
1111643,-90.0900900900901,4,2,0,60,0,0
1111946,-90.0900900900901,4,2,0,5,0,0
1112006,-90.0900900900901,4,2,0,60,0,0
1112309,-90.0900900900901,4,2,0,5,0,0
1112370,-90.0900900900901,4,2,0,60,0,0
1113035,-90.0900900900901,4,2,0,5,0,0
1113096,-90.0900900900901,4,2,0,60,0,0
1113520,-90.0900900900901,4,2,0,5,0,0
1113580,-90.0900900900901,4,2,0,60,0,0
1114004,-90.0900900900901,4,2,0,5,0,0
1114065,-90.0900900900901,4,2,0,60,0,0
1114973,-90.0900900900901,4,2,0,5,0,0
1115033,-90.0900900900901,4,2,0,60,0,0
1115457,-90.0900900900901,4,2,0,5,0,0
1115517,-90.0900900900901,4,2,0,60,0,0
1115941,-90.0900900900901,4,2,0,5,0,0
1116002,-90.0900900900901,4,2,0,60,0,0
1116910,-90.0900900900901,4,2,0,5,0,0
1116970,-90.0900900900901,4,2,0,60,0,0
1117394,-90.0900900900901,4,2,0,5,0,0
1117454,-90.0900900900901,4,2,0,60,0,0
1117878,-90.0900900900901,4,2,0,5,0,0
1117939,-90.0900900900901,4,2,0,60,0,0
1125114,-90.0900900900901,4,2,0,60,0,0
1125660,-90.0900900900901,4,2,0,60,0,0
1137249,-90.0900900900901,4,2,0,5,0,0
1137309,-90.0900900900901,4,2,0,60,0,0
1157406,-90.0900900900901,4,2,0,60,0,1
1172902,-60.2409638554217,4,2,0,60,0,1
1173326,-90.0900900900901,4,2,0,5,0,1
1173387,-60.2409638554217,4,2,0,60,0,1
1173810,-90.0900900900901,4,2,0,5,0,1
1173871,-90.0900900900901,4,2,0,60,0,1
1180650,-52.3560209424084,4,2,0,60,0,1
1181014,-53.1914893617021,4,2,0,5,0,1
1181135,-53.1914893617021,4,2,0,60,0,1
1181498,-53.1914893617021,4,2,0,5,0,1
1181619,-90.0900900900901,4,2,0,60,0,1
1188399,-90.0900900900901,4,2,0,60,0,0
1208132,-90.0900900900901,4,2,0,5,0,0

[Colours]
Combo1 : 250,226,135
Combo2 : 221,221,213
Combo3 : 223,157,117

[HitObjects]
256,192,1098629,12,0,1099537,0:0:0:0:
325,74,1101232,6,0,B|357:50|382:15|382:15|365:70|349:196,1,253.799992254639
350,183,1102442,5,0,0:0:0:0:
210,36,1102684,1,0,0:0:0:0:
176,228,1102927,1,0,0:0:0:0:
241,135,1103169,5,0,0:0:0:0:
61,114,1103411,1,0,0:0:0:0:
241,135,1103653,5,0,0:0:0:0:
61,114,1103895,1,0,0:0:0:0:
324,370,1104137,5,0,0:0:0:0:
349,190,1104379,1,0,0:0:0:0:
324,370,1104621,5,0,0:0:0:0:
349,190,1104864,1,0,0:0:0:0:
60,293,1105106,5,0,0:0:0:0:
240,272,1105348,1,0,0:0:0:0:
60,293,1105590,5,0,0:0:0:0:
240,272,1105832,1,0,0:0:0:0:
324,10,1106074,5,0,0:0:0:0:
349,190,1106316,1,0,0:0:0:0:
324,10,1106558,5,0,0:0:0:0:
349,190,1106801,1,0,0:0:0:0:
34,192,1107043,5,0,0:0:0:0:
187,192,1107285,1,0,0:0:0:0:
34,192,1107527,5,0,0:0:0:0:
187,192,1107769,1,0,0:0:0:0:
460,352,1108011,5,0,0:0:0:0:
316,271,1108253,1,0,0:0:0:0:
460,352,1108496,5,0,0:0:0:0:
316,271,1108738,1,0,0:0:0:0:
182,88,1108980,5,0,0:0:0:0:
335,86,1109222,1,0,0:0:0:0:
182,88,1109464,5,0,0:0:0:0:
335,86,1109706,1,0,0:0:0:0:
196,271,1109948,5,0,0:0:0:0:
52,352,1110190,1,0,0:0:0:0:
196,271,1110433,5,0,0:0:0:0:
52,352,1110675,1,0,0:0:0:0:
148,115,1110917,6,0,L|296:97,1,117.382502865784
364,88,1111159,1,0,0:0:0:0:
148,115,1111401,6,0,L|296:97,1,117
364,88,1111643,1,0,0:0:0:0:
264,100,1111764,6,0,L|148:115,1,117
56,126,1112006,1,0,0:0:0:0:
148,115,1112127,6,0,L|296:97,1,117
352,185,1112370,2,0,P|405:166|425:146,1,78
512,163,1112612,2,0,P|510:106|497:81,1,78
264,100,1112854,6,0,L|251:232,1,117
247,307,1113096,1,0,0:0:0:0:
264,100,1113338,6,0,L|251:232,1,117.382502865784
247,307,1113580,1,0,0:0:0:0:
252,216,1113701,6,0,L|271:9,1,195.637504776306
269,22,1114065,2,0,L|189:32,1,78.2550019105225
252,216,1114307,2,0,L|172:226,1,78.2550019105225
241,364,1114549,2,0,L|161:374,1,78.2550019105225
85,227,1114791,6,0,L|91:110,1,117.382502865784
97,18,1115033,1,0,0:0:0:0:
85,227,1115275,6,0,L|93:90,1,117.382502865784
97,18,1115517,1,0,0:0:0:0:
91,110,1115638,6,0,L|79:319,1,195.637504776306
80,304,1116002,6,0,L|-14:320,1,78.2550019105225
261,270,1116244,2,0,L|167:286,1,78.2550019105225
436,238,1116486,2,0,L|342:254,1,78.2550019105225
158,193,1116728,6,0,L|297:171,1,117.382502865784
361,160,1116970,1,0,0:0:0:0:
158,193,1117212,6,0,L|297:171,1,117.382502865784
361,160,1117454,1,0,0:0:0:0:
273,174,1117575,6,0,L|58:210,1,195.637504776306
55,201,1117939,2,0,P|39:146|39:106,1,78.2550019105225
225,285,1118181,2,0,P|220:323|210:364,1,78.2550019105225
225,69,1118423,5,0,0:0:0:0:
225,69,1118665,5,0,0:0:0:0:
302,16,1118786,1,0,0:0:0:0:
395,20,1118907,1,0,0:0:0:0:
460,87,1119028,1,0,0:0:0:0:
458,207,1119149,5,0,0:0:0:0:
381,260,1119270,1,0,0:0:0:0:
288,256,1119391,1,0,0:0:0:0:
223,189,1119512,1,0,0:0:0:0:
225,69,1119634,5,0,0:0:0:0:
302,16,1119755,1,0,0:0:0:0:
395,20,1119876,1,0,0:0:0:0:
460,87,1119997,1,0,0:0:0:0:
458,207,1120118,5,0,0:0:0:0:
106,59,1120602,5,0,0:0:0:0:
45,130,1120723,1,0,0:0:0:0:
39,222,1120844,1,0,0:0:0:0:
99,294,1120965,1,0,0:0:0:0:
198,300,1121086,5,0,0:0:0:0:
259,229,1121207,1,0,0:0:0:0:
265,136,1121328,1,0,0:0:0:0:
205,64,1121450,1,0,0:0:0:0:
106,59,1121571,5,0,0:0:0:0:
45,130,1121692,1,0,0:0:0:0:
39,222,1121813,2,0,L|141:229,1,78.2550019105225
259,229,1122055,5,0,0:0:0:0:
476,321,1122539,5,0,0:0:0:0:
399,374,1122660,1,0,0:0:0:0:
306,370,1122781,1,0,0:0:0:0:
241,303,1122902,1,0,0:0:0:0:
243,183,1123023,5,0,0:0:0:0:
320,130,1123144,1,0,0:0:0:0:
413,134,1123265,1,0,0:0:0:0:
478,201,1123387,1,0,0:0:0:0:
476,321,1123508,5,0,0:0:0:0:
399,374,1123629,1,0,0:0:0:0:
306,370,1123750,1,0,0:0:0:0:
111,265,1123992,5,0,0:0:0:0:
412,25,1124476,5,0,0:0:0:0:
473,96,1124597,1,0,0:0:0:0:
479,188,1124718,1,0,0:0:0:0:
419,260,1124839,1,0,0:0:0:0:
320,266,1124960,5,0,0:0:0:0:
259,195,1125081,1,0,0:0:0:0:
253,102,1125203,1,0,0:0:0:0:
313,30,1125324,1,0,0:0:0:0:
412,25,1125445,5,0,0:0:0:0:
473,96,1125566,1,0,0:0:0:0:
479,188,1125687,2,0,L|377:195,1,78.2550019105225
259,195,1125929,5,0,0:0:0:0:
34,44,1126171,1,0,0:0:0:0:
34,44,1126292,1,0,0:0:0:0:
34,44,1126413,6,0,L|150:34,1,78.2550019105225
306,21,1126655,2,0,L|190:31,1,78.2550019105225
20,141,1126897,6,0,L|136:131,1,78.2550019105225
329,117,1127140,2,0,L|213:127,1,78.2550019105225
12,247,1127382,6,0,L|128:237,1,78.2550019105225
354,219,1127624,2,0,L|238:229,1,78.2550019105225
145,37,1127866,1,0,0:0:0:0:
181,349,1128108,1,0,0:0:0:0:
431,333,1128350,6,0,P|436:278|424:222,1,78.2550019105225
477,146,1128592,2,0,P|426:123|370:117,1,78.2550019105225
130,207,1128834,6,0,P|174:239|228:256,1,78.2550019105225
268,340,1129077,2,0,P|312:307|345:261,1,78.2550019105225
389,24,1129319,6,0,P|338:46|296:84,1,78.2550019105225
205,77,1129561,2,0,P|210:131|234:183,1,78.2550019105225
477,146,1129803,5,0,0:0:0:0:
61,160,1130045,1,0,0:0:0:0:
446,337,1130287,6,0,L|433:241,1,78.2550019105225
317,264,1130529,2,0,L|330:360,1,78.2550019105225
50,237,1130772,6,0,L|63:141,1,78.2550019105225
179,164,1131014,2,0,L|166:260,1,78.2550019105225
468,143,1131256,6,0,L|455:47,1,78.2550019105225
339,70,1131498,2,0,L|352:166,1,78.2550019105225
255,20,1131740,5,0,0:0:0:0:
256,356,1131982,1,0,0:0:0:0:
457,298,1132224,6,0,P|396:265|347:262,1,78.2550019105225
55,297,1132466,2,0,P|116:264|165:261,1,78.2550019105225
463,185,1132709,6,0,L|366:183,1,78.2550019105225
49,185,1132951,2,0,L|146:183,1,78.2550019105225
462,63,1133193,6,0,P|401:96|352:99,1,78.2550019105225
50,63,1133435,2,0,P|111:96|160:99,1,78.2550019105225
257,351,1133677,5,0,0:0:0:0:
255,19,1133919,1,0,0:0:0:0:
34,300,1134161,6,0,P|80:251|205:260,1,156.510003821045
297,278,1134525,1,0,0:0:0:0:
242,179,1134646,2,0,B|229:151|229:151|249:81,1,78.2550019105225
390,244,1134888,2,0,B|403:272|403:272|383:342,1,78.2550019105225
258,348,1135130,6,0,L|99:330,1,156.510003821045
9,373,1135493,1,0,0:0:0:0:
15,265,1135614,2,0,P|9:220|-7:172,1,78.2550019105225
202,177,1135856,2,0,P|191:214|186:253,1,78.2550019105225
102,330,1136098,6,0,L|93:137,1,156.510003821045
35,76,1136462,1,0,0:0:0:0:
159,88,1136583,2,0,L|307:108,1,78.2550019105225
404,195,1136825,2,0,L|256:215,1,78.2550019105225
268,362,1137067,6,0,P|238:294|242:245,1,117.382502865784
240,252,1137309,6,0,P|199:246|134:239,1,78.2550019105225
364,348,1137551,2,0,P|405:342|470:334,1,78.2550019105225
81,275,1137793,2,0,P|73:229|119:153,1,78.2550019105225
285,41,1138035,6,0,L|274:151,1,78.2550019105225
118,106,1138278,2,0,L|129:-4,1,78.2550019105225
385,91,1138520,5,0,0:0:0:0:
23,60,1138762,1,0,0:0:0:0:
246,255,1139004,6,0,L|257:365,1,78.2550019105225
413,320,1139246,2,0,L|402:210,1,78.2550019105225
146,305,1139488,5,0,0:0:0:0:
508,274,1139730,1,0,0:0:0:0:
23,60,1139973,6,0,B|165:32|103:157|275:104,1,234.765005731568
239,113,1140457,2,0,P|232:67|223:-6,1,78.2550019105225
55,187,1140699,6,0,L|41:297,1,78.2550019105225
259,228,1140941,2,0,L|273:338,1,78.2550019105225
31,361,1141183,5,0,0:0:0:0:
172,60,1141425,1,0,0:0:0:0:
339,375,1141667,1,0,0:0:0:0:
34,155,1141910,6,0,L|232:177,1,156.510003821045
307,186,1142273,1,0,0:0:0:0:
259,98,1142394,2,0,P|244:44|237:8,1,78.2550019105225
235,252,1142636,2,0,P|226:292|214:329,1,78.2550019105225
478,212,1142878,6,0,L|382:200,1,78.2550019105225
112,163,1143120,2,0,L|240:177,1,78.2550019105225
307,186,1143362,5,0,0:0:0:0:
34,155,1143604,1,0,0:0:0:0:
256,353,1143847,5,0,0:0:0:0:
349,355,1143968,1,0,0:0:0:0:
429,307,1144089,1,0,0:0:0:0:
462,219,1144210,1,0,0:0:0:0:
384,139,1144331,5,0,0:0:0:0:
290,147,1144452,1,0,0:0:0:0:
196,156,1144573,1,0,0:0:0:0:
102,165,1144694,1,0,0:0:0:0:
135,77,1144815,5,0,0:0:0:0:
156,245,1144936,1,0,0:0:0:0:
228,63,1145057,5,0,0:0:0:0:
254,232,1145178,1,0,0:0:0:0:
328,55,1145299,5,0,0:0:0:0:
477,266,1145542,5,0,0:0:0:0:
81,375,1145784,2,0,P|60:317|76:187,1,156.510003821045
111,122,1146147,1,0,0:0:0:0:
203,87,1146268,2,0,P|207:136|190:175,1,78.2550019105225
21,148,1146510,2,0,P|15:109|26:72,1,78.2550019105225
120,18,1146752,5,0,0:0:0:0:
100,291,1146994,1,0,0:0:0:0:
361,101,1147236,2,0,L|197:116,1,156.510003821045
111,122,1147600,1,0,0:0:0:0:
205,115,1147721,6,0,L|360:100,1,156.510003821045
433,166,1148084,2,0,P|455:74|405:17,1,156.510003821045
317,15,1148447,2,0,L|227:23,1,78.2550019105225
260,204,1148689,2,0,L|350:196,1,78.2550019105225
317,15,1148931,2,0,L|227:23,1,78.2550019105225
54,131,1149173,6,0,L|317:108,1,234.765005731568
413,96,1149658,5,0,0:0:0:0:
480,161,1149779,1,0,0:0:0:0:
495,253,1149900,1,0,0:0:0:0:
473,344,1150021,1,0,0:0:0:0:
374,373,1150142,5,0,0:0:0:0:
281,359,1150263,1,0,0:0:0:0:
188,345,1150384,1,0,0:0:0:0:
95,331,1150505,1,0,0:0:0:0:
2,318,1150626,5,0,0:0:0:0:
177,343,1150747,1,0,0:0:0:0:
114,163,1150868,1,0,0:0:0:0:
95,331,1151111,5,0,0:0:0:0:
130,47,1151353,1,0,0:0:0:0:
16,250,1151595,5,0,0:0:0:0:
68,327,1151716,1,0,0:0:0:0:
156,358,1151837,1,0,0:0:0:0:
247,340,1151958,1,0,0:0:0:0:
322,285,1152079,5,0,0:0:0:0:
315,191,1152200,1,0,0:0:0:0:
308,97,1152321,1,0,0:0:0:0:
300,3,1152442,1,0,0:0:0:0:
377,44,1152563,5,0,0:0:0:0:
221,57,1152684,1,0,0:0:0:0:
377,44,1152805,1,0,0:0:0:0:
322,285,1153048,5,0,0:0:0:0:
300,3,1153290,1,0,0:0:0:0:
24,162,1153532,5,0,0:0:0:0:
117,154,1153653,1,0,0:0:0:0:
210,146,1153774,1,0,0:0:0:0:
303,138,1153895,1,0,0:0:0:0:
395,149,1154016,5,0,0:0:0:0:
463,212,1154137,1,0,0:0:0:0:
475,304,1154258,1,0,0:0:0:0:
418,378,1154379,1,0,0:0:0:0:
324,368,1154500,5,0,0:0:0:0:
334,260,1154621,1,0,0:0:0:0:
324,368,1154742,1,0,0:0:0:0:
225,116,1154985,5,0,0:0:0:0:
471,131,1155227,1,0,0:0:0:0:
45,11,1155469,5,0,0:0:0:0:
37,104,1155590,1,0,0:0:0:0:
29,197,1155711,1,0,0:0:0:0:
21,290,1155832,1,0,0:0:0:0:
87,356,1155953,5,0,0:0:0:0:
180,347,1156074,1,0,0:0:0:0:
245,279,1156195,1,0,0:0:0:0:
254,185,1156316,5,0,0:0:0:0:
190,116,1156437,2,0,L|80:97,1,78.2550019105225
254,185,1156680,5,0,0:0:0:0:
295,69,1156801,2,0,L|405:52,1,78.2550019105225
254,185,1157043,5,0,0:0:0:0:
184,18,1157164,2,0,L|74:-1,1,78.2550019105225
254,185,1157406,5,0,0:0:0:0:
403,20,1157648,1,0,0:0:0:0:
403,20,1157769,1,0,0:0:0:0:
403,20,1157890,2,0,L|412:137,1,78.2550019105225
420,216,1158132,1,0,0:0:0:0:
33,99,1158374,6,0,P|79:84|145:105,1,78.2550019105225
139,279,1158617,2,0,P|102:292|64:291,1,78.2550019105225
85,187,1158859,1,0,0:0:0:0:
243,358,1159101,1,0,0:0:0:0:
243,358,1159222,1,0,0:0:0:0:
243,358,1159343,6,0,L|256:247,1,78.2550019105225
263,171,1159585,1,0,0:0:0:0:
34,96,1159827,6,0,L|219:73,1,156.510003821045
278,9,1160190,1,0,0:0:0:0:
357,70,1160311,2,0,P|386:83|448:92,1,78.2550019105225
184,201,1160554,2,0,P|155:214|93:223,1,78.2550019105225
337,270,1160796,6,0,L|318:143,1,78.2550019105225
139,24,1161038,2,0,L|120:151,1,78.2550019105225
102,283,1161280,5,0,0:0:0:0:
58,41,1161522,1,0,0:0:0:0:
46,361,1161764,2,0,P|106:380|197:309,1,156.510003821045
223,240,1162127,1,0,0:0:0:0:
125,182,1162249,6,0,L|30:192,1,78.2550019105225
295,319,1162491,2,0,L|390:309,1,78.2550019105225
477,216,1162733,5,0,0:0:0:0:
102,283,1162975,1,0,0:0:0:0:
369,10,1163217,6,0,L|349:182,1,156.510003821045
404,282,1163580,1,0,0:0:0:0:
404,282,1163701,1,0,0:0:0:0:
189,0,1163943,6,0,L|169:172,1,156.510003821045
102,283,1164307,1,0,0:0:0:0:
102,283,1164428,2,0,L|-2:294,1,78.2550019105225
273,263,1164670,2,0,L|169:274,1,78.2550019105225
445,244,1164912,2,0,L|341:255,1,78.2550019105225
102,283,1165154,5,0,0:0:0:0:
192,61,1165396,1,0,0:0:0:0:
192,61,1165517,1,0,0:0:0:0:
192,61,1165638,2,0,P|206:95|220:154,1,78.2550019105225
367,252,1165881,2,0,P|377:214|391:178,1,78.2550019105225
464,75,1166123,1,0,0:0:0:0:
281,262,1166365,6,0,L|158:244,1,78.2550019105225
54,72,1166607,2,0,L|99:187,1,78.2550019105225
20,360,1166849,2,0,L|97:262,1,78.2550019105225
115,227,1167091,5,0,0:0:0:0:
438,328,1167333,1,0,0:0:0:0:
438,328,1167454,1,0,0:0:0:0:
438,328,1167575,2,0,P|369:308|288:359,1,156.510003821045
208,298,1167939,1,0,0:0:0:0:
289,221,1168060,2,0,P|299:177|302:135,1,78.2550019105225
118,163,1168302,2,0,L|237:172,1,78.2550019105225
471,223,1168544,2,0,L|352:232,1,78.2550019105225
249,48,1168786,1,0,0:0:0:0:
57,362,1169028,6,0,P|35:275|52:188,1,156.510003821045
120,164,1169391,1,0,0:0:0:0:
120,164,1169512,2,0,L|239:173,1,78.2550019105225
215,39,1169755,2,0,L|96:30,1,78.2550019105225
283,246,1169997,6,0,P|305:159|288:72,1,156.510003821045
215,39,1170360,1,0,0:0:0:0:
215,39,1170481,2,0,L|96:30,1,78.2550019105225
391,122,1170723,2,0,L|510:113,1,78.2550019105225
153,376,1170965,6,0,L|135:174,1,156.510003821045
58,142,1171328,1,0,0:0:0:0:
58,142,1171450,1,0,0:0:0:0:
344,371,1171692,6,0,L|326:169,1,156.510003821045
391,122,1172055,1,0,0:0:0:0:
391,122,1172176,1,0,0:0:0:0:
256,350,1172418,1,0,0:0:0:0:
204,47,1172660,1,0,0:0:0:0:
416,300,1172902,6,0,B|478:345|532:255|518:187|314:124|382:331|178:261,1,409.605005937573
60,170,1173387,6,0,B|-2:215|-56:125|-42:57|162:-6|94:201|298:131,1,409.605005937573
419,97,1173871,5,0,0:0:0:0:
297,363,1174113,1,0,0:0:0:0:
222,35,1174355,1,0,0:0:0:0:
441,296,1174597,1,0,0:0:0:0:
63,195,1174839,6,0,P|43:98|62:-10,1,156.510003821045
152,269,1175324,1,0,0:0:0:0:
147,54,1175566,6,0,B|293:11|234:144|407:83,1,234.765005731568
452,76,1176050,1,0,0:0:0:0:
452,76,1176534,1,0,0:0:0:0:
219,335,1176776,6,0,P|145:340|71:262,2,156.510003821045
483,169,1177503,6,0,B|354:140|392:259|224:201,1,234.765005731568
158,167,1177987,5,0,0:0:0:0:
158,167,1178471,1,0,0:0:0:0:
408,368,1178713,6,0,L|380:99,1,234.765005731568
327,57,1179198,2,0,P|378:36|417:43,1,78.2550019105225
230,186,1179440,2,0,P|191:184|157:166,1,78.2550019105225
49,27,1179682,5,0,0:0:0:0:
76,297,1179924,1,0,0:0:0:0:
58,116,1180166,5,0,0:0:0:0:
67,210,1180408,1,0,0:0:0:0:
314,364,1180650,6,0,B|443:276|430:121|302:69|195:156|284:275,1,403.96499275728
197,370,1181135,2,0,B|68:282|81:127|209:75|316:162|227:281,1,397.6199939328
254,303,1181619,5,0,0:0:0:0:
255,8,1181861,1,0,0:0:0:0:
134,251,1182103,1,0,0:0:0:0:
450,82,1182345,1,0,0:0:0:0:
168,107,1182588,6,0,P|77:101|-11:59,2,156.510003821045
367,24,1183314,6,0,B|312:150|432:134|381:280,1,234.765005731568
372,353,1183798,1,0,0:0:0:0:
372,353,1184282,1,0,0:0:0:0:
169,324,1184525,6,0,P|91:326|18:353,2,156.510003821045
124,13,1185251,6,0,B|179:139|59:123|110:269,1,234.765005731568
35,71,1185735,5,0,0:0:0:0:
35,71,1186462,6,0,L|320:35,1,234.765005731568
364,35,1186946,2,0,L|339:172,1,78.2550019105225
255,181,1187188,1,0,0:0:0:0:
335,195,1187309,1,0,0:0:0:0:
415,208,1187430,1,0,0:0:0:0:
208,63,1187672,5,0,0:0:0:0:
320,337,1187914,1,0,0:0:0:0:
496,98,1188157,1,0,0:0:0:0:
137,261,1188399,6,0,P|142:307|167:355,1,78.2550019105225
118,153,1188641,2,0,P|75:172|37:211,1,78.2550019105225
330,204,1188883,6,0,P|367:175|397:130,1,78.2550019105225
245,274,1189125,2,0,P|283:301|335:315,1,78.2550019105225
181,76,1189367,6,0,P|137:57|83:54,1,78.2550019105225
284,114,1189609,2,0,P|288:66|274:14,1,78.2550019105225
207,368,1189851,5,0,0:0:0:0:
181,76,1190094,1,0,0:0:0:0:
21,310,1190336,6,0,P|80:289|111:290,1,78.2550019105225
150,194,1190578,2,0,P|188:243|196:273,1,78.2550019105225
430,381,1190820,6,0,P|382:340|367:313,1,78.2550019105225
265,327,1191062,2,0,P|288:269|310:246,1,78.2550019105225
294,0,1191304,6,0,P|282:61|266:87,1,78.2550019105225
329,169,1191546,2,0,P|266:177|236:169,1,78.2550019105225
54,74,1191788,5,0,0:0:0:0:
467,89,1192031,1,0,0:0:0:0:
116,341,1192273,6,0,P|70:325|15:322,1,78.2550019105225
186,267,1192515,2,0,P|187:218|172:165,1,78.2550019105225
427,302,1192757,6,0,P|436:349|461:398,1,78.2550019105225
327,278,1192999,2,0,P|284:301|245:340,1,78.2550019105225
237,55,1193241,6,0,P|273:23|303:-22,1,78.2550019105225
266,153,1193483,2,0,P|307:178|360:192,1,78.2550019105225
105,55,1193726,5,0,0:0:0:0:
241,355,1193968,1,0,0:0:0:0:
477,113,1194210,6,0,P|420:105|368:122,1,78.2550019105225
323,34,1194452,2,0,P|298:84|297:140,1,78.2550019105225
332,360,1194694,6,0,P|366:315|378:261,1,78.2550019105225
477,266,1194936,2,0,P|445:219|397:191,1,78.2550019105225
184,125,1195178,6,0,P|205:177|246:214,1,78.2550019105225
192,297,1195420,2,0,P|248:292|296:265,1,78.2550019105225
400,109,1195663,5,0,0:0:0:0:
256,374,1195905,1,0,0:0:0:0:
68,150,1196147,6,0,L|52:23,1,78.2550019105225
184,125,1196389,2,0,L|200:-2,1,78.2550019105225
213,252,1196631,6,0,L|197:379,1,78.2550019105225
329,277,1196873,2,0,L|345:404,1,78.2550019105225
354,132,1197115,6,0,L|338:5,1,78.2550019105225
470,107,1197358,2,0,L|486:-20,1,78.2550019105225
474,220,1197600,5,0,0:0:0:0:
37,201,1197842,1,0,0:0:0:0:
466,297,1198084,6,0,L|475:208,1,78.2550019105225
295,278,1198326,2,0,L|304:367,1,78.2550019105225
37,201,1198568,6,0,L|28:112,1,78.2550019105225
208,182,1198810,2,0,L|199:271,1,78.2550019105225
463,113,1199052,6,0,L|472:24,1,78.2550019105225
292,94,1199295,2,0,L|301:183,1,78.2550019105225
32,71,1199537,5,0,0:0:0:0:
423,209,1199779,1,0,0:0:0:0:
57,345,1200021,6,0,L|46:241,1,78.2550019105225
180,299,1200263,2,0,L|191:195,1,78.2550019105225
472,287,1200505,6,0,L|483:183,1,78.2550019105225
349,241,1200747,2,0,L|338:137,1,78.2550019105225
40,158,1200989,6,0,L|29:54,1,78.2550019105225
163,112,1201232,2,0,L|174:8,1,78.2550019105225
326,15,1201474,5,0,0:0:0:0:
325,371,1201716,1,0,0:0:0:0:
40,158,1201958,6,0,L|148:141,1,78.2550019105225
125,273,1202200,2,0,L|233:290,1,78.2550019105225
490,125,1202442,6,0,L|382:108,1,78.2550019105225
405,240,1202684,2,0,L|297:257,1,78.2550019105225
75,39,1202927,6,0,L|183:22,1,78.2550019105225
160,154,1203169,2,0,L|268:171,1,78.2550019105225
363,25,1203411,1,0,0:0:0:0:
287,360,1203653,5,0,0:0:0:0:
279,282,1203774,1,0,0:0:0:0:
268,197,1203895,1,0,0:0:0:0:
256,192,1204016,12,0,1208132,0:0:0:0:
