osu file format v14

[General]
AudioFilename: The Globglogabgalab2.mp3
AudioLeadIn: 0
PreviewTime: 11889
Countdown: 0
SampleSet: Soft
StackLeniency: 0.3
Mode: 0
LetterboxInBreaks: 0
WidescreenStoryboard: 1

[Editor]
Bookmarks: 833,12228,17925,27545
DistanceSpacing: 1
BeatDivisor: 8
GridSize: 32
TimelineZoom: 1.7

[Metadata]
Title:The Globglogabgalab
TitleUnicode:The Globglogabgalab
Artist:Tony Halstead
ArtistUnicode:Tony Halstead
Creator:ProfessionalBox
Version:The Original Globglogabgalab
Source:Strawinsky and the Mysterious House
Tags:probox meme youtube grandayy
BeatmapID:1687643
BeatmapSetID:753730

[Difficulty]
HPDrainRate:4
CircleSize:4
OverallDifficulty:2
ApproachRate:9
SliderMultiplier:2.82
SliderTickRate:1

[Events]
//Background and Video events
0,0,"OG Glob.jpg",0,0
//Break Periods
//Storyboard Layer 0 (Background)
//Storyboard Layer 1 (Fail)
//Storyboard Layer 2 (Pass)
//Storyboard Layer 3 (Foreground)
//Storyboard Sound Samples

[TimingPoints]
3444,648.648648648649,4,2,0,50,1,0
3444,-125,4,2,0,50,0,0
6038,-138.888888888889,4,2,0,50,0,0
11309,662.983425414365,4,2,0,50,1,0
11309,-142.857142857143,4,2,0,50,0,0
13960,655.737704918033,4,2,0,50,1,0
13960,-142.857142857143,4,2,0,50,0,0
16582,652.173913043478,4,2,0,50,1,0
16582,-142.857142857143,4,2,0,50,0,0
19190,648.648648648649,4,2,0,50,1,0
19190,-142.857142857143,4,2,0,50,0,0
21784,659.340659340659,4,2,0,50,1,0
21784,-142.857142857143,4,2,0,50,0,0
23762,-200,4,2,0,50,0,0
24421,634.920634920635,4,2,0,50,1,0
24421,-142.857142857143,4,2,0,50,0,0
26960,625,4,2,0,50,1,0
26960,-142.857142857143,4,2,0,50,0,0
29460,631.578947368421,4,2,0,50,1,0
29460,-142.857142857143,4,2,0,50,0,0
31986,618.556701030928,4,2,0,50,1,0
31986,-142.857142857143,4,2,0,50,0,0
34460,655.737704918033,4,2,0,50,1,0
34460,-142.857142857143,4,2,0,50,0,0
37082,659.340659340659,4,2,0,50,1,0
37082,-142.857142857143,4,2,0,50,0,0
39719,631.578947368421,4,2,0,50,1,0
39719,-142.857142857143,4,2,0,50,0,0
42245,648.648648648649,4,2,0,50,1,0
42245,-142.857142857143,4,2,0,50,0,0
44839,638.297872340426,4,2,0,50,1,0
44839,-142.857142857143,4,2,0,50,0,0
47392,641.711229946524,4,2,0,50,1,0
47392,-142.857142857143,4,2,0,50,0,0
49958,631.578947368421,4,2,0,50,1,0
49958,-142.857142857143,4,2,0,50,0,0
52484,634.920634920635,4,2,0,50,1,0
52484,-142.857142857143,4,2,0,50,0,0
54388,-250,4,2,0,50,0,0
55023,621.761658031088,4,2,0,50,1,0
55023,-142.857142857143,4,2,0,50,0,0
57510,634.920634920635,4,2,0,50,1,0
57510,-142.857142857143,4,2,0,50,0,0
60049,628.272251308901,4,2,0,50,1,0
60049,-142.857142857143,4,2,0,50,0,0
62562,609.137055837563,4,2,0,50,1,0
62562,-142.857142857143,4,2,0,50,0,0
65065,579.710144927536,4,2,0,5,1,0

[Colours]
Combo1 : 141,216,252
Combo2 : 250,177,97
Combo3 : 196,238,108
Combo4 : 252,206,69
Combo5 : 125,221,173
Combo6 : 251,151,153

[HitObjects]
75,147,3444,6,0,P|74:125|80:91,3,56.4
199,194,4092,2,0,P|202:218|201:252,3,56.4
155,127,4741,6,0,P|177:116|213:111,3,56.4
125,223,5389,2,0,P|104:229|65:231,3,56.4
281,67,6038,6,0,P|285:89|288:124,1,50.7600012392578
363,178,6362,2,0,P|342:188|310:202,1,50.7600012392578
281,290,6687,6,0,P|264:273|241:247,1,50.7600012392578
149,248,7011,2,0,P|159:227|176:197,1,50.7600012392578
62,105,7336,6,0,P|169:111|289:116,1,203.040004957031
389,23,8389,1,0,0:0:0:0:
451,127,8714,6,0,L|446:186,3,50.7600012392578
368,217,9362,2,0,L|373:276,3,50.7600012392578
271,160,10012,6,0,L|266:101,3,50.7600012392578
170,133,10660,2,0,L|175:74,3,50.7600012392578
200,218,11309,6,0,P|174:225|149:220,1,49.3499984939576
82,272,11640,2,0,P|67:249|64:224,1,49.3499984939576
31,128,11971,6,0,L|84:133,1,49.3499984939576
136,43,12303,2,0,L|83:38,1,49.3499984939576
170,133,12634,6,0,B|211:116|231:74|231:74|264:133|315:147,1,197.39999397583
429,62,13629,1,0,0:0:0:0:
480,242,13960,6,0,P|433:226|376:223,1,98.6999969879151
302,247,14451,1,0,0:0:0:0:
243,337,14615,2,0,P|196:353|139:356,1,98.6999969879151
31,92,15271,6,0,L|37:153,1,49.3499984939576
131,172,15599,2,0,L|126:122,1,49.3499984939576
207,59,15927,5,0,0:0:0:0:
216,164,16091,1,0,0:0:0:0:
224,260,16255,1,0,0:0:0:0:
224,260,16582,6,0,L|170:252,1,49.3499984939576
179,347,16908,2,0,L|125:339,1,49.3499984939576
0,187,17234,6,0,L|54:179,1,49.3499984939576
45,274,17560,2,0,L|99:266,1,49.3499984939576
215,98,17886,6,0,P|204:126|200:149,1,49.3499984939576
77,96,18212,2,0,P|71:71|62:48,1,49.3499984939576
5,183,18538,1,0,0:0:0:0:
203,205,18864,1,0,0:0:0:0:
78,284,19190,6,0,L|89:348,2,49.3499984939576
135,136,19838,6,0,P|224:116|290:208,2,197.39999397583
232,263,21460,1,0,0:0:0:0:
232,263,21622,1,0,0:0:0:0:
232,263,21784,6,0,P|296:291|333:280,1,98.6999969879151
351,263,22278,2,0,P|415:234|470:254,1,123.374996234894
345,148,23020,5,0,0:0:0:0:
415,330,23432,1,0,0:0:0:0:
505,133,23762,2,0,L|449:142,1,52.875
345,148,24421,6,0,L|350:84,1,49.3499984939576
254,142,24738,2,0,L|259:78,1,49.3499984939576
187,207,25055,6,0,L|192:271,1,49.3499984939576
96,213,25373,2,0,L|101:277,1,49.3499984939576
12,177,25690,5,0,0:0:0:0:
20,89,25849,1,0,0:0:0:0:
33,11,26008,1,0,0:0:0:0:
12,177,26325,1,0,0:0:0:0:
158,329,26960,6,0,P|186:338|216:336,1,49.3499984939576
295,235,27272,2,0,P|323:226|353:228,1,49.3499984939576
329,315,27585,6,0,P|301:324|271:322,1,49.3499984939576
193,240,27897,2,0,P|165:231|135:233,1,49.3499984939576
60,275,28210,1,0,0:0:0:0:
60,275,28366,1,0,0:0:0:0:
60,275,28522,1,0,0:0:0:0:
76,109,28835,1,0,0:0:0:0:
286,170,29460,6,0,L|354:178,1,49.3499984939576
385,260,29775,2,0,L|317:268,1,49.3499984939576
211,208,30091,6,0,P|199:174|202:148,1,49.3499984939576
263,33,30407,2,0,P|261:57|251:80,1,49.3499984939576
161,86,30723,5,0,0:0:0:0:
84,76,30881,1,0,0:0:0:0:
6,66,31038,1,0,0:0:0:0:
161,86,31354,1,0,0:0:0:0:
278,266,31986,6,0,L|269:205,1,49.3499984939576
356,238,32295,2,0,L|347:177,1,49.3499984939576
433,266,32604,6,0,L|424:327,1,49.3499984939576
511,294,32913,2,0,L|502:355,1,49.3499984939576
355,360,33223,5,0,0:0:0:0:
274,356,33377,1,0,0:0:0:0:
194,352,33532,1,0,0:0:0:0:
355,360,33841,1,0,0:0:0:0:
423,136,34460,6,0,P|430:113|430:82,15,49.3499984939576
294,189,37082,6,0,P|287:166|287:135,7,49.3499984939576
306,63,38400,1,0,0:0:0:0:
43,285,39719,6,0,P|36:308|36:339,15,49.3499984939576
142,244,42245,6,0,P|149:267|149:298,7,49.3499984939576
119,366,43542,1,0,0:0:0:0:
81,92,44515,1,0,0:0:0:0:
150,134,44839,6,0,P|203:144|250:117,1,98.6999969879151
468,112,45477,2,0,P|423:91|375:102,1,98.6999969879151
316,285,46115,6,0,P|372:279|434:269,2,98.6999969879151
184,242,47073,1,0,0:0:0:0:
184,242,47392,6,0,L|122:231,1,49.3499984939576
141,328,47712,2,0,L|79:339,1,49.3499984939576
97,204,48033,6,0,L|35:193,1,49.3499984939576
59,351,48354,2,0,L|-3:362,1,49.3499984939576
213,364,48675,6,0,P|228:326|227:296,1,49.3499984939576
167,195,48996,2,0,P|172:219|183:241,1,49.3499984939576
316,293,49317,1,0,0:0:0:0:
326,131,49637,1,0,0:0:0:0:
272,197,49958,6,0,P|324:215|371:201,1,98.6999969879151
378,58,50589,2,0,P|326:40|278:53,1,98.6999969879151
179,165,51221,2,0,P|182:211|194:264,2,98.6999969879151
221,47,52168,1,0,0:0:0:0:
124,113,52484,6,0,L|8:126,1,98.6999969879151
1,129,52960,2,0,P|47:198|52:283,1,148.049995481873
185,351,53753,2,0,P|177:296|190:250,1,98.6999969879151
333,154,54388,2,0,L|397:160,1,56.4
484,210,55023,6,0,L|477:274,1,49.3499984939576
395,243,55333,2,0,L|388:307,1,49.3499984939576
313,208,55644,6,0,L|306:272,1,49.3499984939576
224,241,55955,2,0,L|217:305,1,49.3499984939576
134,226,56266,5,0,0:0:0:0:
143,142,56421,1,0,0:0:0:0:
149,58,56577,1,0,0:0:0:0:
134,226,56888,1,0,0:0:0:0:
293,48,57510,6,0,L|357:58,1,49.3499984939576
398,147,57827,2,0,L|334:137,1,49.3499984939576
307,40,58144,6,0,L|371:50,1,49.3499984939576
412,139,58462,2,0,L|348:129,1,49.3499984939576
335,25,58779,6,0,L|399:35,1,49.3499984939576
440,124,59097,2,0,L|376:114,1,49.3499984939576
232,89,59414,5,0,0:0:0:0:
31,253,60049,6,0,P|61:267|78:268,1,49.3499984939576
138,332,60363,2,0,P|160:307|166:291,1,49.3499984939576
253,263,60677,2,0,P|236:234|223:223,1,49.3499984939576
218,135,60991,2,0,P|185:141|171:150,1,49.3499984939576
134,221,61305,5,0,0:0:0:0:
141,298,61462,1,0,0:0:0:0:
151,378,61619,1,0,0:0:0:0:
134,221,61933,1,0,0:0:0:0:
351,367,62562,6,0,L|354:313,1,49.3499984939576
435,340,62866,2,0,L|438:286,1,49.3499984939576
354,238,63171,6,0,L|357:184,1,49.3499984939576
438,211,63475,2,0,L|441:157,1,49.3499984939576
354,110,63780,6,0,L|357:56,1,49.3499984939576
438,83,64084,2,0,L|441:29,1,49.3499984939576
304,0,64389,1,0,0:0:0:0:
256,192,65065,5,0,0:0:0:0:
256,192,65209,12,0,68470,0:0:0:0:
