osu file format v14

[General]
AudioFilename: The Globglogabgalab2.mp3
AudioLeadIn: 0
PreviewTime: 551473
Countdown: 0
SampleSet: Soft
StackLeniency: 0
Mode: 0
LetterboxInBreaks: 0
WidescreenStoryboard: 1

[Editor]
DistanceSpacing: 0.7
BeatDivisor: 4
GridSize: 16
TimelineZoom: 2.599999

[Metadata]
Title:The Globglogabgalab
TitleUnicode:The Globglogabgalab
Artist:Tony Halstead
ArtistUnicode:Tony Halstead
Creator:ProfessionalBox
Version:I am the GLOB-GLO-GAB-GA-LAB
Source:Strawinsky and the Mysterious House
Tags:probox meme youtube grandayy
BeatmapID:1593723
BeatmapSetID:753730

[Difficulty]
HPDrainRate:4
CircleSize:4.3
OverallDifficulty:8
ApproachRate:8
SliderMultiplier:2.82
SliderTickRate:1

[Events]
//Background and Video events
0,0,"globbstorm.jpg",0,0
//Break Periods
//Storyboard Layer 0 (Background)
//Storyboard Layer 1 (Fail)
//Storyboard Layer 2 (Pass)
//Storyboard Layer 3 (Foreground)
//Storyboard Sound Samples

[TimingPoints]
545170,466.926070038911,4,2,0,60,1,0
550773,-125,4,2,0,60,0,0
552640,-125,4,2,0,60,0,1
558710,-78.125,4,2,0,60,0,1
567582,-78.125,4,2,0,60,0,0
575520,-100,4,2,0,5,0,0

[Colours]
Combo1 : 53,242,186
Combo2 : 32,255,88
Combo3 : 57,219,253

[HitObjects]
138,58,545170,5,0,0:0:0:0:
138,58,545287,1,0,0:0:0:0:
138,58,545404,1,0,0:0:0:0:
138,58,545520,1,0,0:0:0:0:
138,58,545637,1,0,0:0:0:0:
347,98,546104,5,0,0:0:0:0:
347,98,546221,1,0,0:0:0:0:
347,98,546338,1,0,0:0:0:0:
347,98,546454,1,0,0:0:0:0:
347,98,546571,1,0,0:0:0:0:
153,150,547038,5,0,0:0:0:0:
153,150,547155,1,0,0:0:0:0:
153,150,547272,1,0,0:0:0:0:
153,150,547388,1,0,0:0:0:0:
153,150,547505,1,0,0:0:0:0:
327,194,547972,5,0,0:0:0:0:
327,194,548089,1,0,0:0:0:0:
327,194,548206,1,0,0:0:0:0:
327,194,548322,1,0,0:0:0:0:
327,194,548439,1,0,0:0:0:0:
185,221,548906,5,0,0:0:0:0:
185,221,549023,1,0,0:0:0:0:
185,221,549140,1,0,0:0:0:0:
185,221,549256,1,0,0:0:0:0:
304,282,549373,5,0,0:0:0:0:
304,282,549489,1,0,0:0:0:0:
304,282,549606,1,0,0:0:0:0:
304,282,549723,1,0,0:0:0:0:
204,304,549839,5,0,0:0:0:0:
204,304,549956,1,0,0:0:0:0:
204,304,550073,1,0,0:0:0:0:
204,304,550189,1,0,0:0:0:0:
287,365,550306,5,0,0:0:0:0:
287,365,550422,1,0,0:0:0:0:
287,365,550539,1,0,0:0:0:0:
287,365,550656,1,0,0:0:0:0:
204,304,550773,6,0,L|198:279,4,14.1
304,282,551007,6,0,L|309:257,4,14.1
181,223,551240,6,0,L|175:198,4,14.1
324,200,551474,6,0,L|328:175,4,14.1
159,138,551707,6,0,L|153:113,4,14.1
342,119,551941,6,0,L|346:94,4,14.1
135,55,552174,6,0,L|129:30,4,14.1
378,26,552408,5,0,0:0:0:0:
512,192,552641,5,0,0:0:0:0:
448,240,552758,1,0,0:0:0:0:
384,192,552874,1,0,0:0:0:0:
320,240,552991,1,0,0:0:0:0:
256,192,553108,1,0,0:0:0:0:
0,192,553341,5,0,0:0:0:0:
64,240,553458,1,0,0:0:0:0:
128,192,553574,1,0,0:0:0:0:
192,240,553691,1,0,0:0:0:0:
256,192,553808,1,0,0:0:0:0:
320,240,553925,1,0,0:0:0:0:
384,192,554042,1,0,0:0:0:0:
128,112,554275,5,0,0:0:0:0:
48,112,554392,1,0,0:0:0:0:
48,32,554508,1,0,0:0:0:0:
128,32,554625,1,0,0:0:0:0:
128,112,554742,1,0,0:0:0:0:
128,192,554859,1,0,0:0:0:0:
48,192,554976,1,0,0:0:0:0:
384,272,555209,5,0,0:0:0:0:
464,272,555326,1,0,0:0:0:0:
464,192,555442,1,0,0:0:0:0:
384,192,555559,1,0,0:0:0:0:
384,272,555676,1,0,0:0:0:0:
384,352,555793,1,0,0:0:0:0:
464,352,555910,1,0,0:0:0:0:
256,192,556143,5,0,0:0:0:0:
256,192,556260,1,0,0:0:0:0:
256,192,556376,5,0,0:0:0:0:
256,272,556493,1,0,0:0:0:0:
176,272,556610,1,0,0:0:0:0:
176,352,556727,1,0,0:0:0:0:
96,352,556843,1,0,0:0:0:0:
256,192,557077,5,0,0:0:0:0:
256,192,557194,1,0,0:0:0:0:
256,192,557310,5,0,0:0:0:0:
256,112,557427,1,0,0:0:0:0:
336,112,557544,1,0,0:0:0:0:
336,32,557661,1,0,0:0:0:0:
416,32,557777,1,0,0:0:0:0:
16,192,558011,5,0,0:0:0:0:
16,192,558127,1,0,0:0:0:0:
16,112,558244,1,0,0:0:0:0:
96,112,558361,1,0,0:0:0:0:
176,112,558478,1,0,0:0:0:0:
176,192,558594,1,0,0:0:0:0:
96,192,558711,6,0,B|96:364,1,157.92
176,350,559061,1,0,0:0:0:0:
176,272,559178,1,0,0:0:0:0:
96,272,559295,1,0,0:0:0:0:
16,272,559412,1,0,0:0:0:0:
16,350,559528,1,0,0:0:0:0:
96,349,559645,1,0,0:0:0:0:
256,192,559878,5,0,0:0:0:0:
256,192,559995,1,0,0:0:0:0:
256,192,560112,5,0,0:0:0:0:
256,112,560229,1,0,0:0:0:0:
256,32,560345,1,0,0:0:0:0:
256,112,560462,1,0,0:0:0:0:
256,192,560579,1,0,0:0:0:0:
256,192,560812,5,0,0:0:0:0:
256,192,560929,1,0,0:0:0:0:
256,192,561046,5,0,0:0:0:0:
256,272,561163,1,0,0:0:0:0:
256,352,561279,1,0,0:0:0:0:
256,272,561396,1,0,0:0:0:0:
256,192,561513,1,0,0:0:0:0:
496,192,561746,5,0,0:0:0:0:
496,192,561863,1,0,0:0:0:0:
416,192,561980,1,0,0:0:0:0:
416,112,562096,1,0,0:0:0:0:
336,112,562213,1,0,0:0:0:0:
336,192,562330,1,0,0:0:0:0:
256,192,562446,1,0,0:0:0:0:
16,192,562680,5,0,0:0:0:0:
16,192,562797,1,0,0:0:0:0:
96,192,562914,1,0,0:0:0:0:
96,112,563030,1,0,0:0:0:0:
176,112,563147,1,0,0:0:0:0:
176,192,563264,1,0,0:0:0:0:
256,192,563380,1,0,0:0:0:0:
256,352,563614,5,0,0:0:0:0:
256,352,563731,1,0,0:0:0:0:
256,352,563847,1,0,0:0:0:0:
176,352,563964,1,0,0:0:0:0:
96,352,564081,1,0,0:0:0:0:
16,352,564197,1,0,0:0:0:0:
16,272,564314,1,0,0:0:0:0:
256,192,564548,5,0,0:0:0:0:
256,192,564665,1,0,0:0:0:0:
256,192,564781,1,0,0:0:0:0:
336,192,564898,1,0,0:0:0:0:
416,192,565015,1,0,0:0:0:0:
496,192,565131,1,0,0:0:0:0:
496,112,565248,1,0,0:0:0:0:
256,32,565481,5,0,0:0:0:0:
256,32,565598,1,0,0:0:0:0:
256,32,565715,1,0,0:0:0:0:
256,112,565832,1,0,0:0:0:0:
256,192,565948,1,0,0:0:0:0:
176,192,566065,1,0,0:0:0:0:
96,192,566182,1,0,0:0:0:0:
256,352,566415,5,0,0:0:0:0:
256,352,566532,1,0,0:0:0:0:
256,352,566649,1,0,0:0:0:0:
256,272,566766,1,0,0:0:0:0:
256,192,566882,1,0,0:0:0:0:
336,192,566999,1,0,0:0:0:0:
416,192,567116,1,0,0:0:0:0:
256,192,567349,5,0,0:0:0:0:
256,192,567466,1,0,0:0:0:0:
256,192,567583,5,0,0:0:0:0:
192,144,567699,1,0,0:0:0:0:
256,96,567816,1,0,0:0:0:0:
320,48,567933,1,0,0:0:0:0:
256,0,568050,1,0,0:0:0:0:
256,192,568283,5,0,0:0:0:0:
256,192,568400,1,0,0:0:0:0:
256,192,568517,5,0,0:0:0:0:
320,240,568633,1,0,0:0:0:0:
256,288,568750,1,0,0:0:0:0:
192,336,568867,1,0,0:0:0:0:
256,384,568984,1,0,0:0:0:0:
32,192,569217,5,0,0:0:0:0:
32,192,569334,1,0,0:0:0:0:
32,192,569450,1,0,0:0:0:0:
32,112,569567,1,0,0:0:0:0:
112,112,569684,1,0,0:0:0:0:
192,112,569801,1,0,0:0:0:0:
192,32,569918,1,0,0:0:0:0:
480,192,570151,5,0,0:0:0:0:
480,192,570268,1,0,0:0:0:0:
480,192,570384,1,0,0:0:0:0:
480,272,570501,1,0,0:0:0:0:
400,272,570618,1,0,0:0:0:0:
320,272,570735,1,0,0:0:0:0:
320,352,570852,1,0,0:0:0:0:
320,192,571085,5,0,0:0:0:0:
320,192,571201,1,0,0:0:0:0:
320,192,571318,1,0,0:0:0:0:
320,112,571435,1,0,0:0:0:0:
400,112,571552,1,0,0:0:0:0:
400,192,571668,1,0,0:0:0:0:
320,192,571785,1,0,0:0:0:0:
192,192,572018,5,0,0:0:0:0:
192,192,572134,1,0,0:0:0:0:
192,192,572251,1,0,0:0:0:0:
112,192,572368,1,0,0:0:0:0:
112,272,572484,1,0,0:0:0:0:
192,272,572601,1,0,0:0:0:0:
192,192,572718,1,0,0:0:0:0:
192,32,572952,5,0,0:0:0:0:
192,32,573069,1,0,0:0:0:0:
192,32,573186,5,0,0:0:0:0:
112,32,573303,1,0,0:0:0:0:
112,112,573420,1,0,0:0:0:0:
192,112,573536,1,0,0:0:0:0:
192,32,573653,1,0,0:0:0:0:
400,272,573886,5,0,0:0:0:0:
400,272,574003,1,0,0:0:0:0:
400,272,574120,5,0,0:0:0:0:
400,352,574237,1,0,0:0:0:0:
320,352,574353,1,0,0:0:0:0:
320,272,574470,1,0,0:0:0:0:
400,272,574587,1,0,0:0:0:0:
256,192,574703,12,0,575520,0:0:0:0:
