osu file format v14

[General]
AudioFilename: audio.mp3
AudioLeadIn: 0
PreviewTime: 13423
Countdown: 1
SampleSet: Soft
StackLeniency: 0.7
Mode: 0
LetterboxInBreaks: 0
WidescreenStoryboard: 1

[Editor]
DistanceSpacing: 1.1
BeatDivisor: 4
GridSize: 4
TimelineZoom: 2

[Metadata]
Title:The Globglogabgalab
TitleUnicode:The Globglogabgalab
Artist:Tony Halstead
ArtistUnicode:Tony Halstead
Creator:Mao
Version:Normal
Source:Strawinsky and the mysterious house
Tags:christian books movie film Hope Animation Tim Thomas David Hutter
BeatmapID:1588367
BeatmapSetID:754450

[Difficulty]
HPDrainRate:3
CircleSize:3.5
OverallDifficulty:3
ApproachRate:4.5
SliderMultiplier:1.70000000596046
SliderTickRate:1

[Events]
//Background and Video events
0,0,"c49.jpg",0,0
Video,0,"Globgogabgalab.avi"
//Break Periods
2,34678,43191
//Storyboard Layer 0 (Background)
//Storyboard Layer 1 (Fail)
//Storyboard Layer 2 (Pass)
//Storyboard Layer 3 (Foreground)
//Storyboard Layer 4 (Overlay)
//Storyboard Sound Samples

[TimingPoints]
8735.28571428571,652.173913043478,4,2,0,50,1,0
10039,641.711229946524,4,2,0,50,1,0
11322,664.819944598338,4,2,0,50,1,0
13981,659.340659340659,4,2,0,50,1,0
14640,645.161290322581,4,2,0,50,1,0
15285,625.000000000001,4,2,0,50,1,0
15910,679.11714770798,4,2,0,50,1,0
16589,652.173913043478,4,2,0,50,1,0
17893,638.297872340426,4,2,0,50,1,0
18531,708.800945067927,4,2,0,50,1,0
18885,652.173913043478,4,2,0,50,1,0
19211,648.648648648649,4,2,0,50,1,0
20508,648.648648648649,4,2,0,50,1,0
21805,659.340659340659,4,2,0,50,1,0
24442,631.578947368422,4,2,0,50,1,0
26968,625.000000000001,4,2,0,50,1,0
29468,631.578947368422,4,2,0,50,1,0
31994,613.81074168798,4,2,0,50,1,0
33835,643.43163538874,4,2,0,50,1,0
34478,659.340659340661,4,2,0,50,1,0
35796,645.161290322582,4,2,0,50,1,0
37086,655.737704918033,4,2,0,50,1,0
38397,666.666666666667,4,2,0,50,1,0
39397,689.655172413793,4,2,0,50,1,0
39741,621.761658031088,4,2,0,50,1,0
40984,641.711229946524,4,2,0,50,1,0
44191,521.739130434783,4,2,0,50,1,0
44451,623.376623376623,4,2,0,50,1,0
44762,659.340659340661,4,2,0,50,1,0
45421,645.161290322582,4,2,0,50,1,0
46066,625.000000000001,4,2,0,50,1,0
46691,679.11714770798,4,2,0,50,1,0
47370,652.17391304348,4,2,0,50,1,0
48674,638.297872340427,4,2,0,50,1,0
49312,708.800945067927,4,2,0,50,1,0
49666,652.173913043478,4,2,0,50,1,0
49992,648.648648648649,4,2,0,50,1,0
52586,659.340659340659,4,2,0,50,1,0
55223,631.578947368421,4,2,0,50,1,0
57749,625,4,2,0,50,1,0
60249,631.578947368421,4,2,0,50,1,0
62775,613.81074168798,4,2,0,50,1,0
64616,634.920634920635,4,2,0,50,1,0
65250,659.340659340659,4,2,0,50,1,0

[Colours]
Combo1 : 250,5,121
Combo2 : 236,230,251
Combo3 : 23,249,114
Combo4 : 254,139,193

[HitObjects]
14,347,13648,5,0,0:0:0:0:
85,282,13981,1,4,0:0:0:0:
16,220,14310,1,0,0:0:0:0:
76,148,14640,2,0,L|172:148,1,85.000000298023,2|0,0:0|0:0,0:0:0:0:
208,228,15285,2,0,L|304:228,1,85.000000298023,4|0,0:3|0:0,0:0:0:0:
340,312,15910,1,2,0:0:0:0:
480,188,16589,6,0,P|487:169|467:143,3,42.5000001490115,4|0|2|0,0:0|0:0|0:0|0:0,0:0:0:0:
444,116,17241,2,0,P|425:109|399:129,3,42.5000001490115,2|0|2|0,0:0|0:0|0:0|0:0,0:0:0:0:
372,150,17893,2,0,P|365:169|385:195,3,42.5000001490115,4|0|2|0,0:3|0:0|0:0|0:0,0:0:0:0:
406,221,18531,1,2,0:0:0:0:
293,371,19211,5,4,0:0:0:0:
242,292,19535,1,0,0:0:0:0:
176,356,19859,2,0,L|76:356,1,85.000000298023,2|0,0:0|0:0,0:0:0:0:
28,284,20508,2,0,L|28:184,1,85.000000298023,4|0,0:3|0:0,0:0:0:0:
28,104,21156,1,2,0:0:0:0:
193,23,21805,6,0,B|203:63|203:63|188:107,1,85.000000298023,4|0,0:0|0:0,0:0:0:0:
149,127,22299,2,0,B|138:167|138:167|153:211,1,85.000000298023,2|0,0:0|0:0,0:0:0:0:
176,248,22794,1,0,0:0:0:0:
216,332,23123,1,4,0:3:0:0:
268,256,23453,1,0,0:0:0:0:
312,340,23783,2,0,L|408:340,1,85.000000298023,2|0,0:0|0:0,0:0:0:0:
420,244,24442,22,0,P|439:251|465:231,3,42.5000001490115,4|0|2|0,0:0|0:0|0:0|0:0,0:0:0:0:
492,208,25073,2,0,P|499:189|479:163,3,42.5000001490115,2|0|6|0,0:0|0:0|0:3|0:0,0:0:0:0:
457,135,25705,2,0,B|438:129|438:129|419:137,1,42.5000001490115,2|0,0:0|0:0,0:0:0:0:
384,168,26020,1,2,0:0:0:0:
332,88,26336,1,8,0:3:0:0:
156,20,26968,38,0,P|137:13|111:33,3,42.5000001490115,4|0|2|0,0:0|0:0|0:0|0:0,0:0:0:0:
84,56,27593,2,0,P|77:75|97:101,3,42.5000001490115,2|0|6|0,0:0|0:0|0:3|0:0,0:0:0:0:
118,128,28218,2,0,B|137:134|137:134|156:126,1,42.5000001490115,2|0,0:0|0:0,0:0:0:0:
192,96,28530,1,2,0:0:0:0:
244,176,28843,1,8,0:3:0:0:
416,216,29468,6,0,P|435:209|461:229,3,42.5000001490115,4|0|2|0,0:0|0:0|0:0|0:0,0:0:0:0:
488,252,30099,2,0,P|495:271|475:297,3,42.5000001490115,2|0|6|0,0:0|0:0|0:3|0:0,0:0:0:0:
453,324,30731,2,0,B|434:330|434:330|415:322,1,42.5000001490115,2|0,0:0|0:0,0:0:0:0:
380,292,31046,1,2,0:0:0:0:
328,372,31362,1,8,0:3:0:0:
144,332,31994,38,0,P|125:339|99:319,3,42.5000001490115,4|0|2|0,0:0|0:0|0:0|0:0,0:0:0:0:
72,296,32607,2,0,P|65:277|85:251,3,42.5000001490115,2|0|6|0,0:0|0:0|0:3|0:0,0:0:0:0:
106,223,33221,2,0,B|125:217|125:217|144:225,1,42.5000001490115,2|0,0:0|0:0,0:0:0:0:
180,256,33528,1,2,0:0:0:0:
232,176,33835,1,8,0:3:0:0:
475,202,34478,5,4,0:0:0:0:
388,170,44451,37,0,0:0:0:0:
460,232,44762,1,4,0:0:0:0:
392,296,45091,1,0,0:0:0:0:
320,236,45421,2,0,L|232:236,1,85.000000298023,2|0,0:0|0:0,0:0:0:0:
184,316,46066,2,0,L|96:316,1,85.000000298023,4|0,0:3|0:0,0:0:0:0:
32,384,46691,1,2,0:0:0:0:
8,200,47370,6,0,P|4:180|16:160,3,42.5000001490115,4|0|2|0,0:0|0:0|0:0|0:0,0:0:0:0:
44,128,48022,2,0,P|40:108|52:88,3,42.5000001490115,2|0|2|0,0:0|0:0|0:0|0:0,0:0:0:0:
88,60,48674,2,0,P|84:40|96:20,3,42.5000001490115,4|0|2|0,0:3|0:0|0:0|0:0,0:0:0:0:
136,4,49312,1,2,0:0:0:0:
256,152,49992,5,4,0:0:0:0:
308,76,50316,1,0,0:0:0:0:
368,148,50640,2,0,L|464:148,1,85.000000298023,2|0,0:0|0:0,0:0:0:0:
508,224,51289,2,0,L|508:309,1,85.000000298023,4|0,0:3|0:0,0:0:0:0:
444,376,51937,1,2,0:0:0:0:
272,300,52586,6,0,B|260:260|260:260|272:216,1,85.000000298023,4|0,0:0|0:0,0:0:0:0:
312,200,53080,2,0,B|323:158|323:158|311:118,1,85.000000298023,2|0,0:0|0:0,0:0:0:0:
276,88,53575,1,2,0:0:0:0:
184,92,53904,1,4,0:3:0:0:
116,28,54234,1,2,0:0:0:0:
24,40,54564,2,0,L|24:128,1,85.000000298023,2|0,0:0|0:0,0:0:0:0:
12,220,55223,22,0,P|32:216|52:228,3,42.5000001490115,4|0|2|0,0:0|0:0|0:0|0:0,0:0:0:0:
84,256,55854,2,0,P|104:252|124:264,3,42.5000001490115,2|0|6|0,0:0|0:0|0:3|0:0,0:0:0:0:
152,299,56486,2,0,B|172:296|172:296|190:306,1,42.5000001490115,2|0,0:0|0:0,0:0:0:0:
208,348,56801,1,0,0:0:0:0:
296,324,57117,1,4,0:3:0:0:
408,196,57749,38,0,P|401:176|381:165,3,42.5000001490115,4|0|2|0,0:0|0:0|0:0|0:0,0:0:0:0:
340,151,58374,2,0,P|333:131|313:120,3,42.5000001490115,2|0|6|0,0:0|0:0|0:3|0:0,0:0:0:0:
268,113,58999,2,0,B|261:94|261:94|243:83,1,42.5000001490115,2|0,0:0|0:0,0:0:0:0:
199,90,59311,1,0,0:0:0:0:
179,0,59624,1,4,0:3:0:0:
44,132,60249,6,0,P|36:160|64:164,3,42.5000001490115,4|0|2|0,0:0|0:0|0:0|0:0,0:0:0:0:
84,188,60880,2,0,P|94:205|83:222,3,42.5000001490115,2|0|6|0,0:0|0:0|0:3|0:0,0:0:0:0:
52,255,61512,2,0,B|40:272|40:272|54:295,1,42.5000001490115,2|0,0:0|0:0,0:0:0:0:
84,324,61827,1,0,0:0:0:0:
156,264,62143,1,4,0:3:0:0:
332,344,62775,38,0,P|340:316|312:312,3,42.5000001490115,4|0|2|0,0:0|0:0|0:0|0:0,0:0:0:0:
292,288,63388,2,0,P|281:270|292:253,3,42.5000001490115,2|0|6|0,0:0|0:0|0:3|0:0,0:0:0:0:
323,220,64002,2,0,B|336:205|336:205|324:185,1,42.5000001490115,2|0,0:0|0:0,0:0:0:0:
292,152,64309,1,0,0:0:0:0:
328,64,64616,1,4,0:3:0:0:
143,32,65250,37,4,0:1:0:0:
256,192,65332,12,0,68217,0:0:0:0:
