osu file format v14

[General]
AudioFilename: audio.mp3
AudioLeadIn: 0
PreviewTime: 5963
Countdown: 0
SampleSet: Normal
StackLeniency: 0.7
Mode: 3
LetterboxInBreaks: 0
SpecialStyle: 0
WidescreenStoryboard: 1

[Editor]
DistanceSpacing: 0.8
BeatDivisor: 4
GridSize: 8
TimelineZoom: 3.699999

[Metadata]
Title:Sure as Hell
TitleUnicode:Sure as Hell
Artist:Tonight Alive
ArtistUnicode:Tonight Alive
Creator:puxtu
Version:HD
Source:
Tags:what are you so scared of punk rock
BeatmapID:1577425
BeatmapSetID:598998

[Difficulty]
HPDrainRate:8
CircleSize:4
OverallDifficulty:8
ApproachRate:5
SliderMultiplier:1.4
SliderTickRate:1

[Events]
//Background and Video events
0,0,"Paradise.(Pixiv.Fantasia).full.1710930.jpg",0,0
//Break Periods
//Storyboard Layer 0 (Background)
//Storyboard Layer 1 (Fail)
//Storyboard Layer 2 (Pass)
//Storyboard Layer 3 (Foreground)
//Storyboard Sound Samples

[TimingPoints]
5964,230.769230769231,4,1,4,50,1,0
50271,-100,4,1,4,50,0,1
67348,-100,4,1,4,50,0,0
109348,-100,4,1,4,50,0,1
130117,-100,4,1,4,50,0,0

[HitObjects]
448,192,5963,5,4,0:0:0:0:
64,192,5963,1,0,0:0:0:0:
192,192,6079,1,0,0:0:0:0:
64,192,6194,1,0,0:0:0:0:
320,192,6194,1,8,0:0:0:0:
192,192,6310,1,0,0:0:0:0:
448,192,6310,1,4,0:0:0:0:
64,192,6425,1,0,0:0:0:0:
448,192,6540,1,2,0:0:0:0:
320,192,6540,1,0,0:0:0:0:
192,192,6656,1,4,0:0:0:0:
64,192,6656,1,0,0:0:0:0:
320,192,6771,1,0,0:0:0:0:
64,192,6887,1,0,0:0:0:0:
448,192,7002,1,0,0:0:0:0:
192,192,7002,1,2,0:0:0:0:
320,192,7117,1,8,0:0:0:0:
64,192,7117,1,0,0:0:0:0:
448,192,7233,1,0,0:0:0:0:
64,192,7348,1,0,0:0:0:0:
192,192,7348,1,2,0:0:0:0:
320,192,7463,1,0,0:0:0:0:
448,192,7579,1,8,0:0:0:0:
192,192,7579,1,0,0:0:0:0:
320,192,7694,1,0,0:0:0:0:
448,192,7810,1,0,0:0:0:0:
192,192,7810,1,4,0:0:0:0:
64,192,7810,1,2,0:0:0:0:
320,192,7925,1,0,0:0:0:0:
192,192,8040,1,8,0:0:0:0:
64,192,8040,1,0,0:0:0:0:
320,192,8156,1,4,0:0:0:0:
448,192,8156,1,0,0:0:0:0:
192,192,8271,1,0,0:0:0:0:
448,192,8387,1,0,0:0:0:0:
320,192,8387,1,2,0:0:0:0:
64,192,8502,1,0,0:0:0:0:
192,192,8502,1,4,0:0:0:0:
320,192,8617,1,0,0:0:0:0:
192,192,8733,1,0,0:0:0:0:
320,192,8848,1,2,0:0:0:0:
448,192,8848,1,0,0:0:0:0:
64,192,8964,1,0,0:0:0:0:
192,192,8964,1,8,0:0:0:0:
448,192,9079,1,0,0:0:0:0:
320,192,9194,1,2,0:0:0:0:
64,192,9194,1,0,0:0:0:0:
192,192,9310,1,0,0:0:0:0:
320,192,9425,1,0,0:0:0:0:
448,192,9425,1,8,0:0:0:0:
64,192,9540,1,0,0:0:0:0:
448,192,9656,1,0,0:0:0:0:
192,192,9656,1,4,0:0:0:0:
320,192,9656,1,2,0:0:0:0:
64,192,9771,1,0,0:0:0:0:
320,192,9887,1,8,0:0:0:0:
448,192,9887,1,0,0:0:0:0:
192,192,10002,1,4,0:0:0:0:
64,192,10002,1,0,0:0:0:0:
448,192,10117,1,0,0:0:0:0:
192,192,10233,1,0,0:0:0:0:
64,192,10233,1,2,0:0:0:0:
448,192,10348,1,0,0:0:0:0:
320,192,10348,1,4,0:0:0:0:
192,192,10464,1,0,0:0:0:0:
448,192,10579,1,0,0:0:0:0:
320,192,10694,1,2,0:0:0:0:
64,192,10694,1,0,0:0:0:0:
448,192,10810,1,0,0:0:0:0:
192,192,10810,1,8,0:0:0:0:
64,192,10925,1,0,0:0:0:0:
320,192,11040,1,2,0:0:0:0:
448,192,11040,1,0,0:0:0:0:
192,192,11156,1,0,0:0:0:0:
320,192,11271,1,0,0:0:0:0:
64,192,11271,1,8,0:0:0:0:
192,192,11387,1,0,0:0:0:0:
448,192,11502,1,2,0:0:0:0:
320,192,11502,1,4,0:0:0:0:
64,192,11502,1,0,0:0:0:0:
192,192,11617,1,0,0:0:0:0:
448,192,11733,1,0,0:0:0:0:
320,192,11733,1,8,0:0:0:0:
64,192,11848,1,0,0:0:0:0:
192,192,11848,1,4,0:0:0:0:
320,192,11964,1,0,0:0:0:0:
192,192,12079,1,2,0:0:0:0:
64,192,12079,1,0,0:0:0:0:
320,192,12194,1,4,0:0:0:0:
448,192,12194,1,0,0:0:0:0:
192,192,12310,1,0,0:0:0:0:
320,192,12425,1,0,0:0:0:0:
64,192,12540,1,0,0:0:0:0:
192,192,12540,1,2,0:0:0:0:
320,192,12656,1,8,0:0:0:0:
448,192,12656,1,0,0:0:0:0:
64,192,12771,1,0,0:0:0:0:
320,192,12887,1,8,0:0:0:0:
192,192,12964,1,8,0:0:0:0:
320,192,13040,1,8,0:0:0:0:
192,192,13117,1,8,0:0:0:0:
320,192,13233,1,8,0:0:0:0:
448,192,13348,1,0,0:0:0:0:
192,192,13348,1,4,0:0:0:0:
64,192,13348,1,2,0:0:0:0:
320,192,13464,1,0,0:0:0:0:
192,192,13579,1,8,0:0:0:0:
448,192,13579,1,0,0:0:0:0:
64,192,13694,1,4,0:0:0:0:
320,192,13694,1,0,0:0:0:0:
448,192,13810,1,0,0:0:0:0:
192,192,13925,1,0,0:0:0:0:
64,192,13925,1,2,0:0:0:0:
448,192,14040,1,0,0:0:0:0:
320,192,14040,1,4,0:0:0:0:
192,192,14156,1,0,0:0:0:0:
448,192,14271,1,0,0:0:0:0:
320,192,14387,1,2,0:0:0:0:
64,192,14387,1,0,0:0:0:0:
448,192,14502,1,0,0:0:0:0:
192,192,14502,1,8,0:0:0:0:
64,192,14617,1,0,0:0:0:0:
320,192,14733,1,2,0:0:0:0:
448,192,14733,1,0,0:0:0:0:
192,192,14848,1,0,0:0:0:0:
320,192,14964,1,0,0:0:0:0:
64,192,14964,1,8,0:0:0:0:
192,192,15079,1,0,0:0:0:0:
448,192,15194,1,2,0:0:0:0:
320,192,15194,1,4,0:0:0:0:
64,192,15194,1,0,0:0:0:0:
192,192,15310,1,0,0:0:0:0:
448,192,15425,1,0,0:0:0:0:
320,192,15425,1,8,0:0:0:0:
64,192,15540,1,0,0:0:0:0:
192,192,15540,1,4,0:0:0:0:
320,192,15656,1,0,0:0:0:0:
192,192,15771,1,2,0:0:0:0:
64,192,15771,1,0,0:0:0:0:
320,192,15887,1,4,0:0:0:0:
448,192,15887,1,0,0:0:0:0:
192,192,16002,1,0,0:0:0:0:
320,192,16117,1,0,0:0:0:0:
64,192,16233,1,0,0:0:0:0:
192,192,16233,1,2,0:0:0:0:
320,192,16348,1,8,0:0:0:0:
448,192,16348,1,0,0:0:0:0:
64,192,16464,1,0,0:0:0:0:
448,192,16579,1,0,0:0:0:0:
192,192,16579,1,2,0:0:0:0:
320,192,16694,1,0,0:0:0:0:
64,192,16810,1,8,0:0:0:0:
192,192,16810,1,0,0:0:0:0:
448,192,16925,1,0,0:0:0:0:
192,192,17040,1,2,0:0:0:0:
320,192,17040,1,4,0:0:0:0:
64,192,17040,1,0,0:0:0:0:
448,192,17156,1,0,0:0:0:0:
64,192,17271,1,0,0:0:0:0:
192,192,17271,1,8,0:0:0:0:
448,192,17387,1,0,0:0:0:0:
320,192,17387,1,4,0:0:0:0:
64,192,17502,1,0,0:0:0:0:
448,192,17617,1,2,0:0:0:0:
320,192,17617,1,0,0:0:0:0:
192,192,17733,1,4,0:0:0:0:
64,192,17733,1,0,0:0:0:0:
320,192,17848,1,0,0:0:0:0:
64,192,17964,1,0,0:0:0:0:
448,192,18079,1,0,0:0:0:0:
192,192,18079,1,2,0:0:0:0:
320,192,18194,1,8,0:0:0:0:
64,192,18194,1,0,0:0:0:0:
448,192,18310,1,0,0:0:0:0:
64,192,18425,1,0,0:0:0:0:
192,192,18425,1,2,0:0:0:0:
320,192,18540,1,0,0:0:0:0:
448,192,18656,1,8,0:0:0:0:
192,192,18656,1,0,0:0:0:0:
320,192,18771,1,0,0:0:0:0:
448,192,18887,1,0,0:0:0:0:
192,192,18887,1,4,0:0:0:0:
64,192,18887,1,2,0:0:0:0:
320,192,19002,1,0,0:0:0:0:
192,192,19117,1,8,0:0:0:0:
64,192,19117,1,0,0:0:0:0:
320,192,19233,1,4,0:0:0:0:
448,192,19233,1,0,0:0:0:0:
192,192,19348,1,0,0:0:0:0:
448,192,19464,1,0,0:0:0:0:
320,192,19464,1,2,0:0:0:0:
64,192,19579,1,0,0:0:0:0:
192,192,19579,1,4,0:0:0:0:
320,192,19694,1,0,0:0:0:0:
192,192,19810,1,8,0:0:0:0:
320,192,19887,1,8,0:0:0:0:
192,192,19964,1,8,0:0:0:0:
320,192,20040,1,8,0:0:0:0:
192,192,20156,1,8,0:0:0:0:
320,192,20271,1,8,0:0:0:0:
192,192,20387,1,8,0:0:0:0:
320,192,20502,1,8,0:0:0:0:
192,192,20617,1,8,0:0:0:0:
320,192,20733,1,4,0:0:0:0:
64,192,20733,1,0,0:0:0:0:
448,192,20733,128,2,20964:0:0:0:0:
64,192,20964,1,0,0:0:0:0:
320,192,20964,1,8,0:0:0:0:
192,192,21079,1,4,0:0:0:0:
448,192,21079,1,2,0:0:0:0:
64,192,21079,128,0,21310:0:0:0:0:
320,192,21310,1,0,0:0:0:0:
192,192,21310,1,2,0:0:0:0:
64,192,21425,1,0,0:0:0:0:
320,192,21425,1,4,0:0:0:0:
448,192,21425,128,8,21656:0:0:0:0:
64,192,21887,1,8,0:0:0:0:
448,192,21887,1,0,0:0:0:0:
448,192,22348,1,0,0:0:0:0:
64,192,22348,1,8,0:0:0:0:
320,192,22579,1,0,0:0:0:0:
192,192,22579,128,2,22810:0:0:0:0:
448,192,22810,1,0,0:0:0:0:
64,192,22810,1,8,0:0:0:0:
192,192,22925,1,2,0:0:0:0:
320,192,22925,128,0,23156:0:0:0:0:
448,192,23156,1,0,0:0:0:0:
192,192,23156,1,2,0:0:0:0:
320,192,23271,1,0,0:0:0:0:
64,192,23271,128,8,23502:0:0:0:0:
448,192,23733,1,0,0:0:0:0:
64,192,23733,1,8,0:0:0:0:
448,192,24194,1,0,0:0:0:0:
64,192,24194,1,8,0:0:0:0:
192,192,24425,1,2,0:0:0:0:
320,192,24425,128,0,24656:0:0:0:0:
448,192,24656,1,0,0:0:0:0:
192,192,24656,1,8,0:0:0:0:
320,192,24771,1,0,0:0:0:0:
64,192,24771,128,2,25002:0:0:0:0:
320,192,25002,1,0,0:0:0:0:
192,192,25002,1,2,0:0:0:0:
64,192,25117,1,8,0:0:0:0:
448,192,25117,128,0,25348:0:0:0:0:
448,192,25579,1,0,0:0:0:0:
64,192,25579,1,8,0:0:0:0:
448,192,26040,1,0,0:0:0:0:
64,192,26040,1,8,0:0:0:0:
192,192,26271,1,2,0:0:0:0:
448,192,26271,128,0,26502:0:0:0:0:
64,192,26502,1,8,0:0:0:0:
192,192,26502,1,0,0:0:0:0:
448,192,26617,1,2,0:0:0:0:
320,192,26617,128,0,26848:0:0:0:0:
192,192,26848,1,2,0:0:0:0:
64,192,26848,1,0,0:0:0:0:
320,192,26964,1,8,0:0:0:0:
448,192,26964,128,0,28117:0:0:0:0:
64,192,27425,1,8,0:0:0:0:
320,192,27425,1,0,0:0:0:0:
64,192,27887,1,8,0:0:0:0:
320,192,27887,1,0,0:0:0:0:
320,192,28117,1,0,0:0:0:0:
192,192,28117,128,2,28348:0:0:0:0:
448,192,28348,1,0,0:0:0:0:
320,192,28348,1,8,0:0:0:0:
192,192,28464,1,2,0:0:0:0:
64,192,28464,128,0,28694:0:0:0:0:
320,192,28694,1,0,0:0:0:0:
192,192,28694,1,2,0:0:0:0:
64,192,28810,1,8,0:0:0:0:
448,192,28810,128,0,29040:0:0:0:0:
192,192,29156,1,2,0:0:0:0:
448,192,29271,1,0,0:0:0:0:
64,192,29271,1,8,0:0:0:0:
320,192,29502,1,2,0:0:0:0:
448,192,29733,1,0,0:0:0:0:
64,192,29733,1,8,0:0:0:0:
192,192,29964,1,2,0:0:0:0:
320,192,29964,128,0,30194:0:0:0:0:
64,192,30194,1,8,0:0:0:0:
192,192,30194,1,0,0:0:0:0:
320,192,30310,1,0,0:0:0:0:
448,192,30310,128,2,30540:0:0:0:0:
192,192,30540,1,2,0:0:0:0:
320,192,30540,1,0,0:0:0:0:
448,192,30656,1,0,0:0:0:0:
64,192,30656,128,8,30887:0:0:0:0:
192,192,31002,1,0,0:0:0:0:
64,192,31117,1,8,0:0:0:0:
448,192,31117,1,0,0:0:0:0:
320,192,31233,1,8,3:0:0:0:
192,192,31233,1,0,0:0:0:0:
448,192,31348,1,8,3:0:0:0:
64,192,31348,1,0,0:0:0:0:
320,192,31464,1,0,0:0:0:0:
64,192,31579,1,8,0:0:0:0:
448,192,31579,1,0,0:0:0:0:
320,192,31810,1,0,0:0:0:0:
192,192,31810,128,2,32040:0:0:0:0:
448,192,32040,1,0,0:0:0:0:
64,192,32040,1,8,0:0:0:0:
192,192,32156,1,2,0:0:0:0:
320,192,32156,128,0,32387:0:0:0:0:
448,192,32387,1,0,0:0:0:0:
192,192,32387,1,2,0:0:0:0:
320,192,32502,1,0,0:0:0:0:
64,192,32502,128,8,32733:0:0:0:0:
320,192,32848,1,2,0:0:0:0:
448,192,32964,1,0,0:0:0:0:
64,192,32964,1,8,0:0:0:0:
192,192,33194,1,2,0:0:0:0:
448,192,33425,1,0,0:0:0:0:
64,192,33425,1,8,0:0:0:0:
192,192,33656,1,2,0:0:0:0:
320,192,33656,128,0,33887:0:0:0:0:
64,192,33887,1,8,0:0:0:0:
448,192,33887,1,0,0:0:0:0:
320,192,34002,1,0,0:0:0:0:
192,192,34002,128,2,34233:0:0:0:0:
64,192,34233,1,2,0:0:0:0:
320,192,34233,1,0,0:0:0:0:
192,192,34348,1,8,0:0:0:0:
448,192,34348,128,0,34694:0:0:0:0:
192,192,34694,1,0,0:0:0:0:
64,192,34810,1,8,0:0:0:0:
448,192,34810,1,0,0:0:0:0:
320,192,34925,1,0,0:0:0:0:
192,192,34925,1,8,3:0:0:0:
448,192,35040,1,0,0:0:0:0:
64,192,35040,1,8,3:0:0:0:
320,192,35156,1,0,0:0:0:0:
64,192,35271,1,8,0:0:0:0:
448,192,35271,1,0,0:0:0:0:
192,192,35271,1,2,0:0:0:0:
320,192,35502,1,4,0:0:0:0:
64,192,35502,1,0,0:0:0:0:
448,192,35502,128,2,35733:0:0:0:0:
192,192,35733,1,8,0:0:0:0:
64,192,35733,1,0,0:0:0:0:
320,192,35848,1,2,0:0:0:0:
448,192,35848,128,0,36079:0:0:0:0:
320,192,36079,1,0,0:0:0:0:
192,192,36079,1,2,0:0:0:0:
64,192,36194,1,8,0:0:0:0:
448,192,36194,128,0,36425:0:0:0:0:
192,192,36425,1,0,0:0:0:0:
320,192,36540,1,0,0:0:0:0:
64,192,36540,1,2,0:0:0:0:
448,192,36656,1,0,0:0:0:0:
192,192,36656,1,8,0:0:0:0:
64,192,36771,1,0,0:0:0:0:
320,192,36887,1,0,0:0:0:0:
192,192,36887,1,2,0:0:0:0:
448,192,37002,1,0,0:0:0:0:
192,192,37117,1,0,0:0:0:0:
64,192,37117,1,8,0:0:0:0:
320,192,37233,1,0,0:0:0:0:
448,192,37348,1,0,0:0:0:0:
64,192,37348,128,2,37579:0:0:0:0:
320,192,37579,1,8,0:0:0:0:
192,192,37579,1,0,0:0:0:0:
64,192,37694,1,0,0:0:0:0:
448,192,37694,128,2,37925:0:0:0:0:
192,192,37925,1,0,0:0:0:0:
64,192,37925,1,2,0:0:0:0:
448,192,38040,1,8,0:0:0:0:
320,192,38040,128,0,38271:0:0:0:0:
192,192,38271,1,0,0:0:0:0:
64,192,38387,1,0,0:0:0:0:
448,192,38387,1,2,0:0:0:0:
192,192,38502,1,0,0:0:0:0:
320,192,38502,1,8,0:0:0:0:
448,192,38617,1,0,0:0:0:0:
192,192,38733,1,0,0:0:0:0:
64,192,38733,1,2,0:0:0:0:
320,192,38848,1,0,0:0:0:0:
64,192,38964,1,0,0:0:0:0:
448,192,38964,1,8,0:0:0:0:
192,192,39079,1,0,0:0:0:0:
320,192,39194,1,0,0:0:0:0:
448,192,39194,128,2,39425:0:0:0:0:
320,192,39425,1,8,0:0:0:0:
64,192,39425,1,0,0:0:0:0:
448,192,39540,1,0,0:0:0:0:
192,192,39540,128,2,39771:0:0:0:0:
448,192,39771,1,0,0:0:0:0:
320,192,39771,1,2,0:0:0:0:
192,192,39887,1,8,0:0:0:0:
64,192,39887,128,0,40117:0:0:0:0:
320,192,40117,1,0,0:0:0:0:
192,192,40233,1,0,0:0:0:0:
448,192,40233,1,2,0:0:0:0:
64,192,40348,1,0,0:0:0:0:
320,192,40348,1,8,0:0:0:0:
448,192,40464,1,0,0:0:0:0:
192,192,40579,1,0,0:0:0:0:
320,192,40579,1,2,0:0:0:0:
64,192,40694,1,0,0:0:0:0:
320,192,40810,1,0,0:0:0:0:
448,192,40810,1,8,0:0:0:0:
192,192,40925,1,0,0:0:0:0:
448,192,41040,1,2,0:0:0:0:
64,192,41040,128,0,41271:0:0:0:0:
192,192,41271,1,8,0:0:0:0:
320,192,41271,1,0,0:0:0:0:
448,192,41387,1,0,0:0:0:0:
64,192,41387,128,2,41617:0:0:0:0:
320,192,41617,1,0,0:0:0:0:
448,192,41617,1,2,0:0:0:0:
192,192,41733,1,0,0:0:0:0:
64,192,41733,128,8,41964:0:0:0:0:
320,192,41964,1,0,0:0:0:0:
448,192,42079,1,0,0:0:0:0:
64,192,42079,1,2,0:0:0:0:
320,192,42194,1,0,0:0:0:0:
192,192,42194,1,8,0:0:0:0:
64,192,42310,1,0,0:0:0:0:
320,192,42425,1,0,0:0:0:0:
448,192,42425,1,2,0:0:0:0:
192,192,42540,1,0,0:0:0:0:
448,192,42656,1,0,0:0:0:0:
64,192,42656,1,8,0:0:0:0:
320,192,42771,1,0,0:0:0:0:
64,192,42887,1,2,0:0:0:0:
192,192,42887,128,0,43117:0:0:0:0:
64,192,43117,1,0,0:0:0:0:
320,192,43117,1,8,0:0:0:0:
192,192,43233,1,2,0:0:0:0:
448,192,43233,128,0,43464:0:0:0:0:
320,192,43464,1,2,0:0:0:0:
64,192,43464,1,0,0:0:0:0:
448,192,43579,1,8,0:0:0:0:
192,192,43579,128,0,43810:0:0:0:0:
64,192,43810,1,0,0:0:0:0:
448,192,43925,1,2,0:0:0:0:
192,192,43925,1,0,0:0:0:0:
320,192,44040,1,8,0:0:0:0:
64,192,44040,1,0,0:0:0:0:
448,192,44156,1,0,0:0:0:0:
64,192,44271,1,2,0:0:0:0:
192,192,44271,1,0,0:0:0:0:
320,192,44387,1,0,0:0:0:0:
448,192,44502,1,8,0:0:0:0:
192,192,44502,1,0,0:0:0:0:
64,192,44617,1,0,0:0:0:0:
320,192,44733,1,0,0:0:0:0:
448,192,44733,128,2,44964:0:0:0:0:
64,192,44964,1,0,0:0:0:0:
192,192,44964,1,8,0:0:0:0:
448,192,45079,1,0,0:0:0:0:
320,192,45079,128,2,45310:0:0:0:0:
192,192,45310,1,2,0:0:0:0:
64,192,45310,1,0,0:0:0:0:
320,192,45425,1,8,0:0:0:0:
448,192,45425,128,0,45656:0:0:0:0:
192,192,45656,1,0,0:0:0:0:
64,192,45771,1,2,0:0:0:0:
320,192,45771,1,0,0:0:0:0:
192,192,45887,1,8,0:0:0:0:
448,192,45887,1,0,0:0:0:0:
64,192,46002,1,0,0:0:0:0:
448,192,46117,1,2,0:0:0:0:
320,192,46117,1,0,0:0:0:0:
192,192,46233,1,0,0:0:0:0:
64,192,46348,1,8,0:0:0:0:
320,192,46348,1,0,0:0:0:0:
448,192,46464,1,0,0:0:0:0:
192,192,46579,1,0,0:0:0:0:
64,192,46579,128,2,46810:0:0:0:0:
320,192,46810,1,8,0:0:0:0:
192,192,46810,1,0,0:0:0:0:
64,192,46925,1,0,0:0:0:0:
448,192,46925,128,2,47156:0:0:0:0:
192,192,47156,1,0,0:0:0:0:
320,192,47156,1,2,0:0:0:0:
448,192,47271,1,8,0:0:0:0:
64,192,47271,128,0,47502:0:0:0:0:
320,192,47502,1,0,0:0:0:0:
192,192,47617,1,0,0:0:0:0:
448,192,47617,1,2,0:0:0:0:
64,192,47733,1,0,0:0:0:0:
320,192,47733,1,8,0:0:0:0:
448,192,47848,1,0,0:0:0:0:
192,192,47964,1,0,0:0:0:0:
320,192,47964,1,2,0:0:0:0:
64,192,48079,1,0,0:0:0:0:
320,192,48194,1,0,0:0:0:0:
448,192,48194,1,8,0:0:0:0:
192,192,48310,1,0,0:0:0:0:
448,192,48425,1,2,0:0:0:0:
64,192,48425,128,0,48656:0:0:0:0:
192,192,48656,1,8,0:0:0:0:
320,192,48656,1,0,0:0:0:0:
448,192,48771,1,0,0:0:0:0:
64,192,48771,128,2,49002:0:0:0:0:
320,192,49002,1,0,0:0:0:0:
448,192,49002,1,2,0:0:0:0:
192,192,49117,1,0,0:0:0:0:
64,192,49117,128,8,49348:0:0:0:0:
320,192,49233,1,0,0:0:0:0:
192,192,49348,1,0,0:0:0:0:
448,192,49348,1,8,0:0:0:0:
64,192,50271,1,0,0:0:0:0:
448,192,50271,1,2,0:0:0:0:
320,192,50271,1,4,0:0:0:0:
192,192,50502,1,2,0:0:0:0:
448,192,50502,1,0,0:0:0:0:
192,192,50733,1,2,0:0:0:0:
320,192,50733,1,0,0:0:0:0:
64,192,50733,1,8,0:0:0:0:
448,192,50964,1,0,0:0:0:0:
320,192,50964,1,2,0:0:0:0:
192,192,51194,1,2,0:0:0:0:
64,192,51194,1,0,0:0:0:0:
320,192,51425,1,2,0:0:0:0:
64,192,51425,1,0,0:0:0:0:
320,192,51656,1,2,0:0:0:0:
192,192,51656,1,0,0:0:0:0:
448,192,51656,1,8,0:0:0:0:
64,192,51887,1,0,0:0:0:0:
448,192,51887,1,2,0:0:0:0:
320,192,52117,1,2,0:0:0:0:
192,192,52117,1,0,0:0:0:0:
64,192,52348,1,0,0:0:0:0:
448,192,52348,1,2,0:0:0:0:
448,192,52579,1,8,0:0:0:0:
192,192,52579,1,0,0:0:0:0:
320,192,52579,1,2,0:0:0:0:
192,192,52810,1,2,0:0:0:0:
64,192,52810,1,0,0:0:0:0:
448,192,53040,1,0,0:0:0:0:
320,192,53040,1,2,0:0:0:0:
192,192,53156,1,0,0:0:0:0:
64,192,53156,1,8,0:0:0:0:
320,192,53271,1,0,0:0:0:0:
192,192,53387,1,0,0:0:0:0:
448,192,53502,1,2,0:0:0:0:
320,192,53502,1,8,0:0:0:0:
64,192,53502,1,0,0:0:0:0:
192,192,53733,1,2,0:0:0:0:
448,192,53733,1,0,0:0:0:0:
320,192,53964,1,0,0:0:0:0:
64,192,53964,1,2,0:0:0:0:
448,192,54194,1,2,0:0:0:0:
192,192,54194,1,0,0:0:0:0:
320,192,54425,1,2,0:0:0:0:
448,192,54425,1,0,0:0:0:0:
64,192,54425,1,8,0:0:0:0:
64,192,54656,1,0,0:0:0:0:
192,192,54656,1,2,0:0:0:0:
320,192,54887,1,2,0:0:0:0:
448,192,54887,1,0,0:0:0:0:
64,192,55117,1,0,0:0:0:0:
448,192,55117,1,2,0:0:0:0:
64,192,55348,1,8,0:0:0:0:
192,192,55348,1,0,0:0:0:0:
320,192,55348,1,2,0:0:0:0:
192,192,55579,1,2,0:0:0:0:
448,192,55579,1,0,0:0:0:0:
448,192,55810,1,0,0:0:0:0:
64,192,55810,1,2,0:0:0:0:
320,192,56040,1,2,0:0:0:0:
64,192,56040,1,0,0:0:0:0:
320,192,56271,1,2,0:0:0:0:
192,192,56271,1,0,0:0:0:0:
448,192,56271,1,8,0:0:0:0:
64,192,56502,1,0,0:0:0:0:
192,192,56502,1,2,0:0:0:0:
320,192,56733,1,2,0:0:0:0:
448,192,56733,1,0,0:0:0:0:
192,192,56848,1,0,0:0:0:0:
64,192,56848,1,8,0:0:0:0:
448,192,56964,1,0,0:0:0:0:
64,192,57079,1,0,0:0:0:0:
448,192,57194,1,0,0:0:0:0:
320,192,57194,1,2,0:0:0:0:
192,192,57194,1,8,0:0:0:0:
192,192,57425,1,0,0:0:0:0:
64,192,57425,1,8,0:0:0:0:
320,192,57540,1,0,0:0:0:0:
448,192,57540,1,8,0:0:0:0:
64,192,57656,1,0,0:0:0:0:
448,192,57656,1,2,0:0:0:0:
192,192,57656,1,4,0:0:0:0:
320,192,57887,1,2,0:0:0:0:
192,192,57887,1,0,0:0:0:0:
192,192,58117,1,2,0:0:0:0:
64,192,58117,1,0,0:0:0:0:
448,192,58117,1,8,0:0:0:0:
64,192,58348,1,0,0:0:0:0:
320,192,58348,1,2,0:0:0:0:
320,192,58579,1,2,0:0:0:0:
448,192,58579,1,0,0:0:0:0:
192,192,58810,1,2,0:0:0:0:
448,192,58810,1,0,0:0:0:0:
192,192,59040,1,2,0:0:0:0:
320,192,59040,1,0,0:0:0:0:
64,192,59040,1,8,0:0:0:0:
448,192,59271,1,0,0:0:0:0:
64,192,59271,1,2,0:0:0:0:
192,192,59502,1,2,0:0:0:0:
320,192,59502,1,0,0:0:0:0:
448,192,59733,1,0,0:0:0:0:
64,192,59733,1,2,0:0:0:0:
64,192,59964,1,8,0:0:0:0:
320,192,59964,1,0,0:0:0:0:
192,192,59964,1,2,0:0:0:0:
320,192,60194,1,2,0:0:0:0:
448,192,60194,1,0,0:0:0:0:
64,192,60425,1,0,0:0:0:0:
192,192,60425,1,2,0:0:0:0:
320,192,60540,1,0,0:0:0:0:
448,192,60540,1,8,0:0:0:0:
192,192,60656,1,0,0:0:0:0:
320,192,60771,1,0,0:0:0:0:
64,192,60887,1,2,0:0:0:0:
192,192,60887,1,8,0:0:0:0:
448,192,60887,1,0,0:0:0:0:
320,192,61117,1,2,0:0:0:0:
64,192,61117,1,0,0:0:0:0:
192,192,61348,1,0,0:0:0:0:
448,192,61348,1,2,0:0:0:0:
64,192,61579,1,2,0:0:0:0:
320,192,61579,1,0,0:0:0:0:
192,192,61810,1,2,0:0:0:0:
64,192,61810,1,0,0:0:0:0:
448,192,61810,1,8,0:0:0:0:
448,192,62040,1,0,0:0:0:0:
320,192,62040,1,2,0:0:0:0:
192,192,62271,1,2,0:0:0:0:
64,192,62271,1,0,0:0:0:0:
448,192,62502,1,0,0:0:0:0:
64,192,62502,1,2,0:0:0:0:
448,192,62733,1,8,0:0:0:0:
320,192,62733,1,0,0:0:0:0:
192,192,62733,1,2,0:0:0:0:
320,192,62964,1,2,0:0:0:0:
64,192,62964,1,0,0:0:0:0:
64,192,63194,1,0,0:0:0:0:
448,192,63194,1,2,0:0:0:0:
192,192,63425,1,2,0:0:0:0:
448,192,63425,1,0,0:0:0:0:
192,192,63656,1,2,0:0:0:0:
320,192,63656,1,0,0:0:0:0:
64,192,63656,1,8,0:0:0:0:
448,192,63887,1,0,0:0:0:0:
320,192,63887,1,2,0:0:0:0:
192,192,64117,1,2,0:0:0:0:
64,192,64117,1,0,0:0:0:0:
320,192,64233,1,0,0:0:0:0:
448,192,64233,1,8,0:0:0:0:
64,192,64348,1,0,0:0:0:0:
448,192,64464,1,0,0:0:0:0:
64,192,64579,1,0,0:0:0:0:
192,192,64579,1,2,0:0:0:0:
320,192,64579,1,8,0:0:0:0:
448,192,64810,1,0,0:0:0:0:
192,192,64810,1,2,0:0:0:0:
320,192,65040,1,0,0:0:0:0:
64,192,65040,1,2,0:0:0:0:
448,192,65040,1,8,0:0:0:0:
320,192,65271,1,0,0:0:0:0:
192,192,65271,1,2,0:0:0:0:
448,192,65502,1,2,0:0:0:0:
64,192,65502,1,8,0:0:0:0:
192,192,65502,1,0,0:0:0:0:
64,192,65733,1,2,0:0:0:0:
320,192,65733,1,0,0:0:0:0:
320,192,65964,1,0,0:0:0:0:
448,192,65964,1,8,0:0:0:0:
192,192,65964,1,2,0:0:0:0:
448,192,66194,1,0,0:0:0:0:
64,192,66194,1,2,0:0:0:0:
192,192,66425,1,2,0:0:0:0:
64,192,66425,1,8,0:0:0:0:
320,192,66425,1,0,0:0:0:0:
320,192,66656,1,2,0:0:0:0:
448,192,66656,1,0,0:0:0:0:
448,192,66887,1,0,0:0:0:0:
64,192,66887,1,8,0:0:0:0:
192,192,66887,1,2,0:0:0:0:
192,192,67117,1,2,0:0:0:0:
64,192,67117,1,8,0:0:0:0:
448,192,67117,1,0,0:0:0:0:
448,192,67348,1,0,0:0:0:0:
64,192,67348,1,8,0:0:0:0:
192,192,67348,1,2,0:0:0:0:
64,192,68733,5,2,0:0:0:0:
448,192,68733,1,0,0:0:0:0:
192,192,68733,1,4,0:0:0:0:
320,192,68848,1,0,0:0:0:0:
192,192,68964,1,8,0:0:0:0:
448,192,68964,1,0,0:0:0:0:
64,192,69079,1,4,0:0:0:0:
320,192,69079,1,0,0:0:0:0:
448,192,69194,1,0,0:0:0:0:
192,192,69310,1,0,0:0:0:0:
64,192,69310,1,2,0:0:0:0:
448,192,69425,1,0,0:0:0:0:
320,192,69425,1,4,0:0:0:0:
192,192,69540,1,0,0:0:0:0:
448,192,69656,1,0,0:0:0:0:
320,192,69771,1,2,0:0:0:0:
64,192,69771,1,0,0:0:0:0:
448,192,69887,1,0,0:0:0:0:
192,192,69887,1,8,0:0:0:0:
64,192,70002,1,0,0:0:0:0:
320,192,70117,1,2,0:0:0:0:
448,192,70117,1,0,0:0:0:0:
192,192,70233,1,0,0:0:0:0:
320,192,70348,1,0,0:0:0:0:
64,192,70348,1,8,0:0:0:0:
192,192,70464,1,0,0:0:0:0:
448,192,70579,1,2,0:0:0:0:
320,192,70579,1,4,0:0:0:0:
64,192,70579,1,0,0:0:0:0:
192,192,70694,1,0,0:0:0:0:
448,192,70810,1,0,0:0:0:0:
320,192,70810,1,8,0:0:0:0:
64,192,70925,1,0,0:0:0:0:
192,192,70925,1,4,0:0:0:0:
320,192,71040,1,0,0:0:0:0:
192,192,71156,1,2,0:0:0:0:
64,192,71156,1,0,0:0:0:0:
320,192,71271,1,4,0:0:0:0:
448,192,71271,1,0,0:0:0:0:
192,192,71387,1,0,0:0:0:0:
320,192,71502,1,0,0:0:0:0:
64,192,71617,1,0,0:0:0:0:
192,192,71617,1,2,0:0:0:0:
320,192,71733,1,8,0:0:0:0:
448,192,71733,1,0,0:0:0:0:
64,192,71848,1,0,0:0:0:0:
448,192,71964,1,0,0:0:0:0:
192,192,71964,1,2,0:0:0:0:
320,192,72079,1,0,0:0:0:0:
64,192,72194,1,8,0:0:0:0:
192,192,72194,1,0,0:0:0:0:
448,192,72310,1,0,0:0:0:0:
192,192,72425,1,2,0:0:0:0:
320,192,72425,1,4,0:0:0:0:
64,192,72425,1,0,0:0:0:0:
448,192,72540,1,0,0:0:0:0:
64,192,72656,1,0,0:0:0:0:
192,192,72656,1,8,0:0:0:0:
448,192,72771,1,0,0:0:0:0:
320,192,72771,1,4,0:0:0:0:
64,192,72887,1,0,0:0:0:0:
448,192,73002,1,2,0:0:0:0:
320,192,73002,1,0,0:0:0:0:
192,192,73117,1,4,0:0:0:0:
64,192,73117,1,0,0:0:0:0:
320,192,73233,1,0,0:0:0:0:
64,192,73348,1,0,0:0:0:0:
448,192,73464,1,0,0:0:0:0:
192,192,73464,1,2,0:0:0:0:
320,192,73579,1,8,0:0:0:0:
64,192,73579,1,0,0:0:0:0:
448,192,73694,1,0,0:0:0:0:
64,192,73810,1,0,0:0:0:0:
192,192,73810,1,2,0:0:0:0:
320,192,73925,1,0,0:0:0:0:
448,192,74040,1,8,0:0:0:0:
192,192,74040,1,0,0:0:0:0:
320,192,74156,1,0,0:0:0:0:
448,192,74271,1,0,0:0:0:0:
192,192,74271,1,4,0:0:0:0:
64,192,74271,1,2,0:0:0:0:
320,192,74387,1,0,0:0:0:0:
192,192,74502,1,8,0:0:0:0:
64,192,74502,1,0,0:0:0:0:
320,192,74617,1,4,0:0:0:0:
448,192,74617,1,0,0:0:0:0:
192,192,74733,1,0,0:0:0:0:
448,192,74848,1,0,0:0:0:0:
320,192,74848,1,2,0:0:0:0:
64,192,74964,1,0,0:0:0:0:
192,192,74964,1,4,0:0:0:0:
320,192,75079,1,0,0:0:0:0:
192,192,75194,1,0,0:0:0:0:
320,192,75310,1,2,0:0:0:0:
448,192,75310,1,0,0:0:0:0:
64,192,75425,1,0,0:0:0:0:
192,192,75425,1,8,0:0:0:0:
448,192,75540,1,0,0:0:0:0:
192,192,75656,1,8,0:0:0:0:
64,192,75771,1,8,0:0:0:0:
448,192,75887,1,8,0:0:0:0:
320,192,76002,1,8,0:0:0:0:
192,192,76117,1,4,0:0:0:0:
448,192,76117,1,0,0:0:0:0:
64,192,76117,1,2,0:0:0:0:
448,192,76348,1,0,0:0:0:0:
192,192,76348,1,8,0:0:0:0:
320,192,76464,1,4,0:0:0:0:
64,192,76464,1,2,0:0:0:0:
448,192,76464,1,0,0:0:0:0:
192,192,76694,1,0,0:0:0:0:
320,192,76694,1,2,0:0:0:0:
448,192,76810,1,0,0:0:0:0:
64,192,76810,1,8,0:0:0:0:
192,192,76925,1,8,3:0:0:0:
320,192,77040,1,8,3:0:0:0:
448,192,77040,1,0,0:0:0:0:
192,192,77156,1,8,3:0:0:0:
448,192,77271,1,8,0:0:0:0:
64,192,77271,1,0,0:0:0:0:
320,192,77502,1,0,0:0:0:0:
192,192,77502,1,8,3:0:0:0:
64,192,77733,1,0,0:0:0:0:
448,192,77733,1,8,0:0:0:0:
192,192,77964,1,0,0:0:0:0:
320,192,77964,1,2,0:0:0:0:
64,192,78194,1,0,0:0:0:0:
448,192,78194,1,8,0:0:0:0:
320,192,78310,1,2,0:0:0:0:
192,192,78310,1,0,0:0:0:0:
64,192,78540,1,0,0:0:0:0:
320,192,78540,1,2,0:0:0:0:
192,192,78656,1,0,0:0:0:0:
448,192,78656,1,8,0:0:0:0:
64,192,78771,1,8,3:0:0:0:
320,192,78887,1,8,3:0:0:0:
448,192,78887,1,0,0:0:0:0:
192,192,79002,1,8,3:0:0:0:
64,192,79117,1,0,0:0:0:0:
448,192,79117,1,8,0:0:0:0:
320,192,79348,1,0,0:0:0:0:
192,192,79348,1,8,3:0:0:0:
64,192,79579,1,0,0:0:0:0:
448,192,79579,1,8,0:0:0:0:
320,192,79810,1,2,0:0:0:0:
192,192,79810,1,0,0:0:0:0:
64,192,80040,1,0,0:0:0:0:
320,192,80040,1,8,0:0:0:0:
192,192,80156,1,0,0:0:0:0:
448,192,80156,1,2,0:0:0:0:
192,192,80387,1,0,0:0:0:0:
320,192,80387,1,2,0:0:0:0:
448,192,80502,1,8,0:0:0:0:
64,192,80502,1,0,0:0:0:0:
192,192,80617,1,8,3:0:0:0:
448,192,80733,1,0,0:0:0:0:
320,192,80733,1,8,3:0:0:0:
192,192,80848,1,8,3:0:0:0:
64,192,80964,1,0,0:0:0:0:
448,192,80964,1,8,0:0:0:0:
192,192,81194,1,8,3:0:0:0:
320,192,81194,1,0,0:0:0:0:
64,192,81425,1,0,0:0:0:0:
448,192,81425,1,8,0:0:0:0:
320,192,81656,1,2,0:0:0:0:
64,192,81656,1,0,0:0:0:0:
448,192,81887,1,8,0:0:0:0:
320,192,81887,1,0,0:0:0:0:
64,192,82002,1,2,0:0:0:0:
192,192,82002,1,0,0:0:0:0:
320,192,82233,1,2,0:0:0:0:
448,192,82233,1,0,0:0:0:0:
192,192,82348,1,8,0:0:0:0:
64,192,82348,1,0,0:0:0:0:
448,192,82464,1,8,3:0:0:0:
320,192,82579,1,8,3:0:0:0:
64,192,82579,1,0,0:0:0:0:
192,192,82694,1,8,3:0:0:0:
448,192,82810,1,8,0:0:0:0:
64,192,82810,1,0,0:0:0:0:
320,192,83040,1,0,0:0:0:0:
192,192,83040,1,8,3:0:0:0:
448,192,83271,1,8,0:0:0:0:
192,192,83271,1,0,0:0:0:0:
192,192,83502,1,0,0:0:0:0:
320,192,83502,1,2,0:0:0:0:
64,192,83733,1,0,0:0:0:0:
192,192,83733,1,8,0:0:0:0:
320,192,83848,1,2,0:0:0:0:
448,192,83848,1,0,0:0:0:0:
192,192,84079,1,0,0:0:0:0:
320,192,84079,1,2,0:0:0:0:
448,192,84194,1,8,0:0:0:0:
64,192,84194,1,0,0:0:0:0:
192,192,84310,1,8,3:0:0:0:
448,192,84425,1,0,0:0:0:0:
320,192,84425,1,8,3:0:0:0:
192,192,84540,1,8,3:0:0:0:
64,192,84656,1,0,0:0:0:0:
448,192,84656,1,8,0:0:0:0:
192,192,84887,1,8,3:0:0:0:
320,192,84887,1,0,0:0:0:0:
64,192,85117,1,0,0:0:0:0:
448,192,85117,1,8,0:0:0:0:
320,192,85348,1,2,0:0:0:0:
192,192,85348,1,0,0:0:0:0:
448,192,85579,1,8,0:0:0:0:
320,192,85579,1,0,0:0:0:0:
192,192,85694,1,0,0:0:0:0:
64,192,85694,1,2,0:0:0:0:
320,192,85925,1,2,0:0:0:0:
192,192,85925,1,0,0:0:0:0:
64,192,86040,1,0,0:0:0:0:
448,192,86040,1,8,0:0:0:0:
192,192,86156,1,8,3:0:0:0:
320,192,86271,1,8,3:0:0:0:
448,192,86271,1,0,0:0:0:0:
192,192,86387,1,8,3:0:0:0:
448,192,86502,1,8,0:0:0:0:
64,192,86502,1,0,0:0:0:0:
320,192,86733,1,0,0:0:0:0:
192,192,86733,1,8,3:0:0:0:
448,192,86964,1,8,0:0:0:0:
64,192,86964,1,0,0:0:0:0:
192,192,87194,1,0,0:0:0:0:
320,192,87194,1,2,0:0:0:0:
64,192,87425,1,0,0:0:0:0:
448,192,87425,1,8,0:0:0:0:
320,192,87540,1,2,0:0:0:0:
192,192,87540,1,0,0:0:0:0:
64,192,87771,1,0,0:0:0:0:
320,192,87771,1,2,0:0:0:0:
192,192,87887,1,0,0:0:0:0:
448,192,87887,1,8,0:0:0:0:
64,192,88002,1,8,3:0:0:0:
448,192,88117,1,0,0:0:0:0:
320,192,88117,1,8,3:0:0:0:
192,192,88233,1,8,3:0:0:0:
64,192,88348,1,0,0:0:0:0:
448,192,88348,1,8,0:0:0:0:
192,192,88579,1,8,3:0:0:0:
320,192,88579,1,0,0:0:0:0:
64,192,88810,1,0,0:0:0:0:
448,192,88810,1,8,0:0:0:0:
320,192,89040,1,2,0:0:0:0:
192,192,89040,1,0,0:0:0:0:
448,192,89271,1,8,0:0:0:0:
64,192,89271,1,0,0:0:0:0:
192,192,89387,1,0,0:0:0:0:
320,192,89387,1,2,0:0:0:0:
448,192,89617,1,2,0:0:0:0:
192,192,89617,1,0,0:0:0:0:
320,192,89733,1,8,0:0:0:0:
64,192,89733,1,0,0:0:0:0:
192,192,89848,1,8,3:0:0:0:
320,192,89964,1,8,3:0:0:0:
448,192,89964,1,0,0:0:0:0:
192,192,90079,1,8,3:0:0:0:
448,192,90194,1,8,0:0:0:0:
64,192,90194,1,0,0:0:0:0:
64,192,90425,1,0,0:0:0:0:
192,192,90425,1,8,3:0:0:0:
448,192,90540,1,8,0:0:0:0:
64,192,90656,1,8,0:0:0:0:
320,192,90771,1,8,0:0:0:0:
192,192,90887,1,4,0:0:0:0:
448,192,90887,1,0,0:0:0:0:
64,192,90887,1,2,0:0:0:0:
320,192,91002,1,0,0:0:0:0:
192,192,91117,1,8,0:0:0:0:
448,192,91117,1,0,0:0:0:0:
320,192,91233,1,2,0:0:0:0:
64,192,91233,1,0,0:0:0:0:
448,192,91348,1,0,0:0:0:0:
192,192,91464,1,0,0:0:0:0:
320,192,91464,1,2,0:0:0:0:
448,192,91579,1,8,0:0:0:0:
64,192,91579,1,0,0:0:0:0:
192,192,91694,1,0,0:0:0:0:
320,192,91810,1,0,0:0:0:0:
192,192,91925,1,0,0:0:0:0:
448,192,91925,1,2,0:0:0:0:
64,192,92040,1,0,0:0:0:0:
320,192,92040,1,8,0:0:0:0:
448,192,92156,1,0,0:0:0:0:
192,192,92271,1,0,0:0:0:0:
320,192,92271,1,2,0:0:0:0:
64,192,92387,1,0,0:0:0:0:
320,192,92502,1,0,0:0:0:0:
448,192,92502,1,8,0:0:0:0:
192,192,92617,1,0,0:0:0:0:
64,192,92733,1,0,0:0:0:0:
448,192,92733,1,2,0:0:0:0:
320,192,92848,1,0,0:0:0:0:
192,192,92964,1,8,0:0:0:0:
64,192,92964,1,0,0:0:0:0:
448,192,93079,1,0,0:0:0:0:
320,192,93079,1,2,0:0:0:0:
192,192,93194,1,0,0:0:0:0:
320,192,93310,1,0,0:0:0:0:
448,192,93310,1,2,0:0:0:0:
64,192,93425,1,8,0:0:0:0:
192,192,93425,1,0,0:0:0:0:
448,192,93540,1,0,0:0:0:0:
320,192,93656,1,0,0:0:0:0:
448,192,93771,1,0,0:0:0:0:
64,192,93771,1,2,0:0:0:0:
320,192,93887,1,0,0:0:0:0:
192,192,93887,1,8,0:0:0:0:
64,192,94002,1,0,0:0:0:0:
320,192,94117,1,0,0:0:0:0:
448,192,94117,1,2,0:0:0:0:
192,192,94233,1,0,0:0:0:0:
448,192,94348,1,0,0:0:0:0:
64,192,94348,1,8,0:0:0:0:
320,192,94464,1,0,0:0:0:0:
192,192,94579,1,0,0:0:0:0:
64,192,94579,1,2,0:0:0:0:
320,192,94694,1,0,0:0:0:0:
192,192,94810,1,8,0:0:0:0:
448,192,94810,1,0,0:0:0:0:
64,192,94925,1,0,0:0:0:0:
320,192,94925,1,2,0:0:0:0:
448,192,95040,1,0,0:0:0:0:
64,192,95156,1,0,0:0:0:0:
192,192,95156,1,2,0:0:0:0:
320,192,95271,1,8,0:0:0:0:
448,192,95271,1,0,0:0:0:0:
64,192,95387,1,0,0:0:0:0:
192,192,95502,1,0,0:0:0:0:
320,192,95617,1,0,0:0:0:0:
64,192,95617,1,2,0:0:0:0:
448,192,95733,1,0,0:0:0:0:
192,192,95733,1,8,0:0:0:0:
64,192,95848,1,0,0:0:0:0:
320,192,95964,1,0,0:0:0:0:
192,192,95964,1,2,0:0:0:0:
448,192,96079,1,0,0:0:0:0:
192,192,96194,1,0,0:0:0:0:
64,192,96194,1,8,0:0:0:0:
320,192,96310,1,0,0:0:0:0:
64,192,96425,1,2,0:0:0:0:
448,192,96425,1,0,0:0:0:0:
192,192,96540,1,0,0:0:0:0:
320,192,96656,1,8,0:0:0:0:
64,192,96656,1,0,0:0:0:0:
192,192,96771,1,0,0:0:0:0:
448,192,96771,1,2,0:0:0:0:
320,192,96887,1,0,0:0:0:0:
192,192,97002,1,0,0:0:0:0:
64,192,97002,1,2,0:0:0:0:
320,192,97117,1,0,0:0:0:0:
448,192,97117,1,8,0:0:0:0:
64,192,97233,1,0,0:0:0:0:
192,192,97348,1,0,0:0:0:0:
64,192,97464,1,0,0:0:0:0:
448,192,97464,1,2,0:0:0:0:
192,192,97579,1,0,0:0:0:0:
320,192,97579,1,8,0:0:0:0:
448,192,97694,1,0,0:0:0:0:
192,192,97810,1,0,0:0:0:0:
64,192,97810,1,2,0:0:0:0:
320,192,97925,1,0,0:0:0:0:
64,192,98040,1,0,0:0:0:0:
448,192,98040,1,8,0:0:0:0:
192,192,98156,1,0,0:0:0:0:
448,192,98271,1,2,0:0:0:0:
320,192,98271,1,0,0:0:0:0:
64,192,98387,1,0,0:0:0:0:
448,192,98502,1,0,0:0:0:0:
192,192,98502,1,8,0:0:0:0:
320,192,98617,1,2,0:0:0:0:
64,192,98617,1,0,0:0:0:0:
448,192,98733,1,0,0:0:0:0:
192,192,98848,1,2,0:0:0:0:
320,192,98848,1,0,0:0:0:0:
64,192,98964,1,8,0:0:0:0:
448,192,98964,1,0,0:0:0:0:
192,192,99079,1,0,0:0:0:0:
448,192,99194,1,0,0:0:0:0:
64,192,99310,1,2,0:0:0:0:
320,192,99310,1,0,0:0:0:0:
192,192,99425,1,8,0:0:0:0:
448,192,99425,1,0,0:0:0:0:
64,192,99540,1,0,0:0:0:0:
448,192,99656,1,2,0:0:0:0:
320,192,99656,1,0,0:0:0:0:
192,192,99771,1,0,0:0:0:0:
64,192,99887,1,8,0:0:0:0:
320,192,99887,1,0,0:0:0:0:
448,192,100002,1,0,0:0:0:0:
192,192,100117,1,0,0:0:0:0:
320,192,100117,1,2,0:0:0:0:
64,192,100233,1,0,0:0:0:0:
448,192,100348,1,0,0:0:0:0:
320,192,100348,1,8,0:0:0:0:
64,192,100464,1,0,0:0:0:0:
192,192,100464,1,2,0:0:0:0:
448,192,100579,1,0,0:0:0:0:
320,192,100694,1,2,0:0:0:0:
64,192,100694,1,0,0:0:0:0:
192,192,100810,1,8,0:0:0:0:
448,192,100810,1,0,0:0:0:0:
64,192,100925,1,0,0:0:0:0:
320,192,101040,1,0,0:0:0:0:
448,192,101156,1,2,0:0:0:0:
192,192,101156,1,0,0:0:0:0:
320,192,101271,1,8,0:0:0:0:
64,192,101271,1,0,0:0:0:0:
448,192,101387,1,0,0:0:0:0:
64,192,101502,1,2,0:0:0:0:
192,192,101502,1,0,0:0:0:0:
320,192,101617,1,0,0:0:0:0:
448,192,101733,1,8,0:0:0:0:
192,192,101733,1,0,0:0:0:0:
64,192,101848,1,0,0:0:0:0:
320,192,101964,1,0,0:0:0:0:
448,192,101964,1,2,0:0:0:0:
192,192,102079,1,0,0:0:0:0:
64,192,102194,1,8,0:0:0:0:
320,192,102194,1,0,0:0:0:0:
448,192,102310,1,0,0:0:0:0:
192,192,102310,1,2,0:0:0:0:
320,192,102425,1,0,0:0:0:0:
448,192,102540,1,0,0:0:0:0:
192,192,102540,1,2,0:0:0:0:
64,192,102656,1,8,0:0:0:0:
320,192,102656,1,0,0:0:0:0:
192,192,102771,1,0,0:0:0:0:
448,192,102887,1,0,0:0:0:0:
320,192,103002,1,0,0:0:0:0:
64,192,103002,1,2,0:0:0:0:
448,192,103117,1,0,0:0:0:0:
192,192,103117,1,8,0:0:0:0:
64,192,103233,1,0,0:0:0:0:
320,192,103348,1,0,0:0:0:0:
192,192,103348,1,2,0:0:0:0:
448,192,103464,1,0,0:0:0:0:
192,192,103579,1,0,0:0:0:0:
64,192,103579,1,8,0:0:0:0:
320,192,103694,1,0,0:0:0:0:
64,192,103810,1,2,0:0:0:0:
448,192,103810,1,0,0:0:0:0:
192,192,103925,1,0,0:0:0:0:
320,192,104040,1,8,0:0:0:0:
448,192,104040,1,0,0:0:0:0:
64,192,104156,1,0,0:0:0:0:
192,192,104156,1,2,0:0:0:0:
320,192,104271,1,0,0:0:0:0:
192,192,104387,1,0,0:0:0:0:
64,192,104387,1,2,0:0:0:0:
448,192,104502,1,0,0:0:0:0:
320,192,104560,1,0,0:0:0:0:
192,192,104617,1,0,0:0:0:0:
320,192,104733,1,0,0:0:0:0:
64,192,104733,1,8,0:0:0:0:
448,192,104733,1,2,0:0:0:0:
192,192,105656,1,2,0:0:0:0:
448,192,107502,1,2,0:0:0:0:
64,192,109348,5,2,0:0:0:0:
192,192,109348,1,4,0:0:0:0:
448,192,109348,1,0,0:0:0:0:
320,192,109464,1,0,0:0:0:0:
448,192,109579,1,0,0:0:0:0:
192,192,109579,1,8,0:0:0:0:
320,192,109694,1,0,0:0:0:0:
64,192,109694,1,4,0:0:0:0:
448,192,109810,1,0,0:0:0:0:
64,192,109925,1,2,0:0:0:0:
192,192,109925,1,0,0:0:0:0:
320,192,110040,1,4,0:0:0:0:
448,192,110040,1,0,0:0:0:0:
192,192,110156,1,0,0:0:0:0:
448,192,110271,1,0,0:0:0:0:
64,192,110387,1,0,0:0:0:0:
320,192,110387,1,2,0:0:0:0:
192,192,110502,1,8,0:0:0:0:
448,192,110502,1,0,0:0:0:0:
64,192,110617,1,0,0:0:0:0:
448,192,110733,1,0,0:0:0:0:
320,192,110733,1,2,0:0:0:0:
192,192,110848,1,0,0:0:0:0:
64,192,110964,1,8,0:0:0:0:
320,192,110964,1,0,0:0:0:0:
192,192,111079,1,0,0:0:0:0:
64,192,111194,1,0,0:0:0:0:
320,192,111194,1,4,0:0:0:0:
448,192,111194,1,2,0:0:0:0:
192,192,111310,1,0,0:0:0:0:
320,192,111425,1,8,0:0:0:0:
448,192,111425,1,0,0:0:0:0:
192,192,111540,1,4,0:0:0:0:
64,192,111540,1,0,0:0:0:0:
320,192,111656,1,0,0:0:0:0:
64,192,111771,1,0,0:0:0:0:
192,192,111771,1,2,0:0:0:0:
448,192,111887,1,0,0:0:0:0:
320,192,111887,1,4,0:0:0:0:
192,192,112002,1,0,0:0:0:0:
320,192,112117,1,0,0:0:0:0:
192,192,112233,1,2,0:0:0:0:
64,192,112233,1,0,0:0:0:0:
320,192,112348,1,8,0:0:0:0:
448,192,112348,1,0,0:0:0:0:
192,192,112464,1,0,0:0:0:0:
320,192,112579,1,8,0:0:0:0:
448,192,112694,1,8,0:0:0:0:
64,192,112810,1,8,0:0:0:0:
192,192,112925,1,8,0:0:0:0:
64,192,113040,1,0,0:0:0:0:
320,192,113040,1,4,0:0:0:0:
448,192,113040,1,2,0:0:0:0:
192,192,113156,1,0,0:0:0:0:
64,192,113271,1,0,0:0:0:0:
320,192,113271,1,8,0:0:0:0:
192,192,113387,1,0,0:0:0:0:
448,192,113387,1,4,0:0:0:0:
64,192,113502,1,0,0:0:0:0:
448,192,113617,1,2,0:0:0:0:
320,192,113617,1,0,0:0:0:0:
192,192,113733,1,4,0:0:0:0:
64,192,113733,1,0,0:0:0:0:
320,192,113848,1,0,0:0:0:0:
64,192,113964,1,0,0:0:0:0:
448,192,114079,1,0,0:0:0:0:
192,192,114079,1,2,0:0:0:0:
320,192,114194,1,8,0:0:0:0:
64,192,114194,1,0,0:0:0:0:
448,192,114310,1,0,0:0:0:0:
64,192,114425,1,0,0:0:0:0:
192,192,114425,1,2,0:0:0:0:
320,192,114540,1,0,0:0:0:0:
448,192,114656,1,8,0:0:0:0:
192,192,114656,1,0,0:0:0:0:
320,192,114771,1,0,0:0:0:0:
448,192,114887,1,0,0:0:0:0:
192,192,114887,1,4,0:0:0:0:
64,192,114887,1,2,0:0:0:0:
320,192,115002,1,0,0:0:0:0:
192,192,115117,1,8,0:0:0:0:
64,192,115117,1,0,0:0:0:0:
320,192,115233,1,4,0:0:0:0:
448,192,115233,1,0,0:0:0:0:
192,192,115348,1,0,0:0:0:0:
448,192,115464,1,0,0:0:0:0:
320,192,115464,1,2,0:0:0:0:
64,192,115579,1,0,0:0:0:0:
192,192,115579,1,4,0:0:0:0:
320,192,115694,1,0,0:0:0:0:
192,192,115810,1,0,0:0:0:0:
320,192,115925,1,2,0:0:0:0:
448,192,115925,1,0,0:0:0:0:
192,192,116040,1,8,0:0:0:0:
64,192,116040,1,0,0:0:0:0:
320,192,116156,1,0,0:0:0:0:
448,192,116271,1,0,0:0:0:0:
64,192,116271,1,2,0:0:0:0:
192,192,116387,1,0,0:0:0:0:
64,192,116502,1,8,0:0:0:0:
320,192,116502,1,0,0:0:0:0:
192,192,116617,1,0,0:0:0:0:
448,192,116733,1,0,0:0:0:0:
320,192,116733,1,4,0:0:0:0:
64,192,116733,1,2,0:0:0:0:
192,192,116848,1,0,0:0:0:0:
64,192,116964,1,0,0:0:0:0:
320,192,116964,1,8,0:0:0:0:
192,192,117079,1,0,0:0:0:0:
448,192,117079,1,4,0:0:0:0:
64,192,117194,1,0,0:0:0:0:
448,192,117310,1,2,0:0:0:0:
320,192,117310,1,0,0:0:0:0:
192,192,117425,1,4,0:0:0:0:
64,192,117425,1,0,0:0:0:0:
320,192,117540,1,0,0:0:0:0:
64,192,117656,1,0,0:0:0:0:
448,192,117771,1,0,0:0:0:0:
192,192,117771,1,2,0:0:0:0:
320,192,117887,1,8,0:0:0:0:
64,192,117887,1,0,0:0:0:0:
448,192,118002,1,0,0:0:0:0:
64,192,118117,1,0,0:0:0:0:
192,192,118117,1,2,0:0:0:0:
320,192,118233,1,0,0:0:0:0:
448,192,118348,1,8,0:0:0:0:
192,192,118348,1,0,0:0:0:0:
320,192,118464,1,0,0:0:0:0:
448,192,118579,1,0,0:0:0:0:
192,192,118579,1,4,0:0:0:0:
64,192,118579,1,2,0:0:0:0:
320,192,118694,1,0,0:0:0:0:
192,192,118810,1,8,0:0:0:0:
64,192,118810,1,0,0:0:0:0:
320,192,118925,1,4,0:0:0:0:
448,192,118925,1,0,0:0:0:0:
192,192,119040,1,0,0:0:0:0:
448,192,119156,1,0,0:0:0:0:
320,192,119156,1,2,0:0:0:0:
64,192,119271,1,0,0:0:0:0:
192,192,119271,1,4,0:0:0:0:
320,192,119387,1,0,0:0:0:0:
192,192,119502,1,8,0:0:0:0:
320,192,119579,1,8,0:0:0:0:
192,192,119656,1,8,0:0:0:0:
320,192,119733,1,8,0:0:0:0:
64,192,119848,1,8,0:0:0:0:
448,192,119964,1,8,0:0:0:0:
192,192,120079,1,8,3:0:0:0:
320,192,120194,1,8,3:0:0:0:
64,192,120194,1,0,0:0:0:0:
448,192,120310,1,8,3:0:0:0:
320,192,120425,1,4,0:0:0:0:
64,192,120425,1,0,0:0:0:0:
192,192,120425,1,2,0:0:0:0:
448,192,120540,1,0,0:0:0:0:
192,192,120656,1,8,0:0:0:0:
64,192,120656,1,0,0:0:0:0:
320,192,120771,1,2,0:0:0:0:
448,192,120771,1,0,0:0:0:0:
64,192,120887,1,0,0:0:0:0:
320,192,121002,1,0,0:0:0:0:
192,192,121002,1,2,0:0:0:0:
64,192,121117,1,8,0:0:0:0:
448,192,121117,1,0,0:0:0:0:
320,192,121233,1,0,0:0:0:0:
192,192,121348,1,0,0:0:0:0:
320,192,121464,1,0,0:0:0:0:
64,192,121464,1,2,0:0:0:0:
448,192,121579,1,0,0:0:0:0:
192,192,121579,1,8,0:0:0:0:
64,192,121694,1,0,0:0:0:0:
320,192,121810,1,0,0:0:0:0:
192,192,121810,1,2,0:0:0:0:
448,192,121925,1,0,0:0:0:0:
192,192,122040,1,0,0:0:0:0:
64,192,122040,1,8,0:0:0:0:
320,192,122156,1,0,0:0:0:0:
448,192,122271,1,0,0:0:0:0:
64,192,122271,1,2,0:0:0:0:
192,192,122387,1,0,0:0:0:0:
320,192,122502,1,8,0:0:0:0:
448,192,122502,1,0,0:0:0:0:
64,192,122617,1,0,0:0:0:0:
192,192,122617,1,2,0:0:0:0:
320,192,122733,1,0,0:0:0:0:
192,192,122848,1,0,0:0:0:0:
64,192,122848,1,2,0:0:0:0:
448,192,122964,1,8,0:0:0:0:
320,192,122964,1,0,0:0:0:0:
64,192,123079,1,0,0:0:0:0:
192,192,123194,1,0,0:0:0:0:
64,192,123310,1,0,0:0:0:0:
448,192,123310,1,2,0:0:0:0:
192,192,123425,1,0,0:0:0:0:
320,192,123425,1,8,0:0:0:0:
448,192,123540,1,0,0:0:0:0:
192,192,123656,1,0,0:0:0:0:
64,192,123656,1,2,0:0:0:0:
320,192,123771,1,0,0:0:0:0:
64,192,123887,1,0,0:0:0:0:
448,192,123887,1,8,0:0:0:0:
192,192,124002,1,0,0:0:0:0:
320,192,124117,1,0,0:0:0:0:
448,192,124117,1,2,0:0:0:0:
192,192,124233,1,0,0:0:0:0:
320,192,124348,1,8,0:0:0:0:
64,192,124348,1,0,0:0:0:0:
448,192,124464,1,0,0:0:0:0:
192,192,124464,1,2,0:0:0:0:
64,192,124579,1,0,0:0:0:0:
448,192,124694,1,0,0:0:0:0:
320,192,124694,1,2,0:0:0:0:
192,192,124810,1,8,0:0:0:0:
64,192,124810,1,0,0:0:0:0:
448,192,124925,1,0,0:0:0:0:
320,192,125040,1,0,0:0:0:0:
192,192,125156,1,0,0:0:0:0:
448,192,125156,1,2,0:0:0:0:
64,192,125271,1,0,0:0:0:0:
320,192,125271,1,8,0:0:0:0:
448,192,125387,1,0,0:0:0:0:
192,192,125502,1,0,0:0:0:0:
320,192,125502,1,2,0:0:0:0:
64,192,125617,1,0,0:0:0:0:
320,192,125733,1,0,0:0:0:0:
448,192,125733,1,8,0:0:0:0:
192,192,125848,1,0,0:0:0:0:
448,192,125964,1,2,0:0:0:0:
64,192,125964,1,0,0:0:0:0:
320,192,126079,1,0,0:0:0:0:
192,192,126194,1,8,0:0:0:0:
448,192,126194,1,0,0:0:0:0:
320,192,126310,1,0,0:0:0:0:
64,192,126310,1,2,0:0:0:0:
192,192,126425,1,0,0:0:0:0:
320,192,126540,1,0,0:0:0:0:
448,192,126540,1,2,0:0:0:0:
192,192,126656,1,0,0:0:0:0:
64,192,126656,1,8,0:0:0:0:
448,192,126771,1,0,0:0:0:0:
320,192,126887,1,0,0:0:0:0:
448,192,127002,1,0,0:0:0:0:
64,192,127002,1,2,0:0:0:0:
320,192,127117,1,0,0:0:0:0:
192,192,127117,1,8,0:0:0:0:
64,192,127233,1,0,0:0:0:0:
320,192,127348,1,8,0:0:0:0:
448,192,127464,1,8,0:0:0:0:
192,192,127579,1,0,0:0:0:0:
64,192,127579,1,2,0:0:0:0:
320,192,127694,1,0,0:0:0:0:
192,192,127810,1,8,0:0:0:0:
64,192,127810,1,4,0:0:0:0:
448,192,127810,1,0,0:0:0:0:
320,192,127925,1,0,0:0:0:0:
448,192,128040,1,2,0:0:0:0:
64,192,128040,1,0,0:0:0:0:
192,192,128156,1,0,0:0:0:0:
64,192,128271,1,4,0:0:0:0:
320,192,128271,1,8,0:0:0:0:
448,192,128271,1,0,0:0:0:0:
192,192,128387,1,0,0:0:0:0:
64,192,128502,1,0,0:0:0:0:
448,192,128502,1,2,0:0:0:0:
320,192,128617,1,0,0:0:0:0:
448,192,128733,1,0,0:0:0:0:
192,192,128733,1,8,0:0:0:0:
64,192,128733,1,4,0:0:0:0:
320,192,128848,1,0,0:0:0:0:
64,192,128964,1,2,0:0:0:0:
192,192,128964,1,0,0:0:0:0:
448,192,129079,1,0,0:0:0:0:
64,192,129194,1,4,0:0:0:0:
320,192,129194,1,8,0:0:0:0:
192,192,129194,1,0,0:0:0:0:
448,192,129310,1,0,0:0:0:0:
192,192,129425,1,0,0:0:0:0:
64,192,129425,1,2,0:0:0:0:
320,192,129540,1,0,0:0:0:0:
448,192,129656,1,0,0:0:0:0:
192,192,129656,1,8,0:0:0:0:
64,192,129656,1,4,0:0:0:0:
192,192,129887,1,8,0:0:0:0:
64,192,129887,1,2,0:0:0:0:
448,192,129887,1,0,0:0:0:0:
448,192,130117,1,0,0:0:0:0:
64,192,130117,1,2,0:0:0:0:
192,192,130117,1,8,0:0:0:0:
192,192,131502,1,2,0:0:0:0:
64,192,131502,1,4,0:0:0:0:
448,192,131502,1,0,0:0:0:0:
320,192,131502,1,4,2:0:0:0:
