osu file format v14

[General]
AudioFilename: 02-tonight_alive-little_lion_man.mp3
AudioLeadIn: 0
PreviewTime: 44400
Countdown: 0
SampleSet: None
StackLeniency: 0.7
Mode: 3
LetterboxInBreaks: 0
SpecialStyle: 0
WidescreenStoryboard: 1

[Editor]
DistanceSpacing: 2
BeatDivisor: 4
GridSize: 8
TimelineZoom: 2.799999

[Metadata]
Title:Little Lion Man
TitleUnicode:Little Lion Man
Artist:Tonight Alive
ArtistUnicode:Tonight Alive
Creator:puxtu
Version:HD
Source:
Tags:pishifat EvilElvis fieryrage Bonsai Nerova Riuz GX Mumford & Sons Sigh No More Punk Goes Pop 4 PGP4
BeatmapID:1040362
BeatmapSetID:451311

[Difficulty]
HPDrainRate:8
CircleSize:4
OverallDifficulty:8
ApproachRate:5
SliderMultiplier:1.41
SliderTickRate:1

[Events]
//Background and Video events
0,0,"Pixiv.Fantasia-.Fallen.Kings.full.1709403.jpg",0,0
//Break Periods
//Storyboard Layer 0 (Background)
//Storyboard Layer 1 (Fail)
//Storyboard Layer 2 (Pass)
//Storyboard Layer 3 (Foreground)
//Storyboard Sound Samples

[TimingPoints]
93,230.769230769231,4,3,1,15,1,0
44400,-100,4,3,1,35,0,1
59169,-100,4,3,1,35,0,0
88708,-100,4,3,1,35,0,1
102785,-100,4,3,1,35,0,0
103477,-100,4,3,1,35,0,1
116862,-100,4,3,1,35,0,0

[HitObjects]
448,192,93,5,0,0:0:0:0:
64,192,93,1,0,0:0:0:0:
64,192,323,1,0,0:0:0:0:
192,192,554,1,0,0:0:0:0:
192,192,785,1,0,0:0:0:0:
448,192,1016,1,0,0:0:0:0:
64,192,1016,1,0,0:0:0:0:
448,192,1246,1,0,0:0:0:0:
320,192,1477,1,0,0:0:0:0:
320,192,1708,1,0,0:0:0:0:
192,192,1939,1,0,0:0:0:0:
448,192,1939,1,0,0:0:0:0:
192,192,2169,1,0,0:0:0:0:
64,192,2400,1,0,0:0:0:0:
64,192,2631,1,0,0:0:0:0:
320,192,2862,1,0,0:0:0:0:
192,192,2862,1,0,0:0:0:0:
320,192,3093,1,0,0:0:0:0:
192,192,3323,1,0,0:0:0:0:
192,192,3554,1,0,0:0:0:0:
64,192,3785,1,0,0:0:0:0:
320,192,3785,1,0,0:0:0:0:
64,192,4016,1,0,0:0:0:0:
320,192,4246,1,0,0:0:0:0:
320,192,4477,1,0,0:0:0:0:
64,192,4708,1,0,0:0:0:0:
448,192,4708,1,0,0:0:0:0:
448,192,4939,1,0,0:0:0:0:
64,192,5169,1,0,0:0:0:0:
64,192,5400,1,0,0:0:0:0:
448,192,5631,1,0,0:0:0:0:
192,192,5631,1,0,0:0:0:0:
192,192,5862,1,0,0:0:0:0:
320,192,6093,1,0,0:0:0:0:
320,192,6323,1,0,0:0:0:0:
448,192,6554,1,0,0:0:0:0:
192,192,6554,1,0,0:0:0:0:
448,192,6785,1,0,0:0:0:0:
64,192,7016,1,0,0:0:0:0:
64,192,7246,1,0,0:0:0:0:
192,192,7477,1,0,0:0:0:0:
448,192,7477,1,0,0:0:0:0:
192,192,7708,1,0,0:0:0:0:
320,192,7939,1,0,0:0:0:0:
320,192,8169,1,0,0:0:0:0:
192,192,8400,1,0,0:0:0:0:
64,192,8400,1,0,0:0:0:0:
64,192,8631,1,0,0:0:0:0:
320,192,8862,1,0,0:0:0:0:
320,192,9093,1,0,0:0:0:0:
448,192,9323,1,0,0:0:0:0:
64,192,9323,1,0,0:0:0:0:
448,192,9554,1,0,0:0:0:0:
64,192,9785,1,0,0:0:0:0:
64,192,10016,1,0,0:0:0:0:
448,192,10246,1,0,0:0:0:0:
192,192,10246,1,0,0:0:0:0:
192,192,10477,1,0,0:0:0:0:
448,192,10708,1,0,0:0:0:0:
448,192,10939,1,0,0:0:0:0:
192,192,11169,1,0,0:0:0:0:
320,192,11169,1,0,0:0:0:0:
320,192,11400,1,0,0:0:0:0:
192,192,11631,1,0,0:0:0:0:
192,192,11862,1,0,0:0:0:0:
320,192,12093,1,0,0:0:0:0:
64,192,12093,1,0,0:0:0:0:
64,192,12323,1,0,0:0:0:0:
448,192,12554,1,0,0:0:0:0:
448,192,12785,1,0,0:0:0:0:
320,192,13016,1,0,0:0:0:0:
64,192,13016,1,0,0:0:0:0:
320,192,13246,1,0,0:0:0:0:
192,192,13477,1,0,0:0:0:0:
192,192,13708,1,0,0:0:0:0:
320,192,13939,1,0,0:0:0:0:
448,192,13939,1,0,0:0:0:0:
448,192,14169,1,0,0:0:0:0:
64,192,14400,1,0,0:0:0:0:
64,192,14631,1,0,0:0:0:0:
192,192,14862,1,0,0:0:0:0:
448,192,14862,1,0,0:0:0:0:
192,192,15093,1,0,0:0:0:0:
320,192,15323,1,0,0:0:0:0:
320,192,15554,1,0,0:0:0:0:
192,192,15785,1,0,0:0:0:0:
64,192,15785,1,0,0:0:0:0:
64,192,16016,1,0,0:0:0:0:
320,192,16246,1,0,0:0:0:0:
320,192,16477,1,0,0:0:0:0:
448,192,16708,1,0,0:0:0:0:
64,192,16708,1,0,0:0:0:0:
448,192,16939,1,0,0:0:0:0:
192,192,17169,1,0,0:0:0:0:
192,192,17400,1,0,0:0:0:0:
448,192,17631,1,0,0:0:0:0:
320,192,17631,1,0,0:0:0:0:
320,192,17862,1,0,0:0:0:0:
448,192,18093,1,0,0:0:0:0:
448,192,18323,1,0,0:0:0:0:
320,192,18554,1,0,0:0:0:0:
64,192,18554,1,0,0:0:0:0:
64,192,18785,1,0,0:0:0:0:
192,192,19016,1,0,0:0:0:0:
192,192,19246,1,0,0:0:0:0:
64,192,19477,1,0,0:0:0:0:
448,192,19477,1,0,0:0:0:0:
448,192,19708,1,0,0:0:0:0:
320,192,19939,1,0,0:0:0:0:
320,192,20169,1,0,0:0:0:0:
448,192,20400,1,0,0:0:0:0:
64,192,20400,1,0,0:0:0:0:
64,192,20631,1,0,0:0:0:0:
192,192,20862,1,0,0:0:0:0:
192,192,21093,1,0,0:0:0:0:
64,192,21323,1,0,0:0:0:0:
320,192,21323,1,0,0:0:0:0:
320,192,21554,1,0,0:0:0:0:
448,192,21785,1,0,0:0:0:0:
448,192,22016,1,0,0:0:0:0:
320,192,22246,1,0,0:0:0:0:
192,192,22246,1,0,0:0:0:0:
192,192,22477,1,0,0:0:0:0:
64,192,22708,1,0,0:0:0:0:
64,192,22939,1,0,0:0:0:0:
448,192,23169,1,0,0:0:0:0:
192,192,23169,1,0,0:0:0:0:
448,192,23400,1,0,0:0:0:0:
320,192,23631,1,0,0:0:0:0:
320,192,23862,1,0,0:0:0:0:
192,192,24093,1,0,0:0:0:0:
448,192,24093,1,0,0:0:0:0:
192,192,24323,1,0,0:0:0:0:
64,192,24554,1,0,0:0:0:0:
64,192,24785,1,0,0:0:0:0:
192,192,25016,1,0,0:0:0:0:
320,192,25016,1,0,0:0:0:0:
320,192,25246,1,0,0:0:0:0:
192,192,25477,1,0,0:0:0:0:
192,192,25708,1,0,0:0:0:0:
448,192,25939,1,0,0:0:0:0:
320,192,25939,1,0,0:0:0:0:
448,192,26169,1,0,0:0:0:0:
320,192,26400,1,0,0:0:0:0:
320,192,26631,1,0,0:0:0:0:
448,192,26862,1,0,0:0:0:0:
64,192,26862,1,0,0:0:0:0:
64,192,27093,1,0,0:0:0:0:
192,192,27323,1,0,0:0:0:0:
192,192,27554,1,0,0:0:0:0:
448,192,27785,1,0,0:0:0:0:
64,192,27785,1,0,0:0:0:0:
448,192,28016,1,0,0:0:0:0:
320,192,28246,1,0,0:0:0:0:
320,192,28477,1,0,0:0:0:0:
448,192,28708,1,0,0:0:0:0:
192,192,28708,1,0,0:0:0:0:
192,192,28939,1,0,0:0:0:0:
64,192,29169,1,0,0:0:0:0:
192,192,29400,1,0,0:0:0:0:
320,192,29631,128,0,30554:0:0:0:0:
448,192,29631,1,0,0:0:0:0:
64,192,30554,128,0,31477:0:0:0:0:
192,192,30554,1,0,0:0:0:0:
448,192,31477,128,0,33323:0:0:0:0:
320,192,31477,1,0,0:0:0:0:
64,192,33323,128,0,34246:0:0:0:0:
192,192,33323,1,0,0:0:0:0:
320,192,34246,128,0,35169:0:0:0:0:
192,192,34246,1,0,0:0:0:0:
192,192,35169,128,0,37016:0:0:0:0:
448,192,35169,1,0,0:0:0:0:
448,192,37016,128,0,37939:0:0:0:0:
64,192,37016,1,0,0:0:0:0:
320,192,37939,128,0,38862:0:0:0:0:
192,192,37939,1,0,0:0:0:0:
64,192,38862,128,0,40708:0:0:0:0:
448,192,38862,1,0,0:0:0:0:
192,192,40708,1,0,0:0:0:0:
192,192,40939,1,0,0:0:0:0:
448,192,41169,1,0,0:0:0:0:
448,192,41400,1,0,0:0:0:0:
64,192,41631,1,0,0:0:0:0:
64,192,41862,1,0,0:0:0:0:
192,192,42093,1,0,0:0:0:0:
448,192,42093,1,0,0:0:0:0:
192,192,42323,1,0,0:0:0:0:
320,192,42554,1,0,0:0:0:0:
64,192,42554,1,0,0:0:0:0:
320,192,42785,1,0,0:0:0:0:
448,192,43016,1,0,0:0:0:0:
192,192,43016,1,0,0:0:0:0:
448,192,43246,1,0,0:0:0:0:
448,192,44400,5,0,0:0:0:0:
64,192,44400,1,4,0:0:0:0:
192,192,44400,1,2,0:0:0:0:
320,192,44516,1,0,0:0:0:0:
192,192,44631,1,8,0:0:0:0:
448,192,44631,1,4,0:0:0:0:
64,192,44746,1,4,0:0:0:0:
320,192,44862,1,0,0:0:0:0:
192,192,44977,1,4,0:0:0:0:
448,192,45093,1,4,0:0:0:0:
320,192,45093,1,8,0:0:0:0:
64,192,45208,1,0,0:0:0:0:
320,192,45323,1,0,0:0:0:0:
192,192,45439,1,4,0:0:0:0:
64,192,45554,1,8,0:0:0:0:
448,192,45554,1,4,0:0:0:0:
320,192,45669,1,0,0:0:0:0:
192,192,45785,1,4,0:0:0:0:
320,192,45900,1,4,0:0:0:0:
448,192,46016,1,8,0:0:0:0:
64,192,46016,1,4,0:0:0:0:
320,192,46131,1,0,0:0:0:0:
448,192,46246,5,0,0:0:0:0:
192,192,46246,1,2,0:0:0:0:
64,192,46246,1,4,0:0:0:0:
320,192,46362,1,0,0:0:0:0:
64,192,46477,1,8,0:0:0:0:
192,192,46477,1,4,0:0:0:0:
448,192,46593,1,4,0:0:0:0:
192,192,46708,1,0,0:0:0:0:
320,192,46823,1,4,0:0:0:0:
64,192,46939,1,4,0:0:0:0:
192,192,46939,1,8,0:0:0:0:
448,192,47054,1,0,0:0:0:0:
192,192,47169,1,0,0:0:0:0:
320,192,47285,1,4,0:0:0:0:
448,192,47400,1,4,0:0:0:0:
64,192,47400,1,8,0:0:0:0:
192,192,47516,1,0,0:0:0:0:
320,192,47631,1,4,0:0:0:0:
448,192,47631,1,8,0:0:0:0:
192,192,47746,1,12,0:0:0:0:
448,192,47862,1,4,0:0:0:0:
64,192,47862,1,8,0:0:0:0:
320,192,47977,1,12,0:0:0:0:
448,192,48093,5,0,0:0:0:0:
64,192,48093,1,4,0:0:0:0:
192,192,48093,1,2,0:0:0:0:
320,192,48208,1,0,0:0:0:0:
448,192,48323,1,4,0:0:0:0:
64,192,48323,1,8,0:0:0:0:
192,192,48439,1,4,0:0:0:0:
320,192,48554,1,0,0:0:0:0:
192,192,48669,1,4,0:0:0:0:
320,192,48785,1,8,0:0:0:0:
448,192,48785,1,4,0:0:0:0:
64,192,48900,1,0,0:0:0:0:
448,192,49016,1,0,0:0:0:0:
192,192,49131,1,4,0:0:0:0:
64,192,49246,1,8,0:0:0:0:
320,192,49246,1,4,0:0:0:0:
192,192,49362,1,0,0:0:0:0:
448,192,49477,1,4,0:0:0:0:
320,192,49593,1,0,0:0:0:0:
64,192,49708,1,4,0:0:0:0:
192,192,49708,1,8,0:0:0:0:
448,192,49823,1,0,0:0:0:0:
320,192,49939,5,0,0:0:0:0:
192,192,49939,1,2,0:0:0:0:
64,192,49939,1,4,0:0:0:0:
448,192,50054,1,0,0:0:0:0:
64,192,50169,1,4,0:0:0:0:
320,192,50169,1,8,0:0:0:0:
192,192,50285,1,4,0:0:0:0:
448,192,50400,1,0,0:0:0:0:
320,192,50516,1,4,0:0:0:0:
192,192,50631,1,8,0:0:0:0:
64,192,50631,1,4,0:0:0:0:
448,192,50746,1,4,0:0:0:0:
64,192,50862,1,4,0:0:0:0:
320,192,50862,1,8,0:0:0:0:
192,192,50977,1,12,0:0:0:0:
320,192,51035,1,12,0:0:0:0:
448,192,51093,1,12,0:0:0:0:
64,192,51208,1,12,0:0:0:0:
448,192,51323,1,8,0:0:0:0:
320,192,51323,1,4,0:0:0:0:
192,192,51439,1,12,0:0:0:0:
320,192,51554,1,8,0:0:0:0:
448,192,51554,1,4,0:0:0:0:
64,192,51669,1,12,0:0:0:0:
448,192,51785,5,0,0:0:0:0:
192,192,51785,1,4,0:0:0:0:
320,192,51785,1,2,0:0:0:0:
64,192,51900,1,0,0:0:0:0:
192,192,52016,1,8,0:0:0:0:
448,192,52016,1,4,0:0:0:0:
320,192,52131,1,4,0:0:0:0:
64,192,52246,1,0,0:0:0:0:
320,192,52362,1,4,0:0:0:0:
448,192,52477,1,4,0:0:0:0:
192,192,52477,1,8,0:0:0:0:
64,192,52593,1,0,0:0:0:0:
320,192,52708,1,0,0:0:0:0:
64,192,52823,1,4,0:0:0:0:
320,192,52939,1,4,0:0:0:0:
448,192,52939,1,8,0:0:0:0:
192,192,53054,1,0,0:0:0:0:
64,192,53169,1,4,0:0:0:0:
448,192,53285,1,4,0:0:0:0:
320,192,53400,1,8,0:0:0:0:
64,192,53400,1,4,0:0:0:0:
192,192,53516,1,0,0:0:0:0:
448,192,53631,5,0,0:0:0:0:
320,192,53631,1,2,0:0:0:0:
64,192,53631,1,4,0:0:0:0:
192,192,53746,1,0,0:0:0:0:
448,192,53862,1,8,0:0:0:0:
320,192,53862,1,4,0:0:0:0:
64,192,53977,1,4,0:0:0:0:
192,192,54093,1,0,0:0:0:0:
320,192,54208,1,4,0:0:0:0:
448,192,54323,1,4,0:0:0:0:
192,192,54323,1,8,0:0:0:0:
64,192,54439,1,0,0:0:0:0:
320,192,54554,1,0,0:0:0:0:
192,192,54669,1,4,0:0:0:0:
320,192,54785,1,4,0:0:0:0:
448,192,54785,1,8,0:0:0:0:
64,192,54900,1,0,0:0:0:0:
192,192,55016,1,4,0:0:0:0:
448,192,55016,1,0,0:0:0:0:
320,192,55131,1,12,0:0:0:0:
192,192,55246,1,4,0:0:0:0:
64,192,55246,1,8,0:0:0:0:
320,192,55362,1,12,0:0:0:0:
448,192,55477,5,0,0:0:0:0:
192,192,55477,1,4,0:0:0:0:
64,192,55477,1,2,0:0:0:0:
320,192,55593,1,0,0:0:0:0:
64,192,55708,1,4,0:0:0:0:
448,192,55708,1,8,0:0:0:0:
192,192,55823,1,4,0:0:0:0:
320,192,55939,1,0,0:0:0:0:
192,192,56054,1,4,0:0:0:0:
320,192,56169,1,8,0:0:0:0:
64,192,56169,1,4,0:0:0:0:
448,192,56285,1,0,0:0:0:0:
192,192,56400,1,0,0:0:0:0:
64,192,56516,1,4,0:0:0:0:
320,192,56631,1,8,0:0:0:0:
448,192,56631,1,4,0:0:0:0:
192,192,56746,1,0,0:0:0:0:
64,192,56862,1,4,0:0:0:0:
320,192,56977,1,0,0:0:0:0:
448,192,57093,1,4,0:0:0:0:
192,192,57093,1,8,0:0:0:0:
64,192,57208,1,0,0:0:0:0:
448,192,57323,5,0,0:0:0:0:
192,192,57323,1,2,0:0:0:0:
320,192,57323,1,4,0:0:0:0:
64,192,57439,1,0,0:0:0:0:
448,192,57554,1,4,0:0:0:0:
320,192,57554,1,8,0:0:0:0:
192,192,57669,1,4,0:0:0:0:
64,192,57785,1,0,0:0:0:0:
320,192,57900,1,4,0:0:0:0:
192,192,58016,1,8,0:0:0:0:
64,192,58016,1,4,0:0:0:0:
448,192,58131,1,0,0:0:0:0:
320,192,58246,1,0,0:0:0:0:
192,192,58362,1,4,0:0:0:0:
448,192,58477,1,8,0:0:0:0:
64,192,58477,1,4,0:0:0:0:
320,192,58593,1,0,0:0:0:0:
192,192,58708,1,4,0:0:0:0:
64,192,58823,1,4,0:0:0:0:
320,192,58939,1,8,0:0:0:0:
448,192,58939,1,4,0:0:0:0:
192,192,59054,1,0,0:0:0:0:
448,192,59169,5,0,0:0:0:0:
64,192,59169,1,4,0:0:0:0:
320,192,59169,1,2,0:0:0:0:
192,192,59400,1,12,0:0:0:0:
64,192,59516,1,4,0:0:0:0:
448,192,59631,1,4,0:0:0:0:
320,192,59746,1,4,0:0:0:0:
192,192,59862,1,12,0:0:0:0:
448,192,59977,1,4,0:0:0:0:
320,192,60093,1,4,0:0:0:0:
64,192,60208,1,4,0:0:0:0:
448,192,60323,1,12,0:0:0:0:
192,192,60439,1,4,0:0:0:0:
64,192,60554,1,4,0:0:0:0:
320,192,60669,1,4,0:0:0:0:
192,192,60785,1,12,0:0:0:0:
64,192,60900,1,4,0:0:0:0:
320,192,61016,1,4,0:0:0:0:
448,192,61016,1,2,0:0:0:0:
64,192,61246,1,12,0:0:0:0:
192,192,61362,1,4,0:0:0:0:
320,192,61477,1,4,0:0:0:0:
64,192,61593,1,4,0:0:0:0:
448,192,61708,1,12,0:0:0:0:
320,192,61823,1,4,0:0:0:0:
192,192,61939,1,4,0:0:0:0:
64,192,61939,1,2,0:0:0:0:
448,192,62054,1,4,0:0:0:0:
320,192,62169,1,12,0:0:0:0:
64,192,62285,1,4,0:0:0:0:
192,192,62400,1,4,0:0:0:0:
320,192,62516,1,4,0:0:0:0:
192,192,62631,1,12,0:0:0:0:
320,192,62746,1,4,0:0:0:0:
448,192,62862,1,4,0:0:0:0:
64,192,62862,1,2,0:0:0:0:
192,192,63093,1,12,0:0:0:0:
448,192,63208,1,0,0:0:0:0:
64,192,63323,1,0,0:0:0:0:
320,192,63439,1,0,0:0:0:0:
192,192,63554,1,12,0:0:0:0:
448,192,63669,1,0,0:0:0:0:
320,192,63785,1,0,0:0:0:0:
192,192,63900,1,0,0:0:0:0:
320,192,64016,1,12,0:0:0:0:
64,192,64131,1,0,0:0:0:0:
192,192,64246,1,0,0:0:0:0:
448,192,64362,1,0,0:0:0:0:
320,192,64477,1,12,0:0:0:0:
192,192,64593,1,12,0:0:0:0:
64,192,64708,1,0,0:0:0:0:
320,192,64939,1,12,0:0:0:0:
448,192,65054,1,0,0:0:0:0:
64,192,65169,1,0,0:0:0:0:
320,192,65285,1,0,0:0:0:0:
192,192,65400,1,12,0:0:0:0:
64,192,65516,1,0,0:0:0:0:
320,192,65631,1,0,0:0:0:0:
448,192,65746,1,0,0:0:0:0:
64,192,65862,1,12,0:0:0:0:
320,192,65977,1,12,0:0:0:0:
64,192,66093,1,0,0:0:0:0:
192,192,66208,1,0,0:0:0:0:
320,192,66323,1,12,0:0:0:0:
64,192,66554,5,0,0:0:0:0:
448,192,66554,1,4,0:0:0:0:
192,192,66554,1,2,0:0:0:0:
320,192,66785,1,12,0:0:0:0:
448,192,66900,1,4,0:0:0:0:
64,192,67016,1,4,0:0:0:0:
192,192,67131,1,4,0:0:0:0:
320,192,67246,1,12,0:0:0:0:
64,192,67362,1,4,0:0:0:0:
320,192,67477,1,4,0:0:0:0:
448,192,67593,1,4,0:0:0:0:
192,192,67708,1,12,0:0:0:0:
64,192,67823,1,4,0:0:0:0:
448,192,67939,1,4,0:0:0:0:
192,192,68054,1,4,0:0:0:0:
320,192,68169,1,12,0:0:0:0:
448,192,68285,1,4,0:0:0:0:
192,192,68400,1,4,0:0:0:0:
64,192,68400,1,2,0:0:0:0:
448,192,68631,1,12,0:0:0:0:
320,192,68746,1,4,0:0:0:0:
192,192,68862,1,4,0:0:0:0:
448,192,68977,1,4,0:0:0:0:
64,192,69093,1,12,0:0:0:0:
192,192,69208,1,4,0:0:0:0:
320,192,69323,1,4,0:0:0:0:
448,192,69323,1,2,0:0:0:0:
192,192,69439,1,4,0:0:0:0:
64,192,69554,1,12,0:0:0:0:
320,192,69669,1,4,0:0:0:0:
192,192,69785,1,4,0:0:0:0:
448,192,69900,1,4,0:0:0:0:
320,192,70016,1,12,0:0:0:0:
64,192,70131,1,4,0:0:0:0:
192,192,70246,1,4,0:0:0:0:
448,192,70246,1,2,0:0:0:0:
320,192,70477,1,12,0:0:0:0:
64,192,70593,1,0,0:0:0:0:
448,192,70708,1,0,0:0:0:0:
192,192,70823,1,0,0:0:0:0:
64,192,70939,1,12,0:0:0:0:
448,192,71054,1,0,0:0:0:0:
192,192,71169,1,0,0:0:0:0:
320,192,71285,1,0,0:0:0:0:
64,192,71400,1,12,0:0:0:0:
448,192,71516,1,0,0:0:0:0:
320,192,71631,1,0,0:0:0:0:
64,192,71746,1,0,0:0:0:0:
192,192,71862,1,12,0:0:0:0:
320,192,71977,1,12,0:0:0:0:
448,192,72093,1,0,0:0:0:0:
64,192,72093,1,2,0:0:0:0:
192,192,72323,1,12,0:0:0:0:
64,192,72439,1,0,0:0:0:0:
448,192,72554,1,0,0:0:0:0:
192,192,72669,1,0,0:0:0:0:
320,192,72785,1,12,0:0:0:0:
448,192,72900,1,0,0:0:0:0:
192,192,73016,1,0,0:0:0:0:
64,192,73016,128,4,73939:0:0:0:0:
448,192,73131,1,0,0:0:0:0:
320,192,73246,1,12,0:0:0:0:
448,192,73362,1,4,0:0:0:0:
192,192,73477,1,0,0:0:0:0:
320,192,73593,1,0,0:0:0:0:
448,192,73708,1,12,0:0:0:0:
192,192,73708,1,4,2:0:0:0:
320,192,73939,5,0,0:0:0:0:
192,192,73939,1,2,0:0:0:0:
448,192,73939,1,4,0:0:0:0:
64,192,74054,1,0,0:0:0:0:
192,192,74169,1,12,0:0:0:0:
320,192,74169,1,0,0:0:0:0:
448,192,74285,1,4,0:0:0:0:
64,192,74400,1,4,0:0:0:0:
320,192,74400,1,0,0:0:0:0:
192,192,74516,1,4,0:0:0:0:
448,192,74516,1,0,0:0:0:0:
320,192,74631,1,12,0:0:0:0:
64,192,74746,1,4,0:0:0:0:
448,192,74746,1,0,0:0:0:0:
192,192,74862,1,4,0:0:0:0:
320,192,74977,1,4,0:0:0:0:
64,192,75093,1,12,0:0:0:0:
192,192,75093,1,0,0:0:0:0:
320,192,75208,1,4,0:0:0:0:
448,192,75323,1,4,0:0:0:0:
64,192,75323,1,0,0:0:0:0:
192,192,75439,1,4,0:0:0:0:
64,192,75554,1,12,0:0:0:0:
320,192,75554,1,0,0:0:0:0:
448,192,75669,1,4,0:0:0:0:
192,192,75785,1,4,0:0:0:0:
64,192,75900,1,0,0:0:0:0:
192,192,76016,1,12,0:0:0:0:
320,192,76016,1,0,0:0:0:0:
448,192,76131,1,4,0:0:0:0:
64,192,76246,1,0,0:0:0:0:
320,192,76246,1,4,0:0:0:0:
448,192,76362,1,4,0:0:0:0:
192,192,76362,1,0,0:0:0:0:
64,192,76477,1,12,0:0:0:0:
320,192,76593,1,4,0:0:0:0:
192,192,76593,1,0,0:0:0:0:
448,192,76708,1,4,0:0:0:0:
64,192,76823,1,4,0:0:0:0:
448,192,76939,1,12,0:0:0:0:
192,192,76939,1,0,0:0:0:0:
320,192,77054,1,4,0:0:0:0:
192,192,77169,1,4,0:0:0:0:
64,192,77169,1,0,0:0:0:0:
448,192,77285,1,4,0:0:0:0:
64,192,77400,1,12,0:0:0:0:
320,192,77400,1,0,0:0:0:0:
192,192,77516,1,4,0:0:0:0:
448,192,77631,1,4,0:0:0:0:
320,192,77746,1,0,0:0:0:0:
192,192,77862,1,12,0:0:0:0:
448,192,77862,1,0,0:0:0:0:
64,192,77977,1,4,0:0:0:0:
320,192,78093,1,0,0:0:0:0:
448,192,78093,1,0,0:0:0:0:
192,192,78208,1,4,0:0:0:0:
64,192,78208,1,0,0:0:0:0:
448,192,78323,1,12,0:0:0:0:
64,192,78439,1,0,0:0:0:0:
320,192,78439,1,0,0:0:0:0:
192,192,78554,1,0,0:0:0:0:
448,192,78669,1,4,0:0:0:0:
64,192,78785,1,12,0:0:0:0:
192,192,78785,1,0,0:0:0:0:
448,192,78900,1,4,0:0:0:0:
64,192,79016,1,4,0:0:0:0:
320,192,79016,1,0,0:0:0:0:
192,192,79131,1,0,0:0:0:0:
320,192,79246,1,12,0:0:0:0:
448,192,79246,1,0,0:0:0:0:
64,192,79362,1,4,0:0:0:0:
320,192,79477,1,4,0:0:0:0:
64,192,79593,1,4,0:0:0:0:
192,192,79708,1,12,0:0:0:0:
448,192,79708,1,0,0:0:0:0:
320,192,79823,1,4,0:0:0:0:
64,192,79939,1,0,0:0:0:0:
192,192,79939,1,0,0:0:0:0:
448,192,80054,1,4,0:0:0:0:
320,192,80054,1,0,0:0:0:0:
192,192,80169,1,12,0:0:0:0:
448,192,80285,1,0,0:0:0:0:
64,192,80285,1,0,0:0:0:0:
320,192,80400,1,0,0:0:0:0:
192,192,80516,1,4,0:0:0:0:
448,192,80631,1,12,0:0:0:0:
320,192,80631,1,0,0:0:0:0:
64,192,80746,1,4,0:0:0:0:
448,192,80862,1,4,0:0:0:0:
192,192,80862,1,0,0:0:0:0:
64,192,80977,1,4,0:0:0:0:
192,192,81093,1,12,0:0:0:0:
320,192,81093,1,0,0:0:0:0:
448,192,81208,1,0,0:0:0:0:
64,192,81323,1,4,0:0:0:0:
192,192,81439,1,0,0:0:0:0:
448,192,81554,1,12,0:0:0:0:
320,192,81554,1,0,0:0:0:0:
64,192,81669,1,4,0:0:0:0:
192,192,81785,1,4,0:0:0:0:
448,192,81785,1,0,0:0:0:0:
320,192,81900,1,4,0:0:0:0:
64,192,81900,1,0,0:0:0:0:
448,192,82016,1,12,0:0:0:0:
64,192,82131,1,4,0:0:0:0:
192,192,82131,1,0,0:0:0:0:
320,192,82246,1,4,0:0:0:0:
448,192,82362,1,4,0:0:0:0:
64,192,82477,1,12,0:0:0:0:
192,192,82477,1,0,0:0:0:0:
320,192,82593,1,4,0:0:0:0:
448,192,82708,1,4,0:0:0:0:
64,192,82708,1,0,0:0:0:0:
192,192,82823,1,4,0:0:0:0:
64,192,82939,1,12,0:0:0:0:
320,192,82939,1,0,0:0:0:0:
192,192,83054,1,4,0:0:0:0:
448,192,83169,1,4,0:0:0:0:
320,192,83285,1,0,0:0:0:0:
64,192,83400,1,12,0:0:0:0:
448,192,83400,1,0,0:0:0:0:
192,192,83516,1,4,0:0:0:0:
64,192,83631,1,4,0:0:0:0:
320,192,83631,1,0,0:0:0:0:
448,192,83746,1,4,0:0:0:0:
192,192,83746,1,0,0:0:0:0:
64,192,83862,1,12,0:0:0:0:
448,192,83977,1,4,0:0:0:0:
320,192,83977,1,0,0:0:0:0:
192,192,84093,1,4,0:0:0:0:
64,192,84208,1,4,0:0:0:0:
448,192,84323,1,12,0:0:0:0:
192,192,84323,1,0,0:0:0:0:
320,192,84439,1,4,0:0:0:0:
64,192,84554,1,4,0:0:0:0:
448,192,84554,1,0,0:0:0:0:
192,192,84669,1,4,0:0:0:0:
448,192,84785,1,12,0:0:0:0:
320,192,84785,1,0,0:0:0:0:
64,192,84900,1,4,0:0:0:0:
192,192,85016,1,4,0:0:0:0:
64,192,85131,1,0,0:0:0:0:
320,192,85246,1,12,0:0:0:0:
448,192,85246,1,0,0:0:0:0:
192,192,85362,1,4,0:0:0:0:
64,192,85477,1,0,0:0:0:0:
448,192,85477,1,0,0:0:0:0:
192,192,85593,1,4,0:0:0:0:
320,192,85593,1,0,0:0:0:0:
448,192,85708,1,12,0:0:0:0:
64,192,85823,1,0,0:0:0:0:
320,192,85823,1,0,0:0:0:0:
192,192,85939,1,0,0:0:0:0:
320,192,86054,1,4,0:0:0:0:
64,192,86169,1,12,0:0:0:0:
192,192,86169,1,0,0:0:0:0:
448,192,86285,1,0,0:0:0:0:
320,192,86400,1,4,0:0:0:0:
192,192,86400,1,0,0:0:0:0:
64,192,86516,1,0,0:0:0:0:
192,192,86631,1,12,0:0:0:0:
448,192,86631,1,0,0:0:0:0:
320,192,86746,1,4,0:0:0:0:
64,192,86862,1,8,0:0:0:0:
192,192,86862,1,4,0:0:0:0:
448,192,86862,1,0,0:0:0:0:
64,192,87093,1,8,0:0:0:0:
192,192,87093,1,4,0:0:0:0:
448,192,87093,1,0,0:0:0:0:
320,192,87323,1,8,0:0:0:0:
448,192,87323,1,4,0:0:0:0:
64,192,87323,1,0,0:0:0:0:
448,192,87554,1,4,0:0:0:0:
320,192,87554,1,8,0:0:0:0:
64,192,87554,1,0,0:0:0:0:
448,192,88708,1,4,0:0:0:0:
320,192,88708,1,2,0:0:0:0:
64,192,88708,1,0,0:0:0:0:
192,192,88939,1,4,0:0:0:0:
64,192,88939,1,0,0:0:0:0:
320,192,89169,1,0,0:0:0:0:
448,192,89169,1,4,0:0:0:0:
64,192,89400,1,4,0:0:0:0:
192,192,89400,1,0,0:0:0:0:
64,192,89631,1,0,0:0:0:0:
320,192,89631,1,4,0:0:0:0:
448,192,89631,1,8,0:0:0:0:
192,192,89862,1,4,0:0:0:0:
320,192,89862,1,0,0:0:0:0:
64,192,90093,1,0,0:0:0:0:
448,192,90093,1,4,0:0:0:0:
320,192,90323,1,4,0:0:0:0:
192,192,90323,1,0,0:0:0:0:
64,192,90554,1,0,0:0:0:0:
192,192,90554,1,4,0:0:0:0:
448,192,90554,1,2,0:0:0:0:
64,192,90785,1,4,0:0:0:0:
192,192,90785,1,8,0:0:0:0:
320,192,90900,1,4,0:0:0:0:
448,192,90900,1,8,0:0:0:0:
192,192,91016,1,4,0:0:0:0:
64,192,91016,1,0,0:0:0:0:
192,192,91246,1,0,0:0:0:0:
320,192,91246,1,4,0:0:0:0:
192,192,91477,1,4,0:0:0:0:
448,192,91477,1,0,0:0:0:0:
64,192,91477,1,8,0:0:0:0:
320,192,91708,1,0,0:0:0:0:
192,192,91708,1,4,0:0:0:0:
320,192,91939,1,0,0:0:0:0:
448,192,91939,1,4,0:0:0:0:
64,192,92169,1,0,0:0:0:0:
192,192,92169,1,4,0:0:0:0:
64,192,92400,1,4,0:0:0:0:
192,192,92400,1,2,0:0:0:0:
448,192,92400,1,0,0:0:0:0:
320,192,92631,1,4,0:0:0:0:
448,192,92631,1,0,0:0:0:0:
192,192,92862,1,0,0:0:0:0:
64,192,92862,1,4,0:0:0:0:
448,192,93093,1,4,0:0:0:0:
320,192,93093,1,0,0:0:0:0:
448,192,93323,1,0,0:0:0:0:
192,192,93323,1,4,0:0:0:0:
64,192,93323,1,8,0:0:0:0:
320,192,93554,1,4,0:0:0:0:
192,192,93554,1,0,0:0:0:0:
448,192,93785,1,0,0:0:0:0:
64,192,93785,1,4,0:0:0:0:
192,192,94016,1,4,0:0:0:0:
320,192,94016,1,0,0:0:0:0:
448,192,94246,1,0,0:0:0:0:
320,192,94246,1,4,0:0:0:0:
64,192,94246,1,2,0:0:0:0:
448,192,94477,1,4,0:0:0:0:
320,192,94477,1,8,0:0:0:0:
64,192,94593,1,4,0:0:0:0:
192,192,94593,1,8,0:0:0:0:
448,192,94708,1,4,0:0:0:0:
320,192,94708,1,0,0:0:0:0:
320,192,94939,1,0,0:0:0:0:
192,192,94939,1,4,0:0:0:0:
320,192,95169,1,4,0:0:0:0:
64,192,95169,1,0,0:0:0:0:
448,192,95169,1,8,0:0:0:0:
192,192,95400,1,0,0:0:0:0:
320,192,95400,1,4,0:0:0:0:
448,192,95516,1,0,0:0:0:0:
192,192,95631,1,8,0:0:0:0:
64,192,95631,1,4,0:0:0:0:
448,192,95746,1,8,0:0:0:0:
320,192,95746,1,4,0:0:0:0:
64,192,95862,1,4,0:0:0:0:
192,192,95862,1,8,0:0:0:0:
448,192,95977,1,8,0:0:0:0:
320,192,95977,1,4,0:0:0:0:
448,192,96093,1,4,0:0:0:0:
192,192,96093,1,2,0:0:0:0:
64,192,96093,1,0,0:0:0:0:
320,192,96323,1,4,0:0:0:0:
64,192,96323,1,0,0:0:0:0:
192,192,96554,1,0,0:0:0:0:
448,192,96554,1,4,0:0:0:0:
64,192,96785,1,4,0:0:0:0:
320,192,96785,1,0,0:0:0:0:
192,192,97016,1,0,0:0:0:0:
320,192,97016,1,4,0:0:0:0:
448,192,97016,1,8,0:0:0:0:
64,192,97246,1,4,0:0:0:0:
448,192,97246,1,0,0:0:0:0:
192,192,97477,1,0,0:0:0:0:
320,192,97477,1,4,0:0:0:0:
320,192,97708,1,4,0:0:0:0:
192,192,97708,1,0,0:0:0:0:
64,192,97939,1,0,0:0:0:0:
192,192,97939,1,4,0:0:0:0:
448,192,97939,1,2,0:0:0:0:
64,192,98169,1,4,0:0:0:0:
192,192,98169,1,8,0:0:0:0:
320,192,98285,1,4,0:0:0:0:
448,192,98285,1,8,0:0:0:0:
192,192,98400,1,4,0:0:0:0:
64,192,98400,1,0,0:0:0:0:
192,192,98631,1,0,0:0:0:0:
320,192,98631,1,4,0:0:0:0:
192,192,98862,1,4,0:0:0:0:
448,192,98862,1,0,0:0:0:0:
64,192,98862,1,8,0:0:0:0:
320,192,99093,1,0,0:0:0:0:
192,192,99093,1,4,0:0:0:0:
320,192,99323,1,0,0:0:0:0:
448,192,99323,1,4,0:0:0:0:
320,192,99554,1,8,0:0:0:0:
448,192,99554,1,4,0:0:0:0:
192,192,99669,1,4,0:0:0:0:
64,192,99669,1,8,0:0:0:0:
64,192,99785,1,4,0:0:0:0:
320,192,99785,1,2,0:0:0:0:
448,192,99785,1,0,0:0:0:0:
192,192,100016,1,4,0:0:0:0:
448,192,100016,1,0,0:0:0:0:
192,192,100246,1,0,0:0:0:0:
64,192,100246,1,4,0:0:0:0:
320,192,100246,1,8,0:0:0:0:
64,192,100477,1,8,0:0:0:0:
448,192,100477,1,4,0:0:0:0:
320,192,100477,1,0,0:0:0:0:
448,192,100708,1,0,0:0:0:0:
192,192,100708,1,4,0:0:0:0:
64,192,100708,1,2,0:0:0:0:
320,192,100939,1,4,0:0:0:0:
192,192,100939,1,0,0:0:0:0:
448,192,101169,1,0,0:0:0:0:
64,192,101169,1,4,0:0:0:0:
320,192,101169,1,8,0:0:0:0:
192,192,101400,1,4,0:0:0:0:
448,192,101400,1,0,0:0:0:0:
192,192,101631,1,0,0:0:0:0:
320,192,101631,1,4,0:0:0:0:
64,192,101631,1,2,0:0:0:0:
448,192,101862,1,8,0:0:0:0:
320,192,101862,1,4,0:0:0:0:
192,192,101977,1,4,0:0:0:0:
448,192,102093,1,0,0:0:0:0:
320,192,102208,1,4,0:0:0:0:
64,192,102208,1,8,0:0:0:0:
192,192,102323,1,4,0:0:0:0:
64,192,102439,1,0,0:0:0:0:
448,192,102554,1,8,0:0:0:0:
320,192,102554,1,4,0:0:0:0:
192,192,102669,1,4,0:0:0:0:
448,192,102785,1,8,0:0:0:0:
64,192,102785,1,4,0:0:0:0:
320,192,102900,1,12,0:0:0:0:
64,192,103016,1,4,0:0:0:0:
448,192,103016,1,8,0:0:0:0:
192,192,103131,1,4,0:0:0:0:
448,192,103246,1,0,0:0:0:0:
192,192,103362,1,4,0:0:0:0:
448,192,103477,1,2,0:0:0:0:
320,192,103477,1,4,0:0:0:0:
64,192,103477,1,4,2:0:0:0:
192,192,103593,1,0,0:0:0:0:
320,192,103708,1,4,0:0:0:0:
192,192,103823,1,4,0:0:0:0:
320,192,103939,1,4,0:0:0:0:
448,192,103939,1,8,0:0:0:0:
64,192,103939,1,4,2:0:0:0:
192,192,104054,1,0,0:0:0:0:
320,192,104169,1,4,0:0:0:0:
64,192,104285,1,0,0:0:0:0:
320,192,104400,1,4,0:0:0:0:
448,192,104400,1,8,0:0:0:0:
192,192,104400,1,4,2:0:0:0:
64,192,104516,1,0,0:0:0:0:
192,192,104631,1,4,0:0:0:0:
64,192,104746,1,4,0:0:0:0:
320,192,104862,1,4,0:0:0:0:
448,192,104862,1,8,0:0:0:0:
192,192,104862,1,4,2:0:0:0:
64,192,104977,1,0,0:0:0:0:
320,192,105093,1,4,0:0:0:0:
448,192,105208,1,0,0:0:0:0:
320,192,105323,1,4,0:0:0:0:
192,192,105323,1,8,0:0:0:0:
64,192,105323,1,4,2:0:0:0:
448,192,105439,1,0,0:0:0:0:
192,192,105554,1,4,0:0:0:0:
320,192,105669,1,4,0:0:0:0:
64,192,105785,1,8,0:0:0:0:
192,192,105785,1,4,0:0:0:0:
448,192,105785,1,4,2:0:0:0:
320,192,105900,1,0,0:0:0:0:
64,192,106016,1,4,0:0:0:0:
448,192,106131,1,0,0:0:0:0:
192,192,106246,1,4,0:0:0:0:
320,192,106246,1,8,0:0:0:0:
64,192,106246,1,4,2:0:0:0:
448,192,106362,1,4,0:0:0:0:
64,192,106477,1,0,0:0:0:0:
192,192,106593,1,4,0:0:0:0:
320,192,106708,1,4,0:0:0:0:
64,192,106708,1,8,0:0:0:0:
448,192,106708,1,4,2:0:0:0:
192,192,106823,1,4,0:0:0:0:
448,192,106939,1,4,0:0:0:0:
64,192,107054,1,4,0:0:0:0:
320,192,107169,1,4,0:0:0:0:
448,192,107169,1,8,0:0:0:0:
192,192,107169,1,4,2:0:0:0:
64,192,107285,1,0,0:0:0:0:
448,192,107400,1,4,0:0:0:0:
192,192,107516,1,4,0:0:0:0:
448,192,107631,1,4,0:0:0:0:
320,192,107631,1,8,0:0:0:0:
64,192,107631,1,4,2:0:0:0:
192,192,107746,1,0,0:0:0:0:
320,192,107862,1,4,0:0:0:0:
64,192,107977,1,0,0:0:0:0:
448,192,108093,1,4,0:0:0:0:
320,192,108093,1,8,0:0:0:0:
192,192,108093,1,4,2:0:0:0:
64,192,108208,1,0,0:0:0:0:
320,192,108323,1,4,0:0:0:0:
192,192,108439,1,4,0:0:0:0:
448,192,108554,1,8,0:0:0:0:
320,192,108554,1,4,0:0:0:0:
64,192,108554,1,4,2:0:0:0:
192,192,108669,1,0,0:0:0:0:
64,192,108785,1,4,0:0:0:0:
448,192,108900,1,0,0:0:0:0:
320,192,109016,1,8,0:0:0:0:
192,192,109016,1,4,0:0:0:0:
64,192,109016,1,4,2:0:0:0:
448,192,109131,1,0,0:0:0:0:
320,192,109246,1,4,0:0:0:0:
448,192,109362,1,4,0:0:0:0:
320,192,109477,1,4,0:0:0:0:
192,192,109477,1,8,0:0:0:0:
64,192,109477,1,4,2:0:0:0:
448,192,109593,1,0,0:0:0:0:
64,192,109708,1,4,0:0:0:0:
192,192,109823,1,0,0:0:0:0:
320,192,109939,1,4,0:0:0:0:
448,192,109939,1,8,0:0:0:0:
64,192,109939,1,4,2:0:0:0:
192,192,110054,1,4,0:0:0:0:
448,192,110169,1,4,0:0:0:0:
192,192,110285,1,4,0:0:0:0:
320,192,110400,1,4,0:0:0:0:
448,192,110400,1,0,0:0:0:0:
64,192,110400,1,4,2:0:0:0:
192,192,110516,1,4,0:0:0:0:
320,192,110631,1,4,0:0:0:0:
64,192,110746,1,4,0:0:0:0:
448,192,110862,1,0,0:0:0:0:
320,192,110862,1,4,0:0:0:0:
192,192,110862,1,4,2:0:0:0:
64,192,110977,1,0,0:0:0:0:
448,192,111093,1,4,0:0:0:0:
192,192,111208,1,4,0:0:0:0:
448,192,111323,1,4,0:0:0:0:
320,192,111323,1,8,0:0:0:0:
64,192,111323,1,4,2:0:0:0:
192,192,111439,1,0,0:0:0:0:
320,192,111554,1,4,0:0:0:0:
448,192,111669,1,0,0:0:0:0:
320,192,111785,1,4,0:0:0:0:
192,192,111785,1,8,0:0:0:0:
64,192,111785,1,4,2:0:0:0:
448,192,111900,1,0,0:0:0:0:
320,192,112016,1,4,0:0:0:0:
192,192,112131,1,4,0:0:0:0:
320,192,112246,1,4,0:0:0:0:
448,192,112246,1,8,0:0:0:0:
64,192,112246,1,4,2:0:0:0:
192,192,112362,1,0,0:0:0:0:
320,192,112477,1,4,0:0:0:0:
64,192,112593,1,0,0:0:0:0:
192,192,112708,1,4,0:0:0:0:
320,192,112708,1,8,0:0:0:0:
448,192,112708,1,4,2:0:0:0:
64,192,112823,1,0,0:0:0:0:
320,192,112939,1,4,0:0:0:0:
192,192,113054,1,4,0:0:0:0:
448,192,113169,1,8,0:0:0:0:
320,192,113169,1,4,0:0:0:0:
64,192,113169,1,4,2:0:0:0:
192,192,113285,1,0,0:0:0:0:
448,192,113400,1,4,0:0:0:0:
320,192,113516,1,0,0:0:0:0:
192,192,113631,1,4,0:0:0:0:
448,192,113631,1,8,0:0:0:0:
64,192,113631,1,4,2:0:0:0:
320,192,113746,1,4,0:0:0:0:
192,192,113862,1,4,0:0:0:0:
320,192,113977,1,4,0:0:0:0:
64,192,114093,1,4,0:0:0:0:
192,192,114093,1,8,0:0:0:0:
448,192,114093,1,4,2:0:0:0:
320,192,114208,1,4,0:0:0:0:
64,192,114323,1,4,0:0:0:0:
448,192,114323,1,8,0:0:0:0:
192,192,114439,1,4,0:0:0:0:
320,192,114554,1,4,0:0:0:0:
64,192,114669,1,4,0:0:0:0:
192,192,114727,1,4,0:0:0:0:
320,192,114785,1,4,0:0:0:0:
64,192,114900,1,0,0:0:0:0:
320,192,115016,1,4,0:0:0:0:
448,192,115016,1,8,0:0:0:0:
192,192,115131,1,12,0:0:0:0:
448,192,115246,1,0,0:0:0:0:
64,192,115323,1,12,0:0:0:0:
320,192,115400,1,12,0:0:0:0:
64,192,115477,1,8,0:0:0:0:
192,192,115477,1,4,0:0:0:0:
320,192,115593,1,12,0:0:0:0:
64,192,115708,1,4,0:0:0:0:
448,192,115823,1,4,0:0:0:0:
320,192,115939,1,4,0:0:0:0:
64,192,115939,1,8,0:0:0:0:
192,192,116054,1,12,0:0:0:0:
320,192,116169,1,4,0:0:0:0:
448,192,116285,1,12,0:0:0:0:
192,192,116400,1,4,0:0:0:0:
64,192,116400,1,8,0:0:0:0:
448,192,116516,1,4,0:0:0:0:
192,192,116631,1,0,0:0:0:0:
320,192,116631,1,4,0:0:0:0:
64,192,116631,1,2,0:0:0:0:
64,192,116862,1,2,0:0:0:0:
320,192,116862,1,4,0:0:0:0:
448,192,116862,1,0,0:0:0:0:
