osu file format v14

[General]
AudioFilename: audio.mp3
AudioLeadIn: 0
PreviewTime: -1
Countdown: 1
SampleSet: None
StackLeniency: 0.7
Mode: 1
LetterboxInBreaks: 0
WidescreenStoryboard: 0

[Editor]
DistanceSpacing: 1.1
BeatDivisor: 4
GridSize: 32
TimelineZoom: 2.1

[Metadata]
Title:Little Lion Man
TitleUnicode:Little Lion Man
Artist:Tonight Alive
ArtistUnicode:Tonight Alive
Creator:QEpicAce
Version:Little Taiko Man
Source:
Tags:
BeatmapID:1948903
BeatmapSetID:933534

[Difficulty]
HPDrainRate:5.8
CircleSize:5
OverallDifficulty:4
ApproachRate:5
SliderMultiplier:1.4
SliderTickRate:1

[Events]
//Background and Video events
0,0,"bg test.jpg",0,0
//Break Periods
//Storyboard Layer 0 (Background)
//Storyboard Layer 1 (Fail)
//Storyboard Layer 2 (Pass)
//Storyboard Layer 3 (Foreground)
//Storyboard Sound Samples

[TimingPoints]
254,230.769230769231,4,1,0,100,1,0
254,-200,4,1,0,100,0,0
4177,-200,4,1,0,100,0,0
48484,-100,4,1,0,100,0,1
63254,-100,4,1,0,100,0,0
63484,-133.333333333333,4,1,0,100,0,0
92792,-100,4,1,0,100,0,1
122330,-100,4,1,0,100,0,0
122446,-200,4,1,0,100,0,0
161792,-188.679245283019,4,1,0,100,0,0
162138,-178.571428571429,4,1,0,100,0,0
162715,-169.491525423729,4,1,0,100,0,0
163177,-161.290322580645,4,1,0,100,0,0
163638,-153.846153846154,4,1,0,100,0,0
164100,-147.058823529412,4,1,0,100,0,0
164561,-140.845070422535,4,1,0,100,0,0
165023,-136.986301369863,4,1,0,100,0,0
165484,-133.333333333333,4,1,0,100,0,0
198023,-100,4,1,0,100,0,1
224561,-100,4,1,0,100,0,0
224792,-133.333333333333,4,1,0,100,0,0

[HitObjects]
256,192,4177,5,0,0:0:0:0:
256,192,4407,1,0,0:0:0:0:
256,192,4638,1,8,0:0:0:0:
256,192,4869,1,8,0:0:0:0:
256,192,5100,1,8,0:0:0:0:
256,192,5330,1,0,0:0:0:0:
256,192,5561,1,8,0:0:0:0:
256,192,5792,1,0,0:0:0:0:
256,192,6023,1,0,0:0:0:0:
256,192,6254,1,8,0:0:0:0:
256,192,6484,1,8,0:0:0:0:
256,192,6715,1,0,0:0:0:0:
256,192,6946,1,0,0:0:0:0:
256,192,7177,1,8,0:0:0:0:
256,192,7408,1,8,0:0:0:0:
224,192,7638,1,0,0:0:0:0:
256,192,7869,1,0,0:0:0:0:
256,192,8100,2,0,L|320:192,12,35
256,192,9715,1,0,0:0:0:0:
256,192,9946,1,0,0:0:0:0:
256,192,10177,1,8,0:0:0:0:
256,192,10407,1,8,0:0:0:0:
256,192,10638,1,0,0:0:0:0:
256,192,10869,1,0,0:0:0:0:
256,192,11100,1,8,0:0:0:0:
256,192,11330,1,8,0:0:0:0:
256,192,11561,1,8,0:0:0:0:
256,192,11792,1,0,0:0:0:0:
256,192,12023,1,0,0:0:0:0:
256,192,12254,1,0,0:0:0:0:
256,192,12484,1,8,0:0:0:0:
256,192,12715,1,0,0:0:0:0:
256,192,12946,1,8,0:0:0:0:
256,192,13177,1,0,0:0:0:0:
256,192,13407,1,0,0:0:0:0:
256,192,13638,1,8,0:0:0:0:
256,192,13869,1,0,0:0:0:0:
256,192,14100,1,8,0:0:0:0:
256,192,14330,1,0,0:0:0:0:
256,192,14561,1,8,0:0:0:0:
256,192,14792,1,8,0:0:0:0:
256,192,15023,1,0,0:0:0:0:
256,192,15254,1,8,0:0:0:0:
224,192,15484,2,0,L|288:192,12,35
256,192,17100,1,8,0:0:0:0:
256,192,17330,1,8,0:0:0:0:
256,192,17561,1,0,0:0:0:0:
256,192,17792,1,0,0:0:0:0:
256,192,18023,1,8,0:0:0:0:
256,192,18254,1,8,0:0:0:0:
256,192,18484,1,0,0:0:0:0:
256,192,18715,1,8,0:0:0:0:
256,192,18946,1,0,0:0:0:0:
256,192,19177,1,8,0:0:0:0:
256,192,19407,1,8,0:0:0:0:
256,192,19869,1,8,0:0:0:0:
256,192,20100,1,8,0:0:0:0:
256,192,20330,1,0,0:0:0:0:
256,192,20792,1,0,0:0:0:0:
256,192,21023,1,8,0:0:0:0:
256,192,21254,1,0,0:0:0:0:
256,192,21715,1,8,0:0:0:0:
256,192,21946,1,0,0:0:0:0:
256,192,22177,1,8,0:0:0:0:
256,192,22638,1,0,0:0:0:0:
256,192,22869,1,0,0:0:0:0:
256,192,23100,1,8,0:0:0:0:
256,192,23561,1,0,0:0:0:0:
256,192,23792,1,8,0:0:0:0:
256,192,24484,1,0,0:0:0:0:
256,192,24715,1,8,0:0:0:0:
256,192,25407,1,0,0:0:0:0:
256,192,25638,1,8,0:0:0:0:
256,192,26330,1,8,0:0:0:0:
256,192,26561,1,8,0:0:0:0:
256,192,26792,1,0,0:0:0:0:
256,192,27254,1,8,0:0:0:0:
256,192,27484,1,8,0:0:0:0:
256,192,27715,1,0,0:0:0:0:
256,192,28177,1,8,0:0:0:0:
256,192,28407,1,0,0:0:0:0:
256,192,28638,1,8,0:0:0:0:
256,192,29100,1,8,0:0:0:0:
256,192,29330,1,8,0:0:0:0:
256,192,29561,1,0,0:0:0:0:
256,192,30023,1,0,0:0:0:0:
256,192,30254,1,0,0:0:0:0:
256,192,30484,1,8,0:0:0:0:
256,192,30715,1,0,0:0:0:0:
256,192,31407,1,0,0:0:0:0:
256,192,31638,1,8,0:0:0:0:
256,192,32330,1,0,0:0:0:0:
256,192,32561,1,8,0:0:0:0:
256,192,33023,1,0,0:0:0:0:
256,192,33254,1,0,0:0:0:0:
256,192,33484,1,8,0:0:0:0:
256,192,33715,1,0,0:0:0:0:
256,192,34638,1,0,0:0:0:0:
256,192,35100,1,8,0:0:0:0:
256,192,35330,1,8,0:0:0:0:
256,192,35561,1,0,0:0:0:0:
256,192,36715,1,8,0:0:0:0:
256,192,36946,1,8,0:0:0:0:
256,192,37177,1,0,0:0:0:0:
256,192,37407,1,8,0:0:0:0:
256,192,37869,1,0,0:0:0:0:
256,192,38330,1,0,0:0:0:0:
256,192,38792,1,8,0:0:0:0:
256,192,39023,1,8,0:0:0:0:
256,192,39254,1,0,0:0:0:0:
256,192,39715,1,0,0:0:0:0:
256,192,40407,1,8,0:0:0:0:
256,192,40638,1,8,0:0:0:0:
256,192,40869,1,0,0:0:0:0:
256,192,41100,1,8,0:0:0:0:
256,192,41561,1,0,0:0:0:0:
256,192,41791,1,8,0:0:0:0:
256,192,42023,1,0,0:0:0:0:
256,192,42484,1,8,0:0:0:0:
256,192,42715,1,8,0:0:0:0:
256,192,42946,1,0,0:0:0:0:
256,192,43407,1,0,0:0:0:0:
256,192,43869,1,8,0:0:0:0:
256,192,43984,1,0,0:0:0:0:
256,192,44100,1,8,0:0:0:0:
256,192,44330,1,0,0:0:0:0:
256,192,44561,1,0,0:0:0:0:
256,192,44792,1,8,0:0:0:0:
256,192,45023,1,0,0:0:0:0:
256,192,45254,1,0,0:0:0:0:
256,192,45484,1,8,0:0:0:0:
256,192,45715,1,0,0:0:0:0:
256,192,45946,1,0,0:0:0:0:
256,192,46177,1,8,0:0:0:0:
256,192,46407,1,8,0:0:0:0:
256,192,46638,1,8,0:0:0:0:
256,192,46869,1,0,0:0:0:0:
256,192,47100,1,8,0:0:0:0:
256,192,47330,1,0,0:0:0:0:
256,192,48484,1,8,0:0:0:0:
256,192,48600,1,8,0:0:0:0:
256,192,48715,1,8,0:0:0:0:
256,192,48830,1,0,0:0:0:0:
256,192,48946,1,0,0:0:0:0:
256,192,49061,1,0,0:0:0:0:
256,192,49177,1,8,0:0:0:0:
256,192,49292,1,0,0:0:0:0:
256,192,49407,1,8,0:0:0:0:
256,192,49523,1,0,0:0:0:0:
224,192,49638,1,8,0:0:0:0:
256,192,49869,1,8,0:0:0:0:
256,192,50100,1,8,0:0:0:0:
256,192,50330,1,0,0:0:0:0:
256,192,50446,1,0,0:0:0:0:
256,192,50561,1,8,0:0:0:0:
256,192,50677,1,0,0:0:0:0:
256,192,50792,1,0,0:0:0:0:
256,192,50907,1,8,0:0:0:0:
256,192,51023,1,8,0:0:0:0:
256,192,51138,1,0,0:0:0:0:
256,192,51254,1,0,0:0:0:0:
256,192,51369,1,8,0:0:0:0:
256,192,51484,1,0,0:0:0:0:
256,192,51715,1,0,0:0:0:0:
256,192,51946,1,0,0:0:0:0:
256,192,52061,1,8,0:0:0:0:
256,192,52119,1,8,0:0:0:0:
256,192,52177,1,0,0:0:0:0:
256,192,52407,1,0,0:0:0:0:
256,192,52523,1,8,0:0:0:0:
224,192,52754,1,8,0:0:0:0:
224,192,52869,1,0,0:0:0:0:
224,192,53215,1,0,0:0:0:0:
224,192,53330,1,8,0:0:0:0:
224,192,53388,1,8,0:0:0:0:
224,192,53446,1,0,0:0:0:0:
224,192,53561,1,0,0:0:0:0:
224,192,53792,1,0,0:0:0:0:
224,192,54023,1,8,0:0:0:0:
192,192,54254,1,8,0:0:0:0:
192,192,54369,1,0,0:0:0:0:
192,192,54600,1,0,0:0:0:0:
192,192,54715,1,0,0:0:0:0:
288,192,54830,1,8,0:0:0:0:
256,192,54946,1,0,0:0:0:0:
256,192,55061,1,8,0:0:0:0:
256,192,55119,1,8,0:0:0:0:
256,192,55177,1,0,0:0:0:0:
256,192,55292,1,0,0:0:0:0:
160,160,55407,1,8,0:0:0:0:
256,192,55523,1,0,0:0:0:0:
256,192,55638,1,0,0:0:0:0:
256,192,55754,1,8,0:0:0:0:
192,192,55869,1,8,0:0:0:0:
256,192,55984,1,0,0:0:0:0:
256,192,56100,1,8,0:0:0:0:
256,192,56215,1,8,0:0:0:0:
256,192,56330,1,8,0:0:0:0:
256,192,56446,1,0,0:0:0:0:
256,192,56561,1,8,0:0:0:0:
256,192,56907,1,8,0:0:0:0:
256,192,57023,1,0,0:0:0:0:
256,192,57254,1,8,0:0:0:0:
256,192,57369,1,0,0:0:0:0:
256,192,57484,1,8,0:0:0:0:
256,192,57715,1,0,0:0:0:0:
256,192,57830,1,0,0:0:0:0:
256,192,57946,1,8,0:0:0:0:
256,192,58061,1,0,0:0:0:0:
256,192,58177,1,8,0:0:0:0:
256,192,58292,1,8,0:0:0:0:
256,192,58407,1,0,0:0:0:0:
224,192,58754,1,0,0:0:0:0:
256,192,58869,1,8,0:0:0:0:
256,192,59100,1,8,0:0:0:0:
224,160,59215,1,0,0:0:0:0:
256,192,59330,1,8,0:0:0:0:
224,192,59388,1,8,0:0:0:0:
224,192,59446,1,8,0:0:0:0:
224,192,59504,1,8,0:0:0:0:
256,192,59561,1,0,0:0:0:0:
256,192,59792,1,0,0:0:0:0:
256,192,59907,1,0,0:0:0:0:
256,192,60023,1,8,0:0:0:0:
256,192,60138,1,0,0:0:0:0:
256,192,60254,1,8,0:0:0:0:
256,192,60600,1,0,0:0:0:0:
256,192,60715,1,8,0:0:0:0:
256,192,60946,1,8,0:0:0:0:
256,192,61177,1,8,0:0:0:0:
224,192,61407,1,8,0:0:0:0:
224,192,61523,1,8,0:0:0:0:
224,192,61638,1,0,0:0:0:0:
224,192,61754,1,8,0:0:0:0:
256,192,61869,1,0,0:0:0:0:
256,192,61984,1,8,0:0:0:0:
256,192,62100,1,0,0:0:0:0:
256,192,62446,1,0,0:0:0:0:
224,192,62561,1,8,0:0:0:0:
224,192,62792,1,8,0:0:0:0:
256,192,62907,1,0,0:0:0:0:
224,160,63023,1,8,0:0:0:0:
224,160,63080,1,8,0:0:0:0:
224,192,63138,1,8,0:0:0:0:
224,192,63196,1,8,0:0:0:0:
224,192,63254,1,0,0:0:0:0:
242,184,63484,1,0,0:0:0:0:
252,191,63715,1,8,0:0:0:0:
253,191,63830,1,8,0:0:0:0:
254,191,63946,1,0,0:0:0:0:
251,194,64177,1,0,0:0:0:0:
266,189,64407,1,8,0:0:0:0:
266,189,64523,1,8,0:0:0:0:
265,191,64638,1,0,0:0:0:0:
262,193,64754,1,0,0:0:0:0:
261,193,64869,1,8,0:0:0:0:
251,194,65100,1,0,0:0:0:0:
247,191,65330,1,8,0:0:0:0:
247,191,65446,1,8,0:0:0:0:
255,196,65561,1,0,0:0:0:0:
255,198,65792,1,0,0:0:0:0:
256,192,66023,1,0,0:0:0:0:
256,192,66138,1,0,0:0:0:0:
256,192,66254,1,0,0:0:0:0:
256,192,66369,1,8,0:0:0:0:
256,192,66484,1,0,0:0:0:0:
256,192,66715,1,0,0:0:0:0:
256,192,66946,1,0,0:0:0:0:
256,192,67177,1,8,0:0:0:0:
256,192,67292,1,8,0:0:0:0:
256,192,67407,1,0,0:0:0:0:
256,192,67638,1,0,0:0:0:0:
256,192,67869,1,8,0:0:0:0:
256,192,67984,1,8,0:0:0:0:
256,192,68100,1,0,0:0:0:0:
256,192,68330,1,0,0:0:0:0:
256,192,68561,1,0,0:0:0:0:
256,192,68677,1,8,0:0:0:0:
256,192,68792,1,8,0:0:0:0:
256,192,69023,1,0,0:0:0:0:
256,192,69138,1,0,0:0:0:0:
256,192,69254,1,8,0:0:0:0:
256,192,69369,1,8,0:0:0:0:
256,192,69484,1,0,0:0:0:0:
256,192,69715,1,0,0:0:0:0:
256,192,69946,1,8,0:0:0:0:
256,192,70061,1,8,0:0:0:0:
256,192,70177,1,8,0:0:0:0:
256,192,70292,1,0,0:0:0:0:
256,192,70407,1,0,0:0:0:0:
256,192,70638,1,0,0:0:0:0:
256,192,70869,1,0,0:0:0:0:
256,192,70984,1,0,0:0:0:0:
256,192,71100,1,8,0:0:0:0:
256,192,71330,1,0,0:0:0:0:
256,192,71561,1,8,0:0:0:0:
256,192,71677,1,0,0:0:0:0:
256,192,71792,1,8,0:0:0:0:
256,192,72023,1,0,0:0:0:0:
256,192,72254,1,8,0:0:0:0:
256,192,72369,1,8,0:0:0:0:
256,192,72484,1,0,0:0:0:0:
256,192,72600,1,8,0:0:0:0:
256,192,72715,1,0,0:0:0:0:
256,192,72946,1,0,0:0:0:0:
256,192,73177,1,8,0:0:0:0:
256,192,73292,1,8,0:0:0:0:
256,192,73407,1,0,0:0:0:0:
256,192,73638,1,0,0:0:0:0:
256,192,73754,1,8,0:0:0:0:
256,192,73869,1,8,0:0:0:0:
256,192,74100,1,0,0:0:0:0:
256,192,74215,1,0,0:0:0:0:
256,192,74330,1,8,0:0:0:0:
256,192,74446,1,0,0:0:0:0:
256,192,74561,1,8,0:0:0:0:
256,192,74792,1,0,0:0:0:0:
256,192,75023,1,0,0:0:0:0:
256,192,75138,1,0,0:0:0:0:
256,192,75254,1,8,0:0:0:0:
256,192,75369,1,0,0:0:0:0:
256,192,75484,1,8,0:0:0:0:
256,192,75715,1,0,0:0:0:0:
256,192,75946,1,8,0:0:0:0:
256,192,76061,1,8,0:0:0:0:
256,192,76177,1,0,0:0:0:0:
256,192,76407,1,0,0:0:0:0:
256,192,76638,1,8,0:0:0:0:
256,192,76754,1,8,0:0:0:0:
256,192,76869,1,0,0:0:0:0:
256,192,77100,1,0,0:0:0:0:
256,192,77330,1,0,0:0:0:0:
256,192,77446,1,0,0:0:0:0:
256,192,77561,1,8,0:0:0:0:
256,192,77677,1,0,0:0:0:0:
256,192,77792,1,8,0:0:0:0:
256,192,78023,1,0,0:0:0:0:
256,192,78254,1,0,0:0:0:0:
256,192,78484,1,0,0:0:0:0:
256,192,78715,1,8,0:0:0:0:
256,192,78830,1,8,0:0:0:0:
256,192,78946,1,0,0:0:0:0:
256,192,79177,1,8,0:0:0:0:
256,192,79292,1,8,0:0:0:0:
256,192,79407,1,0,0:0:0:0:
256,192,79638,1,0,0:0:0:0:
256,192,79869,1,8,0:0:0:0:
256,192,79984,1,8,0:0:0:0:
256,192,80100,1,0,0:0:0:0:
256,192,80330,1,0,0:0:0:0:
256,192,80446,1,0,0:0:0:0:
256,192,80561,1,8,0:0:0:0:
256,192,80677,1,0,0:0:0:0:
256,192,80792,1,0,0:0:0:0:
256,192,81023,1,8,0:0:0:0:
256,192,81138,1,8,0:0:0:0:
256,192,81254,1,0,0:0:0:0:
256,192,81369,1,8,0:0:0:0:
256,192,81484,1,8,0:0:0:0:
224,192,81715,1,0,0:0:0:0:
224,192,81946,1,0,0:0:0:0:
224,192,82177,1,0,0:0:0:0:
224,192,82292,1,0,0:0:0:0:
224,192,82407,1,8,0:0:0:0:
224,192,82523,1,0,0:0:0:0:
224,192,82869,1,0,0:0:0:0:
224,192,83100,1,8,0:0:0:0:
256,192,83330,1,12,0:0:0:0:
256,224,83561,1,0,0:0:0:0:
256,224,83792,1,0,0:0:0:0:
256,224,83907,1,0,0:0:0:0:
256,224,84023,1,8,0:0:0:0:
256,224,84138,1,8,0:0:0:0:
256,224,84254,1,0,0:0:0:0:
256,224,84369,1,0,0:0:0:0:
256,224,84715,1,8,0:0:0:0:
256,224,84946,1,0,0:0:0:0:
256,224,85177,1,4,0:0:0:0:
256,224,85407,1,0,0:0:0:0:
256,224,85638,1,8,0:0:0:0:
256,224,85754,1,8,0:0:0:0:
256,224,85869,1,0,0:0:0:0:
256,256,86100,1,0,0:0:0:0:
256,256,86330,1,0,0:0:0:0:
256,256,86446,1,0,0:0:0:0:
256,256,86561,1,8,0:0:0:0:
256,256,86677,1,0,0:0:0:0:
256,256,86792,1,8,0:0:0:0:
256,256,87023,1,0,0:0:0:0:
256,256,87254,1,8,0:0:0:0:
256,256,87369,1,8,0:0:0:0:
256,256,87484,1,0,0:0:0:0:
256,256,87715,1,0,0:0:0:0:
256,256,87946,1,8,0:0:0:0:
256,256,88061,1,8,0:0:0:0:
256,256,88177,1,0,0:0:0:0:
256,256,88407,1,0,0:0:0:0:
256,256,88638,1,0,0:0:0:0:
256,256,88754,1,0,0:0:0:0:
256,256,88869,1,8,0:0:0:0:
224,256,88984,1,0,0:0:0:0:
224,256,89100,1,8,0:0:0:0:
224,256,89330,1,0,0:0:0:0:
256,224,89561,1,8,0:0:0:0:
256,224,89677,1,8,0:0:0:0:
256,224,89792,5,0,0:0:0:0:
256,224,89907,1,8,0:0:0:0:
256,224,90254,1,0,0:0:0:0:
256,224,90484,1,8,0:0:0:0:
256,224,90715,1,12,0:0:0:0:
256,192,90946,5,4,0:0:0:0:
256,192,91177,5,4,0:0:0:0:
256,192,91407,1,4,0:0:0:0:
256,192,91638,1,12,0:0:0:0:
256,192,92792,1,4,0:0:0:0:
256,192,93023,1,4,0:0:0:0:
256,192,93254,1,12,0:0:0:0:
256,192,93484,1,4,0:0:0:0:
256,224,93715,1,4,0:0:0:0:
256,224,93946,1,4,0:0:0:0:
256,224,94177,1,12,0:0:0:0:
256,224,94407,1,4,0:0:0:0:
224,224,94869,1,8,0:0:0:0:
224,224,94984,1,8,0:0:0:0:
224,224,95100,1,0,0:0:0:0:
224,224,95330,1,8,0:0:0:0:
224,224,95561,1,0,0:0:0:0:
224,224,95792,1,4,0:0:0:0:
224,224,96023,1,4,0:0:0:0:
224,224,96254,1,12,0:0:0:0:
224,224,96484,1,4,0:0:0:0:
256,192,96715,1,4,0:0:0:0:
256,192,96946,1,4,0:0:0:0:
256,192,97177,1,12,0:0:0:0:
256,192,97407,1,4,0:0:0:0:
256,192,97638,1,4,0:0:0:0:
256,192,97869,1,4,0:0:0:0:
256,192,98100,1,12,0:0:0:0:
256,192,98561,1,8,0:0:0:0:
256,192,98677,1,8,0:0:0:0:
256,192,98792,1,0,0:0:0:0:
256,192,99023,1,0,0:0:0:0:
256,192,99254,1,0,0:0:0:0:
256,192,99484,1,8,0:0:0:0:
256,192,99600,1,8,0:0:0:0:
256,192,99715,1,0,0:0:0:0:
256,192,99830,1,8,0:0:0:0:
256,192,99946,1,8,0:0:0:0:
256,192,100061,1,0,0:0:0:0:
256,192,100177,1,4,0:0:0:0:
256,192,100407,1,4,0:0:0:0:
256,192,100638,1,4,0:0:0:0:
256,192,100869,1,12,0:0:0:0:
256,192,101100,1,4,0:0:0:0:
256,192,101330,1,4,0:0:0:0:
256,192,101561,1,4,0:0:0:0:
256,192,101792,1,12,0:0:0:0:
256,192,102254,1,8,0:0:0:0:
256,192,102369,1,8,0:0:0:0:
256,192,102484,1,0,0:0:0:0:
256,192,102715,1,0,0:0:0:0:
256,192,102946,1,0,0:0:0:0:
256,192,103177,1,8,0:0:0:0:
256,192,103407,1,0,0:0:0:0:
256,192,103638,1,8,0:0:0:0:
256,192,103754,1,8,0:0:0:0:
256,192,103869,1,0,0:0:0:0:
256,192,104100,1,0,0:0:0:0:
256,192,104330,1,0,0:0:0:0:
256,192,104561,1,8,0:0:0:0:
256,192,104792,1,8,0:0:0:0:
256,192,105023,1,0,0:0:0:0:
256,192,105254,1,8,0:0:0:0:
256,192,105484,1,0,0:0:0:0:
256,192,105715,1,0,0:0:0:0:
256,192,105946,1,8,0:0:0:0:
256,192,106061,1,0,0:0:0:0:
256,192,106292,1,8,0:0:0:0:
256,192,106407,1,8,0:0:0:0:
256,192,106523,1,0,0:0:0:0:
256,192,106638,1,8,0:0:0:0:
256,192,106869,1,0,0:0:0:0:
256,192,106984,1,0,0:0:0:0:
256,192,107100,1,8,0:0:0:0:
256,192,107215,1,0,0:0:0:0:
256,192,107330,1,8,0:0:0:0:
256,192,107446,1,8,0:0:0:0:
256,192,107561,1,0,0:0:0:0:
256,160,107792,1,8,0:0:0:0:
256,160,108023,1,8,0:0:0:0:
256,160,108254,1,0,0:0:0:0:
256,160,108715,1,0,0:0:0:0:
256,160,108946,1,8,0:0:0:0:
256,160,109177,1,8,0:0:0:0:
256,160,109292,1,8,0:0:0:0:
256,160,109407,1,0,0:0:0:0:
256,160,109638,1,0,0:0:0:0:
256,160,109869,1,8,0:0:0:0:
256,160,110100,1,0,0:0:0:0:
256,160,110330,1,8,0:0:0:0:
256,160,110446,1,8,0:0:0:0:
256,160,110561,1,8,0:0:0:0:
256,160,110677,1,0,0:0:0:0:
256,160,110792,1,8,0:0:0:0:
256,160,110907,1,8,0:0:0:0:
256,160,111023,1,0,0:0:0:0:
256,160,111138,1,8,0:0:0:0:
256,160,111254,1,0,0:0:0:0:
256,160,111484,1,0,0:0:0:0:
256,160,111715,1,0,0:0:0:0:
256,160,111946,1,8,0:0:0:0:
256,192,112061,1,8,0:0:0:0:
256,192,112177,1,0,0:0:0:0:
256,192,112407,1,0,0:0:0:0:
256,192,112638,1,0,0:0:0:0:
256,192,112869,1,8,0:0:0:0:
256,192,112984,1,8,0:0:0:0:
256,192,113100,1,0,0:0:0:0:
256,192,113330,1,8,0:0:0:0:
256,192,113561,1,8,0:0:0:0:
256,192,113792,1,0,0:0:0:0:
256,192,114023,1,0,0:0:0:0:
256,192,114138,1,0,0:0:0:0:
256,192,114254,1,8,0:0:0:0:
256,192,114369,1,0,0:0:0:0:
256,192,114484,1,0,0:0:0:0:
256,192,114600,1,8,0:0:0:0:
256,192,114715,1,8,0:0:0:0:
256,192,114830,1,0,0:0:0:0:
256,192,114946,1,8,0:0:0:0:
256,192,115177,1,8,0:0:0:0:
256,192,115407,1,0,0:0:0:0:
256,192,115638,1,8,0:0:0:0:
256,192,115754,1,8,0:0:0:0:
256,192,115869,1,0,0:0:0:0:
256,192,116100,1,0,0:0:0:0:
256,192,116330,1,0,0:0:0:0:
256,192,116561,1,8,0:0:0:0:
256,192,116677,1,8,0:0:0:0:
256,192,116792,1,0,0:0:0:0:
256,192,117023,1,0,0:0:0:0:
256,192,117254,1,0,0:0:0:0:
256,192,117484,1,0,0:0:0:0:
256,192,117715,1,8,0:0:0:0:
256,192,117830,1,8,0:0:0:0:
256,192,117946,1,0,0:0:0:0:
256,192,118061,1,8,0:0:0:0:
256,192,118177,1,8,0:0:0:0:
256,192,118407,1,0,0:0:0:0:
256,192,118523,1,8,0:0:0:0:
256,192,118638,1,8,0:0:0:0:
256,192,118869,1,8,0:0:0:0:
256,192,118984,1,8,0:0:0:0:
256,192,119100,1,0,0:0:0:0:
256,192,119330,1,0,0:0:0:0:
256,192,119561,1,8,0:0:0:0:
256,192,119677,1,8,0:0:0:0:
256,192,119792,1,0,0:0:0:0:
256,192,119907,1,0,0:0:0:0:
256,192,120023,1,8,0:0:0:0:
256,192,120138,1,8,0:0:0:0:
256,192,120254,1,0,0:0:0:0:
256,192,120369,1,0,0:0:0:0:
256,192,120484,1,8,0:0:0:0:
256,192,120715,1,0,0:0:0:0:
256,192,120830,1,0,0:0:0:0:
256,192,120946,1,0,0:0:0:0:
256,192,121061,1,8,0:0:0:0:
256,192,121177,1,8,0:0:0:0:
256,192,121292,1,8,0:0:0:0:
256,192,121407,1,0,0:0:0:0:
256,192,121523,1,0,0:0:0:0:
256,192,121638,1,8,0:0:0:0:
256,192,121754,1,8,0:0:0:0:
256,192,121869,1,0,0:0:0:0:
256,192,121984,1,0,0:0:0:0:
256,192,122100,1,8,0:0:0:0:
256,192,122215,1,8,0:0:0:0:
256,192,122330,1,0,0:0:0:0:
256,192,126023,1,0,0:0:0:0:
256,192,126484,1,8,0:0:0:0:
256,192,126715,1,8,0:0:0:0:
256,192,126946,1,0,0:0:0:0:
256,192,127407,1,0,0:0:0:0:
256,192,127869,1,8,0:0:0:0:
256,192,128100,1,8,0:0:0:0:
256,192,128330,1,0,0:0:0:0:
256,192,128792,1,0,0:0:0:0:
256,192,129254,1,0,0:0:0:0:
256,192,129484,1,0,0:0:0:0:
256,192,129715,1,8,0:0:0:0:
256,192,130177,1,8,0:0:0:0:
256,192,130407,1,8,0:0:0:0:
256,192,130638,1,0,0:0:0:0:
256,192,131100,1,0,0:0:0:0:
256,192,131561,1,8,0:0:0:0:
256,192,131792,1,0,0:0:0:0:
256,192,132023,1,8,0:0:0:0:
288,192,132484,1,0,0:0:0:0:
288,192,132946,1,8,0:0:0:0:
288,192,133177,1,8,0:0:0:0:
288,192,133407,1,0,0:0:0:0:
288,192,133869,1,8,0:0:0:0:
288,192,134100,1,8,0:0:0:0:
288,192,134330,1,0,0:0:0:0:
288,192,134792,1,0,0:0:0:0:
288,192,135254,1,8,0:0:0:0:
288,192,135484,1,0,0:0:0:0:
288,192,135715,1,8,0:0:0:0:
256,192,136177,1,0,0:0:0:0:
256,192,136638,1,8,0:0:0:0:
256,192,136869,1,8,0:0:0:0:
256,192,137100,1,0,0:0:0:0:
256,192,137561,1,8,0:0:0:0:
256,192,137792,1,0,0:0:0:0:
288,192,138023,1,8,0:0:0:0:
288,192,138484,1,0,0:0:0:0:
288,192,138946,1,8,0:0:0:0:
288,192,139177,1,8,0:0:0:0:
288,192,139407,1,0,0:0:0:0:
256,192,139869,1,0,0:0:0:0:
256,192,140330,1,8,0:0:0:0:
256,192,140561,1,8,0:0:0:0:
256,192,140792,1,0,0:0:0:0:
256,192,141254,1,8,0:0:0:0:
256,192,141484,1,0,0:0:0:0:
256,192,141715,1,8,0:0:0:0:
256,192,142177,1,0,0:0:0:0:
256,192,142638,1,8,0:0:0:0:
256,192,142869,1,8,0:0:0:0:
256,192,143100,1,0,0:0:0:0:
256,192,143561,1,0,0:0:0:0:
256,192,144023,1,8,0:0:0:0:
256,192,144254,1,0,0:0:0:0:
256,192,144484,1,0,0:0:0:0:
256,192,144946,1,8,0:0:0:0:
256,192,145177,1,0,0:0:0:0:
256,192,145407,1,0,0:0:0:0:
224,192,145869,1,0,0:0:0:0:
224,192,146330,1,8,0:0:0:0:
256,192,146561,1,8,0:0:0:0:
256,192,146792,1,0,0:0:0:0:
256,192,147254,1,0,0:0:0:0:
256,192,147715,1,0,0:0:0:0:
256,192,147946,1,0,0:0:0:0:
256,192,148177,1,8,0:0:0:0:
256,192,148407,1,0,0:0:0:0:
256,192,148638,1,0,0:0:0:0:
256,192,148869,1,8,0:0:0:0:
224,192,149100,1,0,0:0:0:0:
224,192,149561,1,0,0:0:0:0:
256,192,150023,1,8,0:0:0:0:
256,192,150254,1,8,0:0:0:0:
256,192,150484,1,0,0:0:0:0:
224,192,150946,1,0,0:0:0:0:
256,192,151407,1,0,0:0:0:0:
256,192,151638,1,8,0:0:0:0:
256,192,151754,1,8,0:0:0:0:
256,192,151869,1,0,0:0:0:0:
256,192,152561,1,0,0:0:0:0:
256,192,152792,1,8,0:0:0:0:
256,192,153254,1,0,0:0:0:0:
256,192,153946,1,0,0:0:0:0:
256,192,154407,1,0,0:0:0:0:
256,192,154638,1,8,0:0:0:0:
256,192,155330,1,8,0:0:0:0:
256,192,155561,1,0,0:0:0:0:
256,192,156254,1,8,0:0:0:0:
256,192,156484,1,0,0:0:0:0:
256,192,156946,1,0,0:0:0:0:
256,192,157638,1,0,0:0:0:0:
256,192,157869,1,8,0:0:0:0:
256,192,158330,1,8,0:0:0:0:
256,192,158792,1,8,0:0:0:0:
256,192,159023,1,8,0:0:0:0:
256,192,159254,1,0,0:0:0:0:
224,192,159946,1,0,0:0:0:0:
256,192,160177,1,8,0:0:0:0:
256,192,160638,1,8,0:0:0:0:
256,192,161100,1,0,0:0:0:0:
256,192,161330,1,8,0:0:0:0:
256,192,161561,1,0,0:0:0:0:
288,224,161792,1,0,0:0:0:0:
288,192,161907,1,0,0:0:0:0:
288,192,162023,1,0,0:0:0:0:
256,192,162138,1,8,0:0:0:0:
256,192,162254,1,8,0:0:0:0:
256,192,162369,1,0,0:0:0:0:
256,192,162484,1,0,0:0:0:0:
256,192,162600,1,8,0:0:0:0:
256,192,162715,1,0,0:0:0:0:
256,192,162830,1,0,0:0:0:0:
256,192,162946,1,0,0:0:0:0:
256,192,163061,1,8,0:0:0:0:
256,192,163177,1,0,0:0:0:0:
256,192,163292,1,0,0:0:0:0:
256,192,163407,1,0,0:0:0:0:
256,192,163523,1,8,0:0:0:0:
256,192,163638,1,0,0:0:0:0:
256,192,163754,1,0,0:0:0:0:
256,192,163869,1,0,0:0:0:0:
256,192,163984,1,8,0:0:0:0:
256,192,164100,1,0,0:0:0:0:
256,192,164215,1,0,0:0:0:0:
256,192,164330,1,0,0:0:0:0:
256,192,164446,1,8,0:0:0:0:
256,192,164561,1,0,0:0:0:0:
256,192,164677,1,0,0:0:0:0:
256,192,164792,1,0,0:0:0:0:
256,192,164907,1,8,0:0:0:0:
256,192,165023,1,0,0:0:0:0:
256,192,165138,1,0,0:0:0:0:
256,192,165254,1,8,0:0:0:0:
256,192,165369,1,0,0:0:0:0:
256,192,165484,1,8,0:0:0:0:
256,192,165600,1,8,0:0:0:0:
256,192,165715,1,0,0:0:0:0:
256,192,166407,1,8,0:0:0:0:
256,192,166523,1,8,0:0:0:0:
256,192,166638,1,0,0:0:0:0:
256,224,166869,1,0,0:0:0:0:
256,224,167100,1,0,0:0:0:0:
256,224,167330,1,8,0:0:0:0:
256,224,167446,1,8,0:0:0:0:
256,224,167561,1,0,0:0:0:0:
256,192,167792,1,0,0:0:0:0:
256,192,168023,1,0,0:0:0:0:
256,192,168254,1,8,0:0:0:0:
256,192,168715,1,0,0:0:0:0:
256,192,168946,1,0,0:0:0:0:
256,192,169177,1,8,0:0:0:0:
256,192,169407,1,0,0:0:0:0:
256,192,169638,1,8,0:0:0:0:
256,192,169869,1,8,0:0:0:0:
256,192,170100,1,0,0:0:0:0:
256,192,170330,1,0,0:0:0:0:
256,192,170561,1,8,0:0:0:0:
256,192,170792,1,8,0:0:0:0:
256,192,171023,1,0,0:0:0:0:
256,192,171254,1,0,0:0:0:0:
256,192,171484,1,8,0:0:0:0:
256,192,171715,1,8,0:0:0:0:
256,192,171946,1,0,0:0:0:0:
256,192,172407,1,8,0:0:0:0:
256,192,172523,1,8,0:0:0:0:
256,192,172638,1,0,0:0:0:0:
256,192,172869,1,0,0:0:0:0:
256,192,173100,1,8,0:0:0:0:
256,192,173330,1,0,0:0:0:0:
256,192,173561,1,8,0:0:0:0:
256,192,173792,1,0,0:0:0:0:
256,192,173907,1,8,0:0:0:0:
256,192,174023,1,8,0:0:0:0:
256,192,174254,1,0,0:0:0:0:
256,192,174484,1,8,0:0:0:0:
256,192,174715,1,8,0:0:0:0:
256,192,174946,1,8,0:0:0:0:
256,192,175177,1,0,0:0:0:0:
256,192,175407,1,8,0:0:0:0:
256,192,175638,1,8,0:0:0:0:
256,192,176100,1,0,0:0:0:0:
256,192,176330,1,0,0:0:0:0:
256,192,176561,1,8,0:0:0:0:
256,192,176792,1,0,0:0:0:0:
256,192,177023,1,0,0:0:0:0:
256,192,177254,1,0,0:0:0:0:
256,192,177484,1,8,0:0:0:0:
256,192,177715,1,8,0:0:0:0:
256,192,177946,1,0,0:0:0:0:
256,192,178177,1,0,0:0:0:0:
256,192,178407,1,8,0:0:0:0:
256,192,178638,1,0,0:0:0:0:
256,192,178869,1,8,0:0:0:0:
256,192,179100,1,8,0:0:0:0:
256,192,179330,1,0,0:0:0:0:
256,192,179561,1,0,0:0:0:0:
256,192,179792,1,8,0:0:0:0:
256,192,179907,1,8,0:0:0:0:
256,192,180023,1,0,0:0:0:0:
256,192,180254,1,0,0:0:0:0:
256,192,180484,1,0,0:0:0:0:
256,192,180715,1,8,0:0:0:0:
256,192,180830,1,8,0:0:0:0:
256,192,180946,1,0,0:0:0:0:
256,192,181061,1,8,0:0:0:0:
256,192,181177,1,0,0:0:0:0:
256,192,181292,1,8,0:0:0:0:
256,192,181407,1,0,0:0:0:0:
256,192,181638,1,0,0:0:0:0:
256,192,181869,1,0,0:0:0:0:
256,192,182100,1,8,0:0:0:0:
256,192,182330,1,0,0:0:0:0:
256,192,182561,1,8,0:0:0:0:
256,192,182792,1,8,0:0:0:0:
256,192,183023,1,0,0:0:0:0:
256,192,183484,1,0,0:0:0:0:
256,192,183600,1,8,0:0:0:0:
256,192,183715,1,0,0:0:0:0:
256,192,183946,1,0,0:0:0:0:
256,192,184177,1,0,0:0:0:0:
256,192,184407,1,8,0:0:0:0:
256,192,184638,1,0,0:0:0:0:
256,192,184869,1,8,0:0:0:0:
256,192,184984,1,8,0:0:0:0:
256,192,185100,1,0,0:0:0:0:
256,192,185330,1,0,0:0:0:0:
256,192,185561,1,0,0:0:0:0:
256,192,185792,1,8,0:0:0:0:
256,192,186023,1,8,0:0:0:0:
256,192,186254,1,0,0:0:0:0:
256,192,186484,1,8,0:0:0:0:
256,192,186715,1,0,0:0:0:0:
256,192,187177,1,0,0:0:0:0:
256,192,187292,1,8,0:0:0:0:
256,192,187407,1,8,0:0:0:0:
256,192,187638,1,0,0:0:0:0:
256,192,187869,1,0,0:0:0:0:
256,192,188100,1,0,0:0:0:0:
256,192,188215,1,0,0:0:0:0:
256,192,188330,1,8,0:0:0:0:
256,192,188446,1,8,0:0:0:0:
256,192,188561,1,0,0:0:0:0:
256,192,188677,1,8,0:0:0:0:
256,192,188792,1,0,0:0:0:0:
256,192,189023,1,0,0:0:0:0:
256,192,189254,1,0,0:0:0:0:
256,192,189484,1,8,0:0:0:0:
256,192,189715,1,0,0:0:0:0:
256,192,189946,1,8,0:0:0:0:
256,192,190061,1,8,0:0:0:0:
256,192,190177,1,0,0:0:0:0:
256,192,190407,1,0,0:0:0:0:
256,192,190869,1,0,0:0:0:0:
256,192,190984,1,8,0:0:0:0:
256,192,191100,1,8,0:0:0:0:
256,192,191330,1,0,0:0:0:0:
256,192,191561,1,0,0:0:0:0:
256,192,191792,1,8,0:0:0:0:
256,192,192023,1,0,0:0:0:0:
256,192,192254,1,8,0:0:0:0:
256,192,192369,1,8,0:0:0:0:
256,192,192484,1,0,0:0:0:0:
256,192,192715,1,0,0:0:0:0:
256,192,192830,1,8,0:0:0:0:
256,192,193061,1,8,0:0:0:0:
256,192,193177,1,8,0:0:0:0:
256,192,193292,1,0,0:0:0:0:
256,192,193407,1,8,0:0:0:0:
256,192,193638,1,0,0:0:0:0:
256,192,193754,1,8,0:0:0:0:
256,192,193869,1,0,0:0:0:0:
256,192,194100,1,0,0:0:0:0:
256,192,194330,1,0,0:0:0:0:
256,192,194561,1,0,0:0:0:0:
256,192,194792,1,0,0:0:0:0:
256,192,195023,1,8,0:0:0:0:
256,192,195254,1,8,0:0:0:0:
256,192,195484,1,0,0:0:0:0:
256,192,195715,1,0,0:0:0:0:
256,192,195946,1,0,0:0:0:0:
278,180,196177,1,12,0:0:0:0:
256,192,198023,1,0,0:0:0:0:
256,192,198254,1,0,0:0:0:0:
256,192,198600,1,8,0:0:0:0:
256,192,198715,1,8,0:0:0:0:
256,192,198830,1,0,0:0:0:0:
256,192,199061,1,8,0:0:0:0:
256,192,199177,1,0,0:0:0:0:
256,192,199407,1,0,0:0:0:0:
256,192,199523,1,8,0:0:0:0:
256,192,199638,1,0,0:0:0:0:
256,192,199869,1,0,0:0:0:0:
256,192,200100,1,0,0:0:0:0:
256,192,200446,1,8,0:0:0:0:
256,192,200561,1,8,0:0:0:0:
256,192,200677,1,0,0:0:0:0:
256,192,200792,1,8,0:0:0:0:
256,192,201023,1,0,0:0:0:0:
256,192,201369,1,0,0:0:0:0:
256,192,201484,1,0,0:0:0:0:
256,192,201600,1,8,0:0:0:0:
256,192,201715,1,0,0:0:0:0:
256,192,201946,1,0,0:0:0:0:
256,192,202292,1,8,0:0:0:0:
256,192,202407,1,0,0:0:0:0:
256,192,202523,1,8,0:0:0:0:
256,192,202754,1,8,0:0:0:0:
256,192,202869,1,0,0:0:0:0:
256,192,203100,1,8,0:0:0:0:
256,192,203215,1,8,0:0:0:0:
256,192,203330,1,0,0:0:0:0:
256,192,203561,1,0,0:0:0:0:
256,192,203677,1,0,0:0:0:0:
256,192,203792,1,0,0:0:0:0:
256,192,203907,1,8,0:0:0:0:
256,192,204023,1,8,0:0:0:0:
256,192,204138,1,8,0:0:0:0:
256,192,204254,1,0,0:0:0:0:
256,192,204369,1,0,0:0:0:0:
256,192,204484,1,8,0:0:0:0:
256,192,204600,1,8,0:0:0:0:
256,192,204715,1,0,0:0:0:0:
256,192,204830,1,0,0:0:0:0:
256,192,204946,1,8,0:0:0:0:
256,192,205061,1,8,0:0:0:0:
256,192,205177,1,0,0:0:0:0:
256,192,205292,1,0,0:0:0:0:
256,192,205523,1,0,0:0:0:0:
256,192,205638,1,8,0:0:0:0:
256,192,205984,1,8,0:0:0:0:
256,192,206100,1,0,0:0:0:0:
256,192,206330,1,0,0:0:0:0:
256,192,206446,1,8,0:0:0:0:
256,192,206561,1,8,0:0:0:0:
256,192,206907,1,8,0:0:0:0:
256,192,207023,1,0,0:0:0:0:
256,192,207254,1,0,0:0:0:0:
256,192,207484,1,0,0:0:0:0:
256,192,207715,1,0,0:0:0:0:
256,192,207830,1,0,0:0:0:0:
256,192,207946,1,8,0:0:0:0:
256,192,208061,1,0,0:0:0:0:
256,192,208177,1,0,0:0:0:0:
256,192,208407,1,0,0:0:0:0:
256,192,208638,1,8,0:0:0:0:
256,192,208754,1,8,0:0:0:0:
256,192,208869,1,0,0:0:0:0:
256,192,208984,1,8,0:0:0:0:
256,192,209100,1,8,0:0:0:0:
256,192,209330,1,0,0:0:0:0:
256,192,209561,1,0,0:0:0:0:
256,192,209677,1,0,0:0:0:0:
256,192,209792,1,8,0:0:0:0:
256,192,209907,1,8,0:0:0:0:
256,192,210023,1,0,0:0:0:0:
256,192,210138,1,0,0:0:0:0:
256,192,210254,1,8,0:0:0:0:
256,192,210369,1,8,0:0:0:0:
256,192,210484,1,0,0:0:0:0:
256,192,210600,1,0,0:0:0:0:
256,192,210715,1,8,0:0:0:0:
256,192,210830,1,8,0:0:0:0:
256,192,210946,1,0,0:0:0:0:
256,192,211177,1,8,0:0:0:0:
256,192,211292,1,8,0:0:0:0:
256,192,211407,1,0,0:0:0:0:
256,192,211638,1,0,0:0:0:0:
224,192,211869,1,0,0:0:0:0:
224,192,212100,1,8,0:0:0:0:
224,192,212215,1,8,0:0:0:0:
224,192,212330,1,0,0:0:0:0:
224,192,212561,1,0,0:0:0:0:
224,192,212792,1,0,0:0:0:0:
224,192,213023,1,8,0:0:0:0:
224,192,213138,1,8,0:0:0:0:
224,192,213254,1,0,0:0:0:0:
224,192,213484,1,0,0:0:0:0:
224,192,213715,1,8,0:0:0:0:
224,192,213830,1,0,0:0:0:0:
224,192,214061,1,8,0:0:0:0:
224,192,214177,1,8,0:0:0:0:
224,192,214292,1,0,0:0:0:0:
224,192,214407,1,0,0:0:0:0:
224,192,214523,1,8,0:0:0:0:
224,192,214638,1,0,0:0:0:0:
224,192,214869,1,0,0:0:0:0:
224,192,215100,1,0,0:0:0:0:
224,192,215330,1,8,0:0:0:0:
224,192,215561,1,0,0:0:0:0:
224,192,215792,1,8,0:0:0:0:
224,192,215907,1,8,0:0:0:0:
224,192,216023,1,0,0:0:0:0:
224,192,216254,1,0,0:0:0:0:
224,192,216484,1,0,0:0:0:0:
224,192,216715,1,8,0:0:0:0:
224,192,216830,1,8,0:0:0:0:
224,192,216946,1,0,0:0:0:0:
224,192,217177,1,0,0:0:0:0:
224,192,217407,1,8,0:0:0:0:
224,192,217523,1,0,0:0:0:0:
224,192,217754,1,0,0:0:0:0:
224,192,217869,1,0,0:0:0:0:
224,192,217984,1,8,0:0:0:0:
224,192,218100,1,8,0:0:0:0:
224,192,218215,1,0,0:0:0:0:
224,192,218330,1,8,0:0:0:0:
224,192,218561,1,0,0:0:0:0:
224,192,218792,1,8,0:0:0:0:
224,192,219023,1,0,0:0:0:0:
224,192,219254,1,0,0:0:0:0:
224,192,219484,1,8,0:0:0:0:
224,192,219600,1,8,0:0:0:0:
224,192,219715,1,0,0:0:0:0:
224,192,219946,1,0,0:0:0:0:
224,192,220177,1,0,0:0:0:0:
224,192,220407,1,8,0:0:0:0:
224,192,220523,1,8,0:0:0:0:
224,192,220638,1,0,0:0:0:0:
224,192,220869,1,0,0:0:0:0:
224,192,221100,1,8,0:0:0:0:
224,192,221215,1,0,0:0:0:0:
224,192,221446,1,0,0:0:0:0:
224,192,221561,1,0,0:0:0:0:
224,192,221677,1,8,0:0:0:0:
224,192,221792,1,8,0:0:0:0:
224,192,221907,1,0,0:0:0:0:
224,192,222023,1,8,0:0:0:0:
224,192,222138,1,0,0:0:0:0:
256,192,222369,1,0,0:0:0:0:
256,192,222484,1,0,0:0:0:0:
256,192,222600,1,8,0:0:0:0:
256,192,222715,1,0,0:0:0:0:
256,224,222792,1,0,0:0:0:0:
256,192,222869,1,0,0:0:0:0:
256,192,222946,1,8,0:0:0:0:
256,224,223061,1,8,0:0:0:0:
256,192,223177,1,0,0:0:0:0:
256,192,223292,1,0,0:0:0:0:
256,192,223407,1,8,0:0:0:0:
256,192,223523,1,8,0:0:0:0:
256,192,223638,1,0,0:0:0:0:
256,192,223754,1,0,0:0:0:0:
256,192,223869,1,8,0:0:0:0:
256,192,223984,1,0,0:0:0:0:
256,192,224100,1,8,0:0:0:0:
256,192,224330,1,12,0:0:0:0:
256,192,224792,12,0,228254,0:0:0:0:
