osu file format v14

[General]
AudioFilename: Toni Leys - Freedom Planet - Dragon Valley (Toni Leys Remix feat. Esteban Bellucci) (1)_01.mp3
AudioLeadIn: 0
PreviewTime: 147267
Countdown: 0
SampleSet: Soft
StackLeniency: 0.7
Mode: 3
LetterboxInBreaks: 0
SpecialStyle: 0
WidescreenStoryboard: 0

[Editor]
Bookmarks: 7421,14806,22190,29575,44344,59575,74344,88652,96037,111267,126037,147729,155575,170344,185113
DistanceSpacing: 1
BeatDivisor: 4
GridSize: 8
TimelineZoom: 3.199999

[Metadata]
Title:Dragon Valley (Toni Leys Remix feat. Esteban Bellucci)
TitleUnicode:Dragon Valley (Toni Leys Remix feat. Esteban Bellucci)
Artist:Toni Leys
ArtistUnicode:Toni Leys
Creator:LordRaika
Version:Insane
Source:Freedom Planet
Tags:mbc11 mapping contest monthly beatmapping
BeatmapID:841216
BeatmapSetID:385056

[Difficulty]
HPDrainRate:8.5
CircleSize:7
OverallDifficulty:7.5
ApproachRate:5
SliderMultiplier:1.4
SliderTickRate:1

[Events]
//Background and Video events
0,0,"BG.jpg",0,0
//Break Periods
//Storyboard Layer 0 (Background)
//Storyboard Layer 1 (Fail)
//Storyboard Layer 2 (Pass)
//Storyboard Layer 3 (Foreground)
//Storyboard Sound Samples

[TimingPoints]
37,461.538461538462,4,2,0,7,1,0
960,-85.4700854700855,4,2,0,7,0,0
1017,-120.481927710843,4,2,0,7,0,0
1075,-100,4,2,0,7,0,0
1306,-85.4700854700855,4,2,0,7,0,0
1363,-120.481927710843,4,2,0,7,0,0
1421,-100,4,2,0,7,0,0
1652,-85.4700854700855,4,2,0,7,0,0
1710,-120.481927710843,4,2,0,7,0,0
1767,-100,4,2,0,7,0,0
4652,-83.3333333333333,4,2,0,7,0,0
4710,-100,4,2,0,7,0,0
4767,-125,4,2,0,7,0,0
4825,-166.666666666667,4,2,0,7,0,0
4854,-125,4,2,0,7,0,0
4883,-100,4,2,0,7,0,0
4998,-83.3333333333333,4,2,0,7,0,0
5056,-100,4,2,0,7,0,0
5113,-125,4,2,0,7,0,0
5171,-166.666666666667,4,2,0,7,0,0
5200,-125,4,2,0,7,0,0
5229,-100,4,2,0,7,0,0
5344,-83.3333333333333,4,2,0,7,0,0
5402,-100,4,2,0,7,0,0
5460,-125,4,2,0,7,0,0
5517,-142.857142857143,4,2,0,7,0,0
5690,-125,4,2,0,7,0,0
5863,-111.111111111111,4,2,0,7,0,0
6037,-100,4,2,0,7,0,0
7421,-125,4,2,0,7,0,0
7479,-111.111111111111,4,2,0,7,0,0
7537,-83.3333333333333,4,2,0,7,0,0
7594,-90.9090909090909,4,2,0,7,0,0
7652,-100,4,2,0,7,0,0
9267,-125,4,2,0,7,0,0
9325,-111.111111111111,4,2,0,7,0,0
9383,-83.3333333333333,4,2,0,7,0,0
9440,-90.9090909090909,4,2,0,7,0,0
9498,-100,4,2,0,7,0,0
10883,-125,4,2,0,7,0,0
10940,-111.111111111111,4,2,0,7,0,0
10998,-83.3333333333333,4,2,0,7,0,0
11056,-90.9090909090909,4,2,0,7,0,0
11113,-100,4,2,0,7,0,0
12729,-131.578947368421,4,2,0,7,0,0
12844,-86.2068965517241,4,2,0,7,0,0
12960,-92.5925925925926,4,2,0,7,0,0
13075,-100,4,2,0,7,0,0
13652,-119.047619047619,4,2,0,7,0,0
13710,-86.2068965517241,4,2,0,7,0,0
13767,-100,4,2,0,7,0,0
14113,-111.111111111111,4,2,0,7,0,0
14171,-90.9090909090909,4,2,0,7,0,0
14229,-100,4,2,0,7,0,0
14806,-111.111111111111,4,2,0,7,0,0
18498,-105.263157894737,4,2,0,7,0,0
21729,-81.9672131147541,4,2,0,7,0,0
21787,-128.205128205128,4,2,0,7,0,0
21844,-81.9672131147541,4,2,0,7,0,0
21902,-128.205128205128,4,2,0,7,0,0
21960,-81.9672131147541,4,2,0,7,0,0
22017,-128.205128205128,4,2,0,7,0,0
22075,-81.9672131147541,4,2,0,7,0,0
22133,-128.205128205128,4,2,0,7,0,0
22190,-100,4,2,0,7,0,0
29575,-113.636363636364,4,2,0,7,0,0
29633,-106.382978723404,4,2,0,7,0,0
29690,-100,4,2,0,7,0,0
29748,-84.7457627118644,4,2,0,7,0,0
29806,-100,4,2,0,7,0,0
36960,-113.636363636364,4,2,0,7,0,0
37017,-106.382978723404,4,2,0,7,0,0
37075,-100,4,2,0,7,0,0
37133,-84.7457627118644,4,2,0,7,0,0
37190,-100,4,2,0,7,0,0
44344,-113.636363636364,4,2,0,7,0,0
44402,-106.382978723404,4,2,0,7,0,0
44460,-100,4,2,0,7,0,0
44517,-84.7457627118644,4,2,0,7,0,0
44575,-100,4,2,0,7,0,0
51729,-113.636363636364,4,2,0,7,0,0
51787,-106.382978723404,4,2,0,7,0,0
51844,-100,4,2,0,7,0,0
51902,-84.7457627118644,4,2,0,7,0,0
51960,-100,4,2,0,7,0,0
59575,-113.636363636364,4,2,0,7,0,1
59633,-106.382978723404,4,2,0,7,0,1
59690,-100,4,2,0,7,0,1
59748,-84.7457627118644,4,2,0,7,0,1
59806,-100,4,2,0,7,0,1
66498,-113.636363636364,4,2,0,7,0,1
66556,-106.382978723404,4,2,0,7,0,1
66613,-100,4,2,0,7,0,1
66671,-84.7457627118644,4,2,0,7,0,1
66729,-100,4,2,0,7,0,1
74344,-113.636363636364,4,2,0,7,0,1
74402,-106.382978723404,4,2,0,7,0,1
74460,-100,4,2,0,7,0,1
74517,-84.7457627118644,4,2,0,7,0,1
74575,-100,4,2,0,7,0,1
81267,-113.636363636364,4,2,0,7,0,1
81325,-106.382978723404,4,2,0,7,0,1
81383,-100,4,2,0,7,0,1
81440,-84.7457627118644,4,2,0,7,0,1
81498,-100,4,2,0,7,0,1
83113,-113.636363636364,4,2,0,7,0,1
83171,-106.382978723404,4,2,0,7,0,1
83229,-100,4,2,0,7,0,1
83287,-84.7457627118644,4,2,0,7,0,1
83344,-100,4,2,0,7,0,1
84498,-113.636363636364,4,2,0,7,0,1
84556,-106.382978723404,4,2,0,7,0,1
84613,-100,4,2,0,7,0,1
84671,-84.7457627118644,4,2,0,7,0,1
84729,-100,4,2,0,7,0,1
86575,-113.636363636364,4,2,0,7,0,1
86633,-106.382978723404,4,2,0,7,0,1
86690,-100,4,2,0,7,0,1
86748,-84.7457627118644,4,2,0,7,0,1
86806,-100,4,2,0,7,0,1
88190,-81.9672131147541,4,2,0,7,0,1
88248,-128.205128205128,4,2,0,7,0,1
88306,-81.9672131147541,4,2,0,7,0,1
88363,-128.205128205128,4,2,0,7,0,1
88421,-81.9672131147541,4,2,0,7,0,1
88479,-128.205128205128,4,2,0,7,0,1
88537,-81.9672131147541,4,2,0,7,0,1
88594,-128.205128205128,4,2,0,7,0,1
88652,-100,4,2,0,7,0,0
95575,-81.9672131147541,4,2,0,7,0,0
95633,-128.205128205128,4,2,0,7,0,0
95690,-81.9672131147541,4,2,0,7,0,0
95748,-128.205128205128,4,2,0,7,0,0
95806,-81.9672131147541,4,2,0,7,0,0
95863,-128.205128205128,4,2,0,7,0,0
95921,-81.9672131147541,4,2,0,7,0,0
95979,-128.205128205128,4,2,0,7,0,0
96037,-81.9672131147541,4,2,0,7,0,0
96094,-128.205128205128,4,2,0,7,0,0
96152,-83.3333333333333,4,2,0,7,0,0
96210,-125,4,2,0,7,0,0
96267,-84.7457627118644,4,2,0,7,0,0
96325,-121.951219512195,4,2,0,7,0,0
96383,-86.2068965517241,4,2,0,7,0,0
96440,-119.047619047619,4,2,0,12,0,0
103421,-116.279069767442,4,2,0,12,0,0
104344,-113.636363636364,4,2,0,12,0,0
105267,-111.111111111111,4,2,0,12,0,0
106190,-108.695652173913,4,2,0,12,0,0
107113,-106.382978723404,4,2,0,12,0,0
108037,-104.166666666667,4,2,0,12,0,0
108960,-102.040816326531,4,2,0,12,0,0
110806,-86.2068965517241,4,2,0,7,0,0
110883,-119.047619047619,4,2,0,7,0,0
110960,-86.2068965517241,4,2,0,7,0,0
111037,-119.047619047619,4,2,0,7,0,0
111113,-86.2068965517241,4,2,0,7,0,0
111190,-119.047619047619,4,2,0,7,0,0
111267,-113.636363636364,4,2,0,7,0,0
111325,-106.382978723404,4,2,0,7,0,0
111383,-100,4,2,0,7,0,0
111440,-84.7457627118644,4,2,0,7,0,0
111498,-100,4,2,0,7,0,0
118190,-113.636363636364,4,2,0,7,0,0
118248,-106.382978723404,4,2,0,7,0,0
118306,-100,4,2,0,7,0,0
118363,-84.7457627118644,4,2,0,7,0,0
118421,-100,4,2,0,7,0,0
126037,-113.636363636364,4,2,0,7,0,1
126094,-106.382978723404,4,2,0,7,0,1
126152,-100,4,2,0,7,0,0
126210,-84.7457627118644,4,2,0,7,0,0
126267,-100,4,2,0,7,0,0
132960,-113.636363636364,4,2,0,7,0,0
133017,-106.382978723404,4,2,0,7,0,0
133075,-100,4,2,0,7,0,0
133133,-84.7457627118644,4,2,0,7,0,0
133190,-100,4,2,0,7,0,0
136190,-113.636363636364,4,2,0,7,0,0
136248,-100,4,2,0,7,0,0
136306,-89.2857142857143,4,2,0,7,0,0
136363,-100,4,2,0,7,0,0
136421,-113.636363636364,4,2,0,7,0,0
136479,-100,4,2,0,7,0,0
136537,-89.2857142857143,4,2,0,7,0,0
136594,-100,4,2,0,7,0,0
136652,-113.636363636364,4,2,0,7,0,0
136710,-106.382978723404,4,2,0,7,0,0
136767,-100,4,2,0,7,0,0
136825,-84.7457627118644,4,2,0,7,0,0
136883,-100,4,2,0,7,0,0
140806,-113.636363636364,4,2,0,7,0,0
140863,-106.382978723404,4,2,0,7,0,0
140921,-100,4,2,0,7,0,0
140979,-84.7457627118644,4,2,0,7,0,0
141037,-100,4,2,0,7,0,0
147729,-113.636363636364,4,2,0,7,0,0
147787,-106.382978723404,4,2,0,7,0,0
147844,-100,4,2,0,7,0,0
147902,-84.7457627118644,4,2,0,7,0,0
147960,-100,4,2,0,7,0,0
149575,-113.636363636364,4,2,0,7,0,0
149633,-106.382978723404,4,2,0,7,0,0
149690,-100,4,2,0,7,0,0
149748,-84.7457627118644,4,2,0,7,0,0
149806,-100,4,2,0,7,0,0
150960,-113.636363636364,4,2,0,7,0,0
151017,-106.382978723404,4,2,0,7,0,0
151075,-100,4,2,0,7,0,0
151133,-84.7457627118644,4,2,0,7,0,0
151190,-100,4,2,0,7,0,0
153037,-113.636363636364,4,2,0,7,0,0
153094,-106.382978723404,4,2,0,7,0,0
153152,-100,4,2,0,7,0,0
153210,-84.7457627118644,4,2,0,7,0,0
153267,-100,4,2,0,7,0,0
154652,-81.9672131147541,4,2,0,7,0,0
154710,-128.205128205128,4,2,0,7,0,0
154767,-81.9672131147541,4,2,0,7,0,0
154825,-128.205128205128,4,2,0,7,0,0
154883,-81.9672131147541,4,2,0,7,0,0
154940,-128.205128205128,4,2,0,7,0,0
154998,-81.9672131147541,4,2,0,7,0,0
155056,-128.205128205128,4,2,0,7,0,0
155113,-100,4,2,0,7,0,0
155575,-113.636363636364,4,2,0,7,0,1
155633,-106.382978723404,4,2,0,7,0,1
155690,-100,4,2,0,7,0,1
155748,-84.7457627118644,4,2,0,7,0,1
155806,-100,4,2,0,7,0,1
162498,-113.636363636364,4,2,0,7,0,1
162556,-106.382978723404,4,2,0,7,0,1
162613,-100,4,2,0,7,0,1
162671,-84.7457627118644,4,2,0,7,0,1
162729,-100,4,2,0,7,0,1
165729,-113.636363636364,4,2,0,7,0,1
165787,-100,4,2,0,7,0,1
165844,-89.2857142857143,4,2,0,7,0,1
165902,-100,4,2,0,7,0,1
165960,-113.636363636364,4,2,0,7,0,1
166017,-100,4,2,0,7,0,1
166075,-89.2857142857143,4,2,0,7,0,1
166133,-100,4,2,0,7,0,1
166190,-111.111111111111,4,2,0,7,0,1
166248,-90.9090909090909,4,2,0,7,0,1
166306,-100,4,2,0,7,0,1
170344,-113.636363636364,4,2,0,7,0,1
170402,-106.382978723404,4,2,0,7,0,1
170460,-100,4,2,0,7,0,1
170517,-84.7457627118644,4,2,0,7,0,1
170575,-100,4,2,0,7,0,1
177267,-113.636363636364,4,2,0,7,0,1
177325,-106.382978723404,4,2,0,7,0,1
177383,-100,4,2,0,7,0,1
177440,-84.7457627118644,4,2,0,7,0,1
177498,-100,4,2,0,7,0,1
179113,-113.636363636364,4,2,0,7,0,1
179171,-106.382978723404,4,2,0,7,0,1
179229,-100,4,2,0,7,0,1
179287,-84.7457627118644,4,2,0,7,0,1
179344,-100,4,2,0,7,0,1
180498,-113.636363636364,4,2,0,7,0,1
180556,-106.382978723404,4,2,0,7,0,1
180613,-100,4,2,0,7,0,1
180671,-84.7457627118644,4,2,0,7,0,1
180729,-100,4,2,0,7,0,1
182575,-113.636363636364,4,2,0,7,0,1
182633,-106.382978723404,4,2,0,7,0,1
182690,-100,4,2,0,7,0,1
182748,-84.7457627118644,4,2,0,7,0,1
182806,-100,4,2,0,7,0,1
184190,-81.9672131147541,4,2,0,7,0,1
184248,-128.205128205128,4,2,0,7,0,1
184306,-81.9672131147541,4,2,0,7,0,1
184363,-128.205128205128,4,2,0,7,0,1
184421,-81.9672131147541,4,2,0,7,0,1
184479,-128.205128205128,4,2,0,7,0,1
184537,-81.9672131147541,4,2,0,7,0,1
184594,-128.205128205128,4,2,0,7,0,1
184652,-100,4,2,0,7,0,1
185113,-100,4,2,0,7,0,0

[HitObjects]
402,192,37,128,4,729:3:0:0:60:
475,192,37,128,4,729:0:0:0:55:
109,192,37,1,2,0:0:0:0:
36,192,152,1,2,0:0:0:0:
182,192,267,1,2,0:0:0:0:
109,192,383,1,2,0:0:0:0:
256,192,498,1,2,0:0:0:0:
182,192,613,1,2,0:0:0:0:
329,192,729,1,2,0:0:0:0:
256,192,844,1,2,0:0:0:0:
402,192,960,1,2,0:0:0:0:
36,192,960,128,4,1190:3:0:0:60:
109,192,960,128,4,1190:0:0:0:55:
329,192,1075,1,2,0:0:0:0:
475,192,1190,1,2,0:0:0:0:
402,192,1306,1,2,0:0:0:0:
109,192,1306,128,4,1537:0:0:0:55:
182,192,1306,128,0,1537:1:0:0:35:
475,192,1421,1,2,0:0:0:0:
329,192,1537,1,2,0:0:0:0:
402,192,1652,1,2,0:0:0:0:
109,192,1652,128,4,2806:0:0:0:55:
36,192,1652,128,4,2806:3:0:0:60:
256,192,1767,1,2,0:0:0:0:
329,192,1883,1,2,0:0:0:0:
182,192,1998,1,2,0:0:0:0:
256,192,2113,1,2,0:0:0:0:
329,192,2229,1,2,0:0:0:0:
402,192,2344,1,2,0:0:0:0:
256,192,2460,1,2,0:0:0:0:
329,192,2575,1,0,0:0:0:0:
402,192,2690,1,0,1:0:0:22:
475,192,2690,1,0,1:0:0:22:
182,192,2806,1,0,1:0:0:22:
256,192,2806,1,0,1:0:0:22:
329,192,3037,1,4,3:0:0:75:
36,192,3152,1,8,3:0:0:38:
109,192,3152,1,8,3:0:0:38:
329,192,3383,1,4,3:0:0:56:
109,192,3498,1,8,3:0:0:25:
182,192,3498,1,8,3:0:0:25:
329,192,3613,1,4,3:0:0:40:
402,192,3729,128,4,4421:3:0:0:30:
475,192,3729,128,4,4421:0:0:0:28:
182,192,3729,1,4,3:0:0:30:
256,192,3729,1,4,0:0:0:28:
329,192,4652,1,0,0:0:0:0:
182,192,4652,128,4,4883:0:0:0:55:
109,192,4652,128,4,4883:3:0:0:60:
475,192,4652,1,0,0:0:0:0:
402,192,4998,1,0,1:0:0:35:
109,192,4998,128,4,5229:0:0:0:28:
36,192,4998,128,4,5229:0:0:0:28:
256,192,4998,1,0,0:0:0:0:
475,192,5344,1,4,0:0:0:28:
109,192,5344,128,4,6267:3:0:0:60:
182,192,5344,128,4,6267:0:0:0:28:
329,192,5344,1,0,0:0:0:0:
256,192,6267,1,0,1:0:0:20:
329,192,6344,1,0,3:0:0:30:
402,192,6421,1,0,1:0:0:40:
36,192,6498,1,0,1:0:0:25:
475,192,6498,1,0,1:0:0:25:
256,192,6613,1,4,3:0:0:75:
109,192,6729,1,0,3:0:0:30:
329,192,6844,1,0,1:0:0:30:
402,192,6960,1,0,1:0:0:20:
182,192,6960,1,0,1:0:0:20:
256,192,7075,1,4,3:0:0:40:
329,192,7190,1,0,2:0:0:91:
329,192,7306,1,0,2:0:0:32:
109,192,7306,1,0,2:0:0:32:
36,192,7421,128,4,8113:0:0:0:28:
475,192,7421,128,4,8113:0:0:0:28:
182,192,7421,1,4,3:0:0:30:
256,192,7421,1,4,3:0:0:30:
329,192,7767,128,0,8113:0:0:0:0:
182,192,7767,128,0,8113:0:0:0:0:
256,192,8113,1,0,3:0:0:33:
109,192,8190,1,4,3:0:0:54:
329,192,8267,1,0,3:0:0:33:
36,192,8344,1,0,1:0:0:25:
475,192,8344,1,0,1:0:0:25:
109,192,8575,1,4,3:0:0:42:
402,192,8690,1,4,3:0:0:42:
256,192,8806,1,0,2:0:0:91:
109,192,8921,1,4,3:0:0:42:
256,192,9037,1,0,2:0:0:63:
329,192,9113,1,0,0:0:0:0:
402,192,9190,1,0,0:0:0:0:
36,192,9267,1,4,3:0:0:60:
475,192,9267,128,4,10767:0:0:0:55:
109,192,9267,1,0,0:0:0:0:
329,192,9613,128,4,10767:3:0:0:40:
182,192,9729,1,8,3:0:0:35:
36,192,9806,1,0,1:0:0:25:
109,192,9883,1,4,3:0:0:40:
182,192,9960,128,0,10537:3:0:0:24:
256,192,10190,1,0,1:0:0:40:
36,192,10421,128,0,10767:3:0:0:30:
182,192,10652,128,4,10767:3:0:0:60:
475,192,10883,128,4,12498:0:0:0:55:
329,192,10883,128,4,12383:3:0:0:60:
182,192,10883,1,0,0:0:0:0:
36,192,10883,1,0,0:0:0:0:
256,192,11258,1,0,1:0:0:38:
36,192,11344,1,8,3:0:0:33:
182,192,11460,1,4,3:0:0:56:
256,192,11575,1,0,1:0:0:47:
109,192,11690,1,0,3:0:0:33:
36,192,11806,128,2,12037:0:0:0:0:
109,192,11921,128,2,12152:0:0:0:0:
182,192,12037,128,2,12267:0:0:0:0:
36,192,12152,128,2,12613:0:0:0:0:
109,192,12267,128,2,12613:0:0:0:0:
182,192,12383,128,2,12613:0:0:0:0:
329,192,12498,128,2,12729:0:0:0:0:
475,192,12613,128,2,12729:0:0:0:0:
256,192,12729,1,0,0:0:0:0:
36,192,12729,1,4,3:0:0:60:
109,192,12729,1,0,0:0:0:0:
182,192,12729,1,4,0:0:0:55:
182,192,13190,1,0,1:0:0:30:
109,192,13219,1,0,1:0:0:21:
256,192,13219,1,0,1:0:0:21:
329,192,13421,1,4,3:0:0:28:
182,192,13421,1,4,3:0:0:28:
475,192,13652,128,4,14229:3:0:0:60:
256,192,13652,1,4,0:0:0:28:
402,192,13652,128,4,14229:0:0:0:28:
109,192,14113,128,4,14575:1:0:0:40:
36,192,14113,128,4,14575:0:0:0:28:
182,192,14113,1,4,0:0:0:28:
402,192,14344,128,2,14806:0:0:0:0:
475,192,14344,128,2,14806:0:0:0:0:
109,192,14690,128,2,14806:0:0:0:0:
36,192,14690,128,2,14806:0:0:0:0:
256,192,14806,1,8,3:0:0:44:
329,192,15152,1,8,3:0:0:33:
475,192,15267,1,8,3:0:0:44:
329,192,15383,1,8,3:0:0:33:
402,192,15613,1,8,3:0:0:44:
329,192,15844,1,8,3:0:0:19:
329,192,16075,1,8,3:0:0:19:
475,192,16190,1,8,3:0:0:32:
402,192,16306,1,8,3:0:0:19:
329,192,16421,1,8,3:0:0:32:
402,192,16537,1,8,3:0:0:19:
475,192,16652,1,8,3:0:0:32:
329,192,16883,1,8,3:0:0:19:
475,192,16998,1,8,3:0:0:32:
329,192,17113,1,8,3:0:0:19:
402,192,17229,1,8,3:0:0:32:
329,192,17344,1,8,3:0:0:19:
475,192,17460,1,8,3:0:0:32:
402,192,17575,1,8,3:0:0:19:
475,192,17690,1,8,3:0:0:19:
329,192,17806,1,8,3:0:0:19:
475,192,17921,1,8,3:0:0:19:
329,192,18037,1,8,3:0:0:32:
402,192,18152,1,8,3:0:0:32:
475,192,18267,1,8,3:0:0:19:
329,192,18383,1,8,3:0:0:19:
36,192,18498,1,4,3:0:0:82:
402,192,18498,1,8,3:0:0:32:
475,192,18729,1,8,3:0:0:19:
329,192,18844,1,8,3:0:0:19:
402,192,18960,1,8,3:0:0:32:
182,192,18960,1,8,2:0:0:31:
329,192,19075,1,8,3:0:0:19:
475,192,19306,1,8,3:0:0:32:
36,192,19421,1,4,3:0:0:82:
329,192,19537,1,8,3:0:0:19:
109,192,19652,1,2,3:0:0:34:
402,192,19767,1,8,3:0:0:19:
182,192,19883,1,8,1:0:0:33:
475,192,19883,1,8,3:0:0:32:
329,192,19998,1,8,3:0:0:19:
402,192,20113,1,8,3:0:0:32:
329,192,20229,1,8,3:0:0:19:
475,192,20344,1,8,3:0:0:32:
36,192,20344,1,4,3:0:0:82:
402,192,20460,1,8,3:0:0:32:
36,192,20575,1,4,3:0:0:51:
475,192,20575,1,8,3:0:0:19:
329,192,20690,1,8,3:0:0:32:
402,192,20806,1,8,3:0:0:19:
182,192,20806,1,8,2:0:0:31:
329,192,20921,1,8,3:0:0:32:
475,192,21037,5,8,3:0:0:19:
402,192,21113,5,8,3:0:0:19:
329,192,21190,5,8,3:0:0:19:
475,192,21267,1,8,3:0:0:19:
36,192,21267,1,4,3:0:0:82:
402,192,21383,1,8,3:0:0:32:
109,192,21498,1,2,3:0:0:34:
329,192,21498,1,8,3:0:0:19:
402,192,21613,1,8,3:0:0:19:
36,192,21729,1,8,1:0:0:23:
475,192,21729,1,8,3:0:0:32:
182,192,21844,1,8,1:0:0:23:
329,192,21844,1,8,3:0:0:32:
36,192,21960,1,8,1:0:0:23:
475,192,21960,1,8,3:0:0:19:
182,192,22075,1,8,1:0:0:23:
329,192,22075,1,8,3:0:0:19:
475,192,22190,5,0,0:0:0:0:
256,192,22190,1,8,3:0:0:44:
36,192,22190,1,4,3:0:0:82:
109,192,22421,1,2,3:0:0:34:
329,192,22537,1,8,3:0:0:25:
36,192,22652,1,0,1:0:0:11:
182,192,22652,1,0,1:0:0:11:
475,192,22652,1,8,3:0:0:37:
329,192,22767,1,8,3:0:0:25:
402,192,22998,1,8,3:0:0:37:
36,192,23113,1,4,3:0:0:82:
329,192,23229,1,8,3:0:0:25:
402,192,23460,1,8,3:0:0:25:
475,192,23575,1,8,3:0:0:37:
109,192,23575,1,0,1:0:0:11:
182,192,23575,1,0,1:0:0:11:
329,192,23690,1,8,3:0:0:25:
402,192,23806,1,8,3:0:0:37:
329,192,23921,1,8,3:0:0:25:
36,192,24037,1,4,3:0:0:82:
475,192,24037,1,8,3:0:0:37:
109,192,24267,1,2,3:0:0:34:
329,192,24267,1,8,3:0:0:25:
402,192,24383,1,8,3:0:0:37:
329,192,24498,1,8,3:0:0:25:
182,192,24498,1,0,1:0:0:11:
36,192,24498,1,0,1:0:0:11:
475,192,24613,1,8,3:0:0:37:
329,192,24729,1,8,3:0:0:25:
402,192,24844,1,8,3:0:0:37:
475,192,24960,1,8,3:0:0:25:
36,192,24960,1,4,3:0:0:82:
329,192,25075,1,8,3:0:0:25:
402,192,25190,1,8,3:0:0:25:
329,192,25306,1,8,3:0:0:25:
475,192,25421,1,8,3:0:0:37:
109,192,25421,1,0,1:0:0:11:
182,192,25421,1,0,1:0:0:11:
402,192,25537,1,8,3:0:0:37:
329,192,25652,1,8,3:0:0:25:
475,192,25767,1,8,3:0:0:25:
402,192,25883,1,8,3:0:0:37:
36,192,25883,1,4,3:0:0:82:
109,192,26113,1,2,3:0:0:34:
329,192,26229,1,8,3:0:0:25:
475,192,26344,1,8,3:0:0:37:
182,192,26344,1,0,1:0:0:11:
36,192,26344,1,0,1:0:0:11:
329,192,26460,1,8,3:0:0:25:
402,192,26690,1,8,3:0:0:37:
36,192,26806,1,4,3:0:0:82:
329,192,26921,1,8,3:0:0:25:
402,192,27152,1,8,3:0:0:25:
475,192,27267,1,8,3:0:0:37:
109,192,27267,1,0,1:0:0:11:
182,192,27267,1,0,1:0:0:11:
329,192,27383,1,8,3:0:0:25:
402,192,27498,1,8,3:0:0:37:
329,192,27613,1,8,3:0:0:25:
475,192,27729,1,8,3:0:0:37:
36,192,27729,1,4,3:0:0:82:
402,192,27844,1,8,3:0:0:37:
329,192,27960,1,8,3:0:0:25:
109,192,27960,1,2,3:0:0:34:
402,192,28075,1,8,3:0:0:37:
475,192,28190,1,8,3:0:0:25:
182,192,28190,1,0,1:0:0:11:
36,192,28190,1,0,1:0:0:11:
329,192,28306,1,8,3:0:0:37:
475,192,28421,5,8,3:0:0:25:
402,192,28498,1,8,3:0:0:37:
329,192,28575,1,8,3:0:0:37:
475,192,28652,1,8,3:0:0:25:
402,192,28767,1,8,3:0:0:37:
36,192,28883,128,0,28998:2:0:0:91:
475,192,28883,1,8,3:0:0:25:
329,192,28998,1,8,3:0:0:25:
475,192,29113,1,8,3:0:0:37:
182,192,29113,1,0,1:0:0:21:
256,192,29113,1,2,3:0:0:21:
402,192,29229,1,8,3:0:0:37:
329,192,29344,1,8,3:0:0:25:
475,192,29460,1,8,3:0:0:25:
182,192,29575,5,4,0:0:0:28:
402,192,29575,5,4,0:0:0:28:
109,192,29575,1,0,0:0:0:0:
36,192,29575,1,4,3:0:0:82:
256,192,29806,1,0,0:0:0:0:
182,192,30037,1,0,1:0:0:13:
36,192,30037,1,2,0:0:0:0:
475,192,30037,1,0,1:0:0:13:
402,192,30267,1,4,3:0:0:26:
109,192,30383,1,0,1:0:0:13:
329,192,30498,1,4,3:0:0:82:
182,192,30498,1,2,0:0:0:0:
256,192,30844,1,2,0:0:0:0:
36,192,30960,1,0,1:0:0:13:
475,192,30960,1,0,1:0:0:13:
182,192,30960,1,0,0:0:0:0:
256,192,31190,1,2,0:0:0:0:
329,192,31306,1,2,0:0:0:0:
402,192,31421,1,2,0:0:0:0:
109,192,31421,1,4,3:0:0:82:
256,192,31652,1,2,3:0:0:34:
475,192,31883,1,0,1:0:0:13:
36,192,31883,1,0,1:0:0:13:
329,192,31883,1,0,0:0:0:0:
182,192,32113,1,2,0:0:0:0:
256,192,32229,1,2,0:0:0:0:
402,192,32344,1,4,3:0:0:82:
182,192,32344,1,2,0:0:0:0:
36,192,32460,1,0,1:0:0:13:
256,192,32575,1,4,3:0:0:48:
109,192,32690,1,0,1:0:0:13:
475,192,32806,1,0,1:0:0:13:
329,192,32806,1,0,1:0:0:13:
182,192,32806,1,0,0:0:0:0:
36,192,33037,128,0,33152:2:0:0:91:
256,192,33152,1,4,3:0:0:48:
182,192,33210,1,2,0:0:0:0:
109,192,33267,1,2,0:0:0:0:
475,192,33267,1,4,3:0:0:82:
329,192,33498,1,2,3:0:0:34:
182,192,33613,1,0,0:0:0:0:
36,192,33729,1,0,1:0:0:13:
402,192,33729,1,0,1:0:0:13:
256,192,33729,1,0,0:0:0:0:
475,192,33960,1,2,0:0:0:0:
329,192,34075,1,0,1:0:0:13:
109,192,34075,1,0,1:0:0:13:
182,192,34190,1,4,3:0:0:82:
475,192,34306,1,0,1:0:0:13:
329,192,34421,1,0,1:0:0:13:
36,192,34421,1,0,0:0:0:0:
182,192,34537,1,0,1:0:0:13:
402,192,34652,1,0,1:0:0:13:
256,192,34652,1,0,1:0:0:13:
109,192,34652,1,0,0:0:0:0:
329,192,34883,1,2,0:0:0:0:
402,192,35113,1,2,0:0:0:0:
182,192,35113,1,4,3:0:0:82:
36,192,35344,1,2,3:0:0:34:
256,192,35460,1,2,0:0:0:0:
109,192,35575,1,0,1:0:0:13:
329,192,35575,1,0,1:0:0:13:
475,192,35575,1,0,0:0:0:0:
256,192,35806,1,2,0:0:0:0:
329,192,35863,1,2,0:0:0:0:
402,192,35921,1,0,1:0:0:13:
109,192,36037,1,4,3:0:0:82:
256,192,36037,1,2,0:0:0:0:
475,192,36152,1,0,1:0:0:13:
329,192,36267,1,8,3:0:0:66:
182,192,36267,1,0,0:0:0:0:
109,192,36383,1,0,1:0:0:13:
36,192,36498,1,0,1:0:0:13:
402,192,36498,1,0,1:0:0:13:
256,192,36498,1,0,0:0:0:0:
182,192,36613,1,4,3:0:0:55:
329,192,36729,1,8,3:0:0:66:
109,192,36729,1,0,0:0:0:0:
256,192,36844,1,4,3:0:0:55:
36,192,36960,5,4,0:0:0:55:
475,192,36960,1,4,3:0:0:82:
182,192,36960,1,0,0:0:0:0:
402,192,36960,1,0,0:0:0:0:
256,192,37190,1,2,3:0:0:34:
329,192,37421,1,0,1:0:0:13:
109,192,37421,1,0,1:0:0:13:
475,192,37421,1,0,0:0:0:0:
256,192,37652,1,2,0:0:0:0:
36,192,37767,1,0,1:0:0:13:
402,192,37883,1,2,0:0:0:0:
182,192,37883,1,4,3:0:0:82:
256,192,38229,1,0,0:0:0:0:
36,192,38344,1,0,1:0:0:13:
475,192,38344,1,0,1:0:0:13:
109,192,38344,1,0,0:0:0:0:
329,192,38575,1,2,0:0:0:0:
402,192,38806,1,2,0:0:0:0:
182,192,38806,1,4,3:0:0:82:
109,192,39037,1,2,3:0:0:34:
256,192,39152,1,2,0:0:0:0:
475,192,39267,1,0,1:0:0:13:
36,192,39267,1,0,1:0:0:13:
329,192,39267,1,0,0:0:0:0:
109,192,39498,1,2,0:0:0:0:
256,192,39613,1,2,0:0:0:0:
402,192,39613,1,0,0:0:0:0:
182,192,39729,1,2,0:0:0:0:
36,192,39729,1,4,3:0:0:82:
329,192,39844,1,0,1:0:0:13:
475,192,39844,1,0,0:0:0:0:
109,192,39960,1,4,3:0:0:48:
256,192,39960,1,0,0:0:0:0:
402,192,40075,1,0,1:0:0:13:
36,192,40190,1,0,1:0:0:13:
329,192,40190,1,0,1:0:0:13:
182,192,40190,1,0,0:0:0:0:
256,192,40421,1,2,0:0:0:0:
329,192,40537,1,2,0:0:0:0:
402,192,40652,1,2,0:0:0:0:
109,192,40652,1,4,3:0:0:82:
256,192,40883,1,2,3:0:0:34:
475,192,40998,1,2,0:0:0:0:
182,192,41113,1,0,1:0:0:13:
329,192,41113,1,0,1:0:0:13:
36,192,41113,1,0,0:0:0:0:
256,192,41344,1,2,0:0:0:0:
329,192,41421,1,2,0:0:0:0:
256,192,41498,1,2,0:0:0:0:
182,192,41575,1,2,0:0:0:0:
475,192,41575,1,4,3:0:0:82:
256,192,41921,1,2,0:0:0:0:
182,192,42037,1,0,1:0:0:13:
475,192,42037,1,0,1:0:0:13:
109,192,42037,1,0,0:0:0:0:
329,192,42267,1,2,0:0:0:0:
36,192,42267,128,0,42383:2:0:0:91:
402,192,42498,1,2,0:0:0:0:
109,192,42498,1,4,3:0:0:82:
256,192,42729,1,0,0:0:0:0:
329,192,42960,1,0,1:0:0:13:
36,192,42960,1,0,1:0:0:13:
475,192,42960,1,0,0:0:0:0:
402,192,43190,5,2,3:0:0:34:
182,192,43306,1,0,1:0:0:13:
256,192,43306,1,0,1:0:0:13:
36,192,43421,1,4,3:0:0:82:
329,192,43537,1,0,1:0:0:13:
402,192,43537,1,0,1:0:0:13:
182,192,43652,1,8,3:0:0:66:
109,192,43652,1,0,0:0:0:0:
475,192,43767,1,4,3:0:0:55:
329,192,43883,1,0,1:0:0:13:
256,192,43883,1,0,1:0:0:13:
182,192,43883,1,0,0:0:0:0:
36,192,43998,1,4,3:0:0:55:
329,192,44113,1,8,3:0:0:66:
402,192,44113,1,0,0:0:0:0:
182,192,44229,1,4,3:0:0:55:
36,192,44344,5,4,0:0:0:55:
475,192,44344,1,0,0:0:0:0:
402,192,44344,1,4,3:0:0:82:
109,192,44344,1,0,0:0:0:0:
329,192,44575,1,2,3:0:0:34:
402,192,44806,1,0,1:0:0:13:
182,192,44806,1,0,1:0:0:13:
36,192,44806,1,0,0:0:0:0:
329,192,45152,1,0,1:0:0:13:
109,192,45152,1,0,0:0:0:0:
475,192,45267,1,4,3:0:0:82:
182,192,45267,1,2,0:0:0:0:
256,192,45613,1,2,0:0:0:0:
402,192,45729,1,0,1:0:0:13:
109,192,45729,1,0,1:0:0:13:
182,192,45729,1,0,0:0:0:0:
329,192,45960,1,2,0:0:0:0:
402,192,46075,1,2,0:0:0:0:
182,192,46190,1,4,3:0:0:82:
475,192,46190,1,2,0:0:0:0:
36,192,46421,1,2,3:0:0:34:
256,192,46537,1,2,0:0:0:0:
109,192,46652,1,0,1:0:0:13:
402,192,46652,1,0,1:0:0:13:
475,192,46652,1,0,0:0:0:0:
329,192,46883,1,2,0:0:0:0:
256,192,46998,1,2,0:0:0:0:
36,192,47113,1,4,3:0:0:82:
329,192,47113,1,2,0:0:0:0:
182,192,47229,1,0,1:0:0:13:
109,192,47344,1,4,3:0:0:48:
402,192,47344,1,0,0:0:0:0:
256,192,47460,1,0,1:0:0:13:
329,192,47575,1,0,1:0:0:13:
182,192,47575,1,0,1:0:0:13:
475,192,47575,1,0,0:0:0:0:
36,192,47806,128,0,47921:2:0:0:91:
329,192,47921,1,4,3:0:0:48:
256,192,47979,1,2,0:0:0:0:
182,192,48037,1,2,0:0:0:0:
475,192,48037,1,4,3:0:0:82:
329,192,48267,1,2,3:0:0:34:
109,192,48383,1,0,0:0:0:0:
36,192,48498,1,0,1:0:0:13:
402,192,48498,1,0,1:0:0:13:
256,192,48498,1,0,0:0:0:0:
109,192,48729,1,2,0:0:0:0:
475,192,48844,1,0,1:0:0:13:
329,192,48844,1,0,0:0:0:0:
182,192,48960,1,4,3:0:0:82:
402,192,49075,1,0,1:0:0:13:
256,192,49075,1,0,0:0:0:0:
109,192,49190,1,0,1:0:0:13:
182,192,49306,1,0,1:0:0:13:
329,192,49306,1,0,0:0:0:0:
475,192,49421,1,0,1:0:0:13:
36,192,49421,1,0,1:0:0:13:
256,192,49421,1,0,0:0:0:0:
402,192,49652,1,2,0:0:0:0:
182,192,49883,1,4,3:0:0:82:
329,192,49883,1,2,0:0:0:0:
109,192,50113,1,2,3:0:0:34:
402,192,50229,1,2,0:0:0:0:
36,192,50344,1,0,1:0:0:13:
475,192,50344,1,0,1:0:0:13:
182,192,50344,1,0,0:0:0:0:
402,192,50575,1,0,0:0:0:0:
256,192,50633,1,2,0:0:0:0:
109,192,50690,1,0,1:0:0:13:
329,192,50806,1,2,0:0:0:0:
36,192,50806,1,4,3:0:0:82:
256,192,50921,1,0,1:0:0:13:
182,192,51037,1,8,3:0:0:66:
402,192,51037,1,0,0:0:0:0:
109,192,51152,1,0,1:0:0:13:
36,192,51267,1,0,1:0:0:13:
475,192,51267,1,0,1:0:0:13:
256,192,51267,1,0,0:0:0:0:
402,192,51383,1,4,3:0:0:55:
329,192,51498,1,8,3:0:0:66:
109,192,51498,1,0,0:0:0:0:
256,192,51613,1,4,3:0:0:55:
36,192,51729,5,4,0:0:0:55:
475,192,51729,1,4,3:0:0:82:
182,192,51729,1,0,0:0:0:0:
402,192,51729,1,0,0:0:0:0:
329,192,51960,1,2,3:0:0:34:
402,192,52190,5,0,1:0:0:13:
109,192,52190,1,0,1:0:0:13:
182,192,52190,1,0,0:0:0:0:
36,192,52421,1,0,0:0:0:0:
256,192,52537,1,0,1:0:0:13:
109,192,52652,1,4,3:0:0:82:
475,192,52652,1,2,0:0:0:0:
329,192,52998,1,2,0:0:0:0:
402,192,53113,1,0,1:0:0:13:
36,192,53113,1,0,1:0:0:13:
182,192,53113,1,0,0:0:0:0:
256,192,53344,1,2,0:0:0:0:
402,192,53575,1,4,3:0:0:82:
109,192,53575,1,2,0:0:0:0:
36,192,53806,1,2,3:0:0:34:
329,192,53921,1,2,0:0:0:0:
109,192,54037,1,0,1:0:0:13:
475,192,54037,1,0,1:0:0:13:
256,192,54037,1,0,0:0:0:0:
329,192,54267,1,2,0:0:0:0:
182,192,54383,1,2,0:0:0:0:
109,192,54383,1,0,0:0:0:0:
402,192,54498,1,2,0:0:0:0:
256,192,54498,1,4,3:0:0:82:
36,192,54613,1,0,1:0:0:13:
109,192,54613,1,0,0:0:0:0:
329,192,54729,1,4,3:0:0:48:
182,192,54844,1,0,1:0:0:13:
109,192,54960,1,0,1:0:0:13:
256,192,54960,1,0,1:0:0:13:
402,192,54960,1,0,0:0:0:0:
182,192,55190,1,2,0:0:0:0:
256,192,55306,1,2,0:0:0:0:
329,192,55421,1,2,0:0:0:0:
36,192,55421,1,4,3:0:0:82:
402,192,55652,1,2,3:0:0:34:
109,192,55767,1,0,0:0:0:0:
475,192,55883,1,0,1:0:0:13:
182,192,55883,1,0,1:0:0:13:
256,192,55883,1,0,0:0:0:0:
329,192,56113,1,2,0:0:0:0:
402,192,56190,1,2,0:0:0:0:
329,192,56267,1,2,0:0:0:0:
256,192,56344,1,4,3:0:0:82:
109,192,56344,1,2,0:0:0:0:
182,192,56690,1,2,0:0:0:0:
475,192,56806,1,0,1:0:0:13:
109,192,56806,1,0,1:0:0:13:
256,192,56806,1,0,0:0:0:0:
329,192,57037,1,2,0:0:0:0:
36,192,57037,128,0,57152:2:0:0:91:
182,192,57267,1,4,3:0:0:82:
402,192,57267,1,2,0:0:0:0:
256,192,57498,1,2,3:0:0:34:
329,192,57729,1,0,1:0:0:13:
36,192,57729,1,0,1:0:0:13:
475,192,57729,1,0,0:0:0:0:
182,192,57960,1,2,3:0:0:34:
329,192,58075,1,0,1:0:0:13:
109,192,58075,1,0,1:0:0:13:
256,192,58190,1,4,3:0:0:82:
182,192,58306,1,0,1:0:0:13:
402,192,58306,1,0,1:0:0:13:
329,192,58421,5,8,3:0:0:66:
109,192,58537,1,4,3:0:0:55:
36,192,58537,1,0,0:0:0:0:
256,192,58652,1,0,1:0:0:13:
329,192,58652,1,0,1:0:0:13:
402,192,58652,1,0,0:0:0:0:
182,192,58767,1,4,3:0:0:55:
329,192,58883,1,8,3:0:0:66:
109,192,58883,1,0,0:0:0:0:
256,192,58998,1,4,3:0:0:55:
182,192,59113,1,0,0:0:0:0:
475,192,59113,1,8,3:0:0:36:
329,192,59190,1,4,3:0:0:40:
36,192,59267,1,4,3:0:0:21:
182,192,59344,1,8,3:0:0:36:
402,192,59421,1,4,3:0:0:40:
109,192,59498,1,4,3:0:0:21:
36,192,59575,5,4,0:0:0:55:
475,192,59575,1,0,0:0:0:0:
329,192,59575,1,0,0:0:0:0:
256,192,59575,128,0,60383:1:0:0:26:
402,192,59806,1,0,0:0:0:0:
182,192,59921,1,0,0:0:0:0:
329,192,60037,1,4,3:0:0:82:
36,192,60037,1,0,0:0:0:0:
182,192,60267,1,0,0:0:0:0:
329,192,60383,1,0,0:0:0:0:
36,192,60498,1,0,1:0:0:13:
402,192,60498,1,0,1:0:0:13:
109,192,60498,1,0,0:0:0:0:
475,192,60729,128,0,61883:0:0:0:0:
182,192,60729,1,0,0:0:0:0:
329,192,60960,1,0,0:0:0:0:
109,192,60960,1,4,3:0:0:82:
182,192,61190,1,2,3:0:0:34:
256,192,61421,1,0,1:0:0:13:
402,192,61421,1,0,1:0:0:13:
36,192,61421,1,0,0:0:0:0:
182,192,61537,1,0,0:0:0:0:
329,192,61652,1,0,0:0:0:0:
109,192,61767,1,0,0:0:0:0:
36,192,61883,1,4,3:0:0:82:
256,192,61883,1,0,0:0:0:0:
182,192,61998,1,0,0:0:0:0:
402,192,62113,1,0,0:0:0:0:
329,192,62152,1,0,0:0:0:0:
182,192,62229,1,0,0:0:0:0:
256,192,62306,1,0,0:0:0:0:
36,192,62344,1,0,1:0:0:13:
109,192,62344,1,0,1:0:0:13:
329,192,62344,1,0,0:0:0:0:
182,192,62575,1,0,0:0:0:0:
402,192,62575,1,0,0:0:0:0:
256,192,62806,1,0,0:0:0:0:
475,192,62806,1,4,3:0:0:82:
36,192,62806,128,0,63729:0:0:0:0:
182,192,63037,1,2,3:0:0:34:
402,192,63037,1,0,0:0:0:0:
475,192,63267,1,0,1:0:0:13:
256,192,63267,1,0,0:0:0:0:
109,192,63267,1,0,1:0:0:13:
329,192,63498,1,0,0:0:0:0:
402,192,63498,1,0,0:0:0:0:
475,192,63729,1,4,3:0:0:82:
182,192,63729,128,0,64190:0:0:0:0:
329,192,63844,1,0,0:0:0:0:
109,192,63960,1,0,0:0:0:0:
402,192,64075,1,0,0:0:0:0:
256,192,64190,1,0,1:0:0:13:
36,192,64190,1,0,0:0:0:0:
475,192,64190,1,0,1:0:0:13:
329,192,64421,128,0,65575:0:0:0:0:
109,192,64421,1,0,0:0:0:0:
402,192,64652,1,0,0:0:0:0:
182,192,64652,1,4,3:0:0:82:
36,192,64883,1,2,3:0:0:34:
256,192,64883,1,0,0:0:0:0:
182,192,65113,1,0,0:0:0:0:
402,192,65113,1,0,1:0:0:13:
109,192,65113,1,0,1:0:0:13:
475,192,65344,1,0,0:0:0:0:
36,192,65344,1,0,0:0:0:0:
182,192,65575,5,4,3:0:0:82:
256,192,65575,5,0,0:0:0:0:
36,192,65690,1,0,0:0:0:0:
402,192,65806,1,0,0:0:0:0:
475,192,65806,1,8,3:0:0:66:
109,192,66037,1,0,1:0:0:26:
36,192,66037,1,0,0:0:0:0:
182,192,66037,1,0,0:0:0:0:
329,192,66152,1,4,3:0:0:55:
402,192,66152,1,0,0:0:0:0:
182,192,66267,128,8,66383:3:0:0:66:
256,192,66344,128,0,66460:0:0:0:0:
329,192,66421,128,0,66537:0:0:0:0:
182,192,66498,5,4,3:0:0:60:
36,192,66498,1,4,0:0:0:55:
109,192,66498,1,0,0:0:0:0:
402,192,66498,128,0,66844:0:0:0:0:
36,192,66729,1,0,0:0:0:0:
475,192,66844,128,0,67190:0:0:0:0:
182,192,66960,1,0,0:0:0:0:
109,192,66960,1,0,1:0:0:13:
256,192,66960,1,0,1:0:0:13:
36,192,67190,128,0,67883:0:0:0:0:
402,192,67190,1,0,0:0:0:0:
475,192,67421,1,0,0:0:0:0:
329,192,67421,1,4,3:0:0:82:
182,192,67537,1,0,0:0:0:0:
402,192,67652,1,0,0:0:0:0:
256,192,67767,1,0,0:0:0:0:
329,192,67883,1,0,1:0:0:13:
475,192,67883,1,0,1:0:0:13:
256,192,67998,128,0,68113:0:0:0:0:
182,192,68056,128,0,68171:0:0:0:0:
109,192,68113,128,0,68229:0:0:0:0:
329,192,68190,128,0,68306:0:0:0:0:
402,192,68267,128,0,68383:0:0:0:0:
36,192,68344,1,4,3:0:0:82:
475,192,68344,128,0,68690:0:0:0:0:
182,192,68575,5,0,0:0:0:0:
329,192,68690,128,0,69037:0:0:0:0:
36,192,68806,1,0,1:0:0:13:
109,192,68806,1,0,0:0:0:0:
256,192,68806,1,0,1:0:0:13:
182,192,69037,1,0,0:0:0:0:
402,192,69037,128,0,69498:0:0:0:0:
256,192,69267,1,0,0:0:0:0:
36,192,69267,1,4,3:0:0:82:
182,192,69383,1,0,1:0:0:13:
329,192,69498,1,4,3:0:0:33:
109,192,69613,1,0,1:0:0:13:
182,192,69729,1,0,1:0:0:13:
475,192,69729,1,0,1:0:0:13:
256,192,69729,1,0,0:0:0:0:
36,192,69844,1,0,1:0:0:13:
402,192,69960,1,0,1:0:0:13:
182,192,70075,1,4,3:0:0:33:
109,192,70190,1,4,3:0:0:82:
329,192,70190,1,0,0:0:0:0:
182,192,70421,1,2,3:0:0:34:
402,192,70421,1,0,0:0:0:0:
36,192,70652,1,0,0:0:0:0:
329,192,70652,1,0,1:0:0:13:
256,192,70652,1,0,1:0:0:13:
475,192,70767,1,0,1:0:0:13:
182,192,70883,1,4,3:0:0:33:
402,192,70998,1,0,1:0:0:13:
109,192,71113,1,0,0:0:0:0:
256,192,71113,1,4,3:0:0:82:
475,192,71229,1,0,1:0:0:13:
182,192,71344,1,0,1:0:0:13:
329,192,71460,1,0,1:0:0:13:
36,192,71575,1,0,0:0:0:0:
109,192,71575,1,0,1:0:0:13:
256,192,71575,1,0,1:0:0:13:
402,192,71690,1,0,1:0:0:13:
182,192,71806,1,0,0:0:0:0:
329,192,71806,1,0,0:0:0:0:
109,192,72037,1,0,0:0:0:0:
402,192,72037,1,4,3:0:0:82:
475,192,72267,1,0,0:0:0:0:
182,192,72267,1,2,3:0:0:34:
109,192,72498,1,0,1:0:0:13:
329,192,72498,1,0,1:0:0:13:
36,192,72498,1,0,0:0:0:0:
256,192,72613,1,0,1:0:0:13:
402,192,72729,1,4,3:0:0:33:
182,192,72844,1,0,1:0:0:13:
36,192,72960,1,4,3:0:0:82:
402,192,73075,1,0,1:0:0:13:
329,192,73075,1,0,1:0:0:13:
182,192,73190,1,8,3:0:0:66:
109,192,73190,1,0,0:0:0:0:
475,192,73306,1,4,3:0:0:55:
329,192,73421,1,0,1:0:0:13:
182,192,73421,1,0,0:0:0:0:
256,192,73421,1,0,1:0:0:13:
36,192,73537,1,4,3:0:0:55:
402,192,73652,1,0,0:0:0:0:
329,192,73652,1,8,3:0:0:66:
182,192,73767,1,4,3:0:0:55:
475,192,73883,5,8,3:0:0:36:
36,192,73883,1,0,0:0:0:0:
329,192,73960,1,4,3:0:0:40:
182,192,74037,1,4,3:0:0:21:
402,192,74113,1,8,3:0:0:36:
256,192,74190,1,4,3:0:0:40:
109,192,74267,1,4,3:0:0:21:
475,192,74344,5,0,0:0:0:0:
329,192,74344,1,0,1:0:0:26:
36,192,74344,128,4,75267:0:0:0:28:
402,192,74344,1,4,0:0:0:28:
182,192,74575,1,0,0:0:0:0:
475,192,74806,1,0,0:0:0:0:
256,192,74806,1,4,3:0:0:82:
182,192,75037,1,0,0:0:0:0:
329,192,75152,1,0,0:0:0:0:
109,192,75267,1,0,1:0:0:13:
402,192,75267,1,0,1:0:0:13:
256,192,75267,1,0,0:0:0:0:
475,192,75498,1,0,0:0:0:0:
182,192,75498,128,0,76652:0:0:0:0:
109,192,75729,1,0,0:0:0:0:
329,192,75729,1,4,3:0:0:82:
256,192,75960,1,2,3:0:0:34:
329,192,76190,1,0,1:0:0:13:
402,192,76190,1,0,1:0:0:13:
475,192,76190,1,0,0:0:0:0:
36,192,76306,1,0,0:0:0:0:
256,192,76421,1,0,0:0:0:0:
402,192,76537,1,0,1:0:0:13:
36,192,76652,1,4,3:0:0:82:
109,192,76652,1,0,0:0:0:0:
475,192,76767,1,0,1:0:0:13:
329,192,76883,1,8,3:0:0:24:
402,192,76921,1,0,0:0:0:0:
182,192,76998,1,4,3:0:0:24:
256,192,77075,1,0,0:0:0:0:
329,192,77113,1,0,1:0:0:13:
109,192,77113,1,0,1:0:0:13:
475,192,77113,1,0,0:0:0:0:
36,192,77229,1,8,3:0:0:24:
402,192,77344,1,0,1:0:0:13:
109,192,77460,1,4,3:0:0:24:
329,192,77575,128,0,78498:0:0:0:0:
182,192,77575,1,4,3:0:0:82:
36,192,77806,1,2,3:0:0:34:
475,192,78037,1,0,1:0:0:13:
109,192,78037,1,0,1:0:0:13:
256,192,78037,1,0,0:0:0:0:
182,192,78267,1,0,0:0:0:0:
36,192,78498,1,0,0:0:0:0:
402,192,78498,128,4,78960:3:0:0:82:
182,192,78613,1,0,0:0:0:0:
256,192,78729,1,0,0:0:0:0:
109,192,78844,1,0,0:0:0:0:
329,192,78960,1,0,1:0:0:13:
475,192,78960,1,0,0:0:0:0:
36,192,78960,1,0,1:0:0:13:
256,192,79190,1,0,0:0:0:0:
182,192,79190,128,0,80344:0:0:0:0:
109,192,79421,1,4,3:0:0:82:
329,192,79421,1,0,0:0:0:0:
402,192,79652,1,2,3:0:0:34:
256,192,79652,1,0,0:0:0:0:
36,192,79883,1,0,1:0:0:13:
329,192,79883,1,0,1:0:0:13:
475,192,79883,1,0,0:0:0:0:
402,192,80113,1,0,0:0:0:0:
329,192,80344,5,0,0:0:0:0:
256,192,80344,1,4,3:0:0:82:
109,192,80575,1,8,3:0:0:66:
182,192,80575,1,0,0:0:0:0:
402,192,80806,1,0,1:0:0:13:
475,192,80806,1,0,0:0:0:0:
329,192,80806,1,0,1:0:0:13:
109,192,80921,1,0,0:0:0:0:
36,192,80921,1,0,0:0:0:0:
256,192,81037,1,0,0:0:0:0:
182,192,81152,1,4,3:0:0:55:
329,192,81267,1,4,3:0:0:60:
36,192,81267,128,4,81613:0:0:0:55:
475,192,81267,128,0,81613:0:0:0:0:
402,192,81613,128,0,81960:0:0:0:0:
109,192,81613,128,0,81960:0:0:0:0:
256,192,81960,1,0,1:0:0:33:
182,192,82037,1,4,3:0:0:54:
329,192,82113,1,0,3:0:0:33:
402,192,82190,1,0,1:0:0:50:
256,192,82190,1,0,0:0:0:0:
109,192,82190,1,0,0:0:0:0:
329,192,82421,1,4,3:0:0:42:
182,192,82537,1,8,3:0:0:42:
475,192,82537,1,0,0:0:0:0:
109,192,82652,1,4,3:0:0:42:
402,192,82652,1,0,0:0:0:0:
256,192,82767,1,8,3:0:0:42:
475,192,82883,1,8,3:0:0:42:
36,192,82883,1,0,0:0:0:0:
109,192,83113,128,0,83460:0:0:0:0:
402,192,83113,128,0,83460:0:0:0:0:
256,192,83113,1,0,0:0:0:0:
329,192,83460,128,0,83806:0:0:0:0:
182,192,83460,128,0,83806:0:0:0:0:
36,192,83806,1,0,0:0:0:0:
475,192,83806,1,8,3:0:0:20:
256,192,83921,1,4,3:0:0:20:
109,192,84037,1,0,0:0:0:0:
402,192,84037,1,0,1:0:0:42:
329,192,84152,1,0,1:0:0:42:
182,192,84267,1,8,3:0:0:42:
36,192,84267,1,0,0:0:0:0:
402,192,84383,1,4,3:0:0:42:
475,192,84383,1,0,0:0:0:0:
329,192,84498,1,4,0:0:0:55:
256,192,84498,1,0,0:0:0:0:
109,192,84498,1,0,0:0:0:0:
475,192,84729,128,0,85306:0:0:0:0:
36,192,84729,128,0,85306:0:0:0:0:
256,192,85190,1,0,2:0:0:91:
475,192,85421,1,0,1:0:0:42:
256,192,85421,1,0,0:0:0:0:
36,192,85421,1,0,0:0:0:0:
329,192,85652,1,8,3:0:0:42:
36,192,85767,1,0,0:0:0:0:
182,192,85767,1,0,1:0:0:42:
402,192,85883,1,4,3:0:0:42:
256,192,85883,1,0,0:0:0:0:
109,192,85998,1,0,0:0:0:0:
329,192,86113,1,0,0:0:0:0:
475,192,86113,1,0,0:0:0:0:
182,192,86229,1,0,0:0:0:0:
256,192,86344,1,0,0:0:0:0:
402,192,86344,1,0,1:0:0:42:
109,192,86344,1,0,0:0:0:0:
182,192,86575,1,4,0:0:0:55:
36,192,86575,1,4,3:0:0:60:
329,192,86575,1,0,0:0:0:0:
475,192,86575,1,0,0:0:0:0:
109,192,86806,5,0,0:0:0:0:
402,192,86806,1,4,3:0:0:42:
256,192,87037,1,2,3:0:0:34:
182,192,87267,1,0,0:0:0:0:
36,192,87267,1,0,0:0:0:0:
329,192,87267,1,0,1:0:0:42:
109,192,87498,5,0,0:0:0:0:
402,192,87498,1,8,3:0:0:42:
256,192,87613,1,0,0:0:0:0:
36,192,87729,1,4,3:0:0:42:
475,192,87844,1,0,1:0:0:42:
402,192,87844,1,0,0:0:0:0:
329,192,87844,1,0,0:0:0:0:
182,192,87960,1,8,3:0:0:42:
256,192,88075,1,4,3:0:0:42:
402,192,88190,5,0,0:0:0:0:
329,192,88190,1,8,1:0:0:45:
182,192,88306,1,8,2:0:0:45:
109,192,88306,1,0,0:0:0:0:
402,192,88421,1,0,0:0:0:0:
329,192,88421,1,8,1:0:0:45:
182,192,88537,1,8,2:0:0:45:
109,192,88537,1,0,0:0:0:0:
36,192,88652,5,4,3:0:0:17:
475,192,88652,1,4,3:0:0:17:
329,192,88767,1,2,0:0:0:0:
475,192,88883,1,2,0:0:0:0:
329,192,88998,1,2,0:0:0:0:
182,192,89113,1,8,2:0:0:16:
36,192,89113,1,8,2:0:0:16:
402,192,89229,1,2,0:0:0:0:
256,192,89460,1,2,0:0:0:0:
109,192,89575,5,4,3:0:0:52:
402,192,89575,1,4,3:0:0:17:
182,192,89806,1,2,3:0:0:31:
475,192,89921,1,4,3:0:0:34:
475,192,90037,1,8,1:0:0:17:
329,192,90037,1,8,1:0:0:17:
109,192,90152,1,2,0:0:0:0:
402,192,90267,1,0,1:0:0:0:
329,192,90344,1,0,1:0:0:0:
256,192,90421,1,0,1:0:0:0:
36,192,90498,1,4,3:0:0:17:
182,192,90498,1,4,3:0:0:17:
182,192,90729,1,4,3:0:0:17:
36,192,90729,1,4,3:0:0:17:
256,192,90844,1,2,0:0:0:0:
329,192,90960,1,8,2:0:0:16:
475,192,90960,1,8,2:0:0:16:
182,192,91075,1,2,0:0:0:0:
36,192,91190,1,0,1:0:0:0:
109,192,91248,1,0,1:0:0:0:
182,192,91306,1,0,1:0:0:0:
256,192,91363,1,0,1:0:0:0:
475,192,91421,5,4,3:0:0:52:
329,192,91421,1,2,0:0:0:0:
109,192,91537,1,0,1:0:0:0:
402,192,91652,1,2,3:0:0:34:
256,192,91767,1,2,0:0:0:0:
36,192,91883,1,4,3:0:0:34:
182,192,91998,1,8,1:0:0:17:
36,192,91998,1,8,1:0:0:17:
475,192,92113,1,2,0:0:0:0:
256,192,92229,1,2,0:0:0:0:
36,192,92344,1,4,3:0:0:17:
402,192,92344,1,4,3:0:0:17:
182,192,92460,1,2,0:0:0:0:
36,192,92575,1,2,0:0:0:0:
182,192,92690,1,2,0:0:0:0:
329,192,92806,1,8,2:0:0:16:
475,192,92806,1,8,2:0:0:16:
109,192,92921,1,2,0:0:0:0:
256,192,93152,1,2,0:0:0:0:
402,192,93267,1,4,3:0:0:17:
36,192,93267,1,4,3:0:0:17:
182,192,93498,1,2,3:0:0:31:
475,192,93613,1,4,3:0:0:34:
329,192,93729,1,8,1:0:0:17:
475,192,93729,1,8,1:0:0:17:
109,192,93844,1,2,0:0:0:0:
402,192,93960,1,0,1:0:0:0:
329,192,94037,1,0,1:0:0:0:
256,192,94113,1,0,1:0:0:0:
36,192,94190,1,4,3:0:0:17:
182,192,94190,1,4,3:0:0:17:
182,192,94421,1,4,3:0:0:17:
36,192,94421,1,4,3:0:0:17:
256,192,94537,1,2,0:0:0:0:
475,192,94652,1,8,2:0:0:16:
329,192,94652,1,8,2:0:0:16:
109,192,94767,1,2,0:0:0:0:
475,192,94883,1,0,1:0:0:0:
402,192,94940,1,0,1:0:0:0:
329,192,94998,1,0,1:0:0:0:
256,192,95056,1,0,1:0:0:0:
36,192,95113,5,4,3:0:0:52:
182,192,95113,1,2,0:0:0:0:
329,192,95229,1,0,1:0:0:0:
109,192,95344,1,2,3:0:0:34:
402,192,95460,1,4,3:0:0:17:
256,192,95460,1,4,3:0:0:17:
36,192,95575,1,8,1:0:0:12:
182,192,95575,1,8,1:0:0:12:
182,192,95690,1,8,1:0:0:12:
36,192,95690,1,8,1:0:0:12:
182,192,95806,1,8,1:0:0:12:
36,192,95806,1,8,1:0:0:12:
182,192,95921,1,8,1:0:0:12:
36,192,95921,1,8,1:0:0:12:
475,192,96037,1,8,2:0:0:11:
329,192,96037,1,8,2:0:0:11:
329,192,96152,1,8,2:0:0:11:
475,192,96152,1,8,2:0:0:11:
329,192,96267,1,8,2:0:0:11:
475,192,96267,1,8,2:0:0:11:
329,192,96383,1,8,2:0:0:11:
475,192,96383,1,8,2:0:0:11:
109,192,96498,128,2,96960:0:0:0:0:
402,192,96960,128,2,97652:0:0:0:0:
109,192,97306,128,2,97652:0:0:0:0:
182,192,97652,1,2,0:0:0:0:
256,192,97767,1,2,0:0:0:0:
329,192,97883,128,2,99267:0:0:0:0:
182,192,98229,128,2,98575:0:0:0:0:
109,192,98575,1,2,0:0:0:0:
182,192,98690,1,2,0:0:0:0:
109,192,98806,128,2,100767:0:0:0:0:
256,192,99652,1,2,0:0:0:0:
329,192,99690,1,2,0:0:0:0:
402,192,99729,128,2,100075:0:0:0:0:
329,192,100075,128,2,100421:0:0:0:0:
402,192,100421,128,2,101575:0:0:0:0:
36,192,100767,128,2,100998:0:0:0:0:
36,192,101113,128,2,102190:0:0:0:0:
182,192,101344,128,2,102229:0:0:0:0:
329,192,101575,128,2,102267:0:0:0:0:
475,192,101921,128,2,102267:0:0:0:0:
36,192,102267,1,2,0:0:0:0:
182,192,102306,1,2,0:0:0:0:
329,192,102344,1,2,0:0:0:0:
475,192,102344,1,2,0:0:0:0:
329,192,103190,5,2,0:0:0:0:
402,192,103306,1,2,0:0:0:0:
36,192,103421,128,2,106883:0:0:0:0:
182,192,103421,128,2,104113:0:0:0:0:
475,192,103421,1,2,0:0:0:0:
329,192,104113,1,2,0:0:0:0:
109,192,104344,128,2,106883:0:0:0:0:
256,192,104344,128,2,105037:0:0:0:0:
402,192,104690,1,2,0:0:0:0:
475,192,105037,1,2,0:0:0:0:
182,192,105267,128,2,106883:0:0:0:0:
329,192,105267,128,2,105960:0:0:0:0:
475,192,105613,1,2,0:0:0:0:
402,192,105960,1,2,0:0:0:0:
475,192,106075,1,2,0:0:0:0:
256,192,106190,128,2,106883:0:0:0:0:
402,192,106190,128,2,106883:0:0:0:0:
329,192,106883,1,2,0:0:0:0:
402,192,106998,1,2,0:0:0:0:
475,192,107113,128,2,108613:0:0:0:0:
36,192,107113,128,2,108960:0:0:0:0:
329,192,107460,128,2,107806:0:0:0:0:
256,192,107806,1,2,0:0:0:0:
182,192,107883,1,2,0:0:0:0:
256,192,107960,1,2,0:0:0:0:
329,192,108037,128,2,109306:0:0:0:0:
182,192,108383,128,2,108844:0:0:0:0:
475,192,108729,128,2,109421:0:0:0:0:
182,192,108960,1,2,0:0:0:0:
36,192,109075,1,2,0:0:0:0:
182,192,109190,128,2,109767:0:0:0:0:
36,192,109306,128,2,109883:0:0:0:0:
329,192,109421,1,2,0:0:0:0:
475,192,109537,1,2,0:0:0:0:
329,192,109652,128,2,110229:0:0:0:0:
475,192,109767,128,2,110344:0:0:0:0:
182,192,109883,1,2,0:0:0:0:
36,192,109998,1,2,0:0:0:0:
182,192,110113,128,2,110806:0:0:0:0:
36,192,110229,128,2,110806:0:0:0:0:
329,192,110344,1,2,0:0:0:0:
475,192,110460,1,2,0:0:0:0:
329,192,110575,128,2,110806:0:0:0:0:
475,192,110690,128,2,110806:0:0:0:0:
256,192,110806,1,4,0:0:0:55:
329,192,110960,5,8,3:0:0:30:
182,192,110960,5,8,3:0:0:30:
109,192,111113,5,8,3:0:0:27:
256,192,111113,5,8,3:0:0:27:
402,192,111113,5,8,3:0:0:27:
182,192,111267,1,0,1:0:0:9:
329,192,111267,1,0,1:0:0:9:
475,192,111267,1,4,2:0:0:20:
36,192,111267,128,0,111729:1:0:0:9:
402,192,111613,1,0,1:0:0:13:
182,192,111729,128,0,112075:0:0:0:0:
329,192,111729,1,4,3:0:0:82:
475,192,111960,1,0,0:0:0:0:
36,192,112075,128,0,112421:0:0:0:0:
402,192,112190,1,0,1:0:0:13:
256,192,112190,1,0,1:0:0:13:
182,192,112421,1,0,0:0:0:0:
109,192,112537,128,0,112998:0:0:0:0:
329,192,112652,1,4,3:0:0:82:
182,192,112652,128,0,112998:0:0:0:0:
402,192,112883,1,2,3:0:0:34:
256,192,112998,128,0,113344:0:0:0:0:
475,192,113113,1,0,1:0:0:13:
36,192,113113,1,0,1:0:0:13:
109,192,113344,1,0,0:0:0:0:
329,192,113344,1,0,0:0:0:0:
402,192,113460,128,0,114498:0:0:0:0:
36,192,113575,1,4,3:0:0:82:
329,192,113575,128,0,114498:0:0:0:0:
182,192,113690,1,0,1:0:0:13:
109,192,113806,1,8,3:0:0:25:
256,192,113921,1,0,1:0:0:13:
182,192,114037,1,0,1:0:0:13:
36,192,114037,1,0,1:0:0:13:
109,192,114267,1,0,0:0:0:0:
36,192,114383,1,4,3:0:0:25:
182,192,114498,1,4,3:0:0:82:
256,192,114498,128,0,114844:0:0:0:0:
36,192,114729,1,2,3:0:0:34:
402,192,114844,128,0,115190:0:0:0:0:
109,192,114960,1,0,1:0:0:13:
182,192,114960,1,0,1:0:0:13:
256,192,115190,128,0,115421:0:0:0:0:
36,192,115190,1,0,0:0:0:0:
109,192,115306,1,0,1:0:0:13:
182,192,115421,128,0,115767:0:0:0:0:
329,192,115421,1,4,3:0:0:82:
402,192,115652,1,0,0:0:0:0:
182,192,115883,128,0,116113:0:0:0:0:
329,192,115883,1,0,1:0:0:13:
475,192,115883,1,0,1:0:0:13:
256,192,116113,128,0,116344:0:0:0:0:
36,192,116113,1,0,0:0:0:0:
109,192,116344,1,4,3:0:0:82:
329,192,116344,128,0,116690:0:0:0:0:
182,192,116575,1,2,3:0:0:34:
402,192,116690,128,0,117037:0:0:0:0:
36,192,116806,1,0,1:0:0:13:
109,192,116806,1,0,1:0:0:13:
182,192,117037,1,4,3:0:0:38:
475,192,117037,128,0,117960:0:0:0:0:
36,192,117152,1,0,1:0:0:13:
109,192,117267,1,0,0:0:0:0:
329,192,117267,1,4,3:0:0:82:
36,192,117498,1,0,0:0:0:0:
256,192,117498,1,8,3:0:0:66:
182,192,117613,1,0,1:0:0:13:
329,192,117729,1,0,1:0:0:13:
109,192,117729,1,0,1:0:0:13:
256,192,117844,1,0,1:0:0:13:
182,192,117960,1,8,3:0:0:66:
402,192,117960,1,0,0:0:0:0:
109,192,118075,1,0,0:0:0:0:
329,192,118075,1,4,3:0:0:55:
36,192,118190,5,4,0:0:0:55:
475,192,118190,128,0,118883:0:0:0:0:
256,192,118190,1,4,3:0:0:82:
182,192,118421,1,0,0:0:0:0:
109,192,118652,1,0,1:0:0:13:
256,192,118652,1,0,1:0:0:13:
182,192,118883,1,0,0:0:0:0:
402,192,118883,1,0,0:0:0:0:
36,192,118998,1,0,1:0:0:13:
329,192,118998,128,0,119460:0:0:0:0:
402,192,119113,128,0,119460:0:0:0:0:
182,192,119113,1,4,3:0:0:82:
109,192,119344,1,0,0:0:0:0:
475,192,119460,128,0,119806:0:0:0:0:
182,192,119575,1,0,1:0:0:13:
36,192,119575,1,0,1:0:0:13:
329,192,119806,128,0,120037:0:0:0:0:
109,192,119806,1,0,0:0:0:0:
402,192,120037,128,0,120383:0:0:0:0:
36,192,120037,1,4,3:0:0:82:
182,192,120267,1,2,3:0:0:34:
475,192,120383,128,0,120844:0:0:0:0:
36,192,120498,1,0,1:0:0:13:
256,192,120498,1,0,1:0:0:13:
182,192,120613,1,8,3:0:0:25:
329,192,120729,128,0,121652:0:0:0:0:
109,192,120729,1,4,3:0:0:25:
36,192,120844,1,0,1:0:0:13:
475,192,120960,128,0,121652:0:0:0:0:
182,192,120960,1,4,3:0:0:82:
109,192,121075,1,0,1:0:0:13:
182,192,121190,1,8,3:0:0:25:
36,192,121306,1,0,1:0:0:13:
256,192,121421,1,0,1:0:0:26:
109,192,121652,1,8,3:0:0:25:
182,192,121767,128,4,122229:3:0:0:25:
329,192,121883,1,4,3:0:0:82:
109,192,121883,128,0,122229:0:0:0:0:
475,192,121883,1,0,0:0:0:0:
402,192,122113,1,2,3:0:0:34:
36,192,122229,128,0,123613:0:0:0:0:
256,192,122344,1,0,1:0:0:13:
329,192,122344,1,0,1:0:0:13:
402,192,122575,1,0,0:0:0:0:
329,192,122690,128,0,123152:0:0:0:0:
109,192,122806,1,4,3:0:0:82:
402,192,122806,128,0,123152:0:0:0:0:
182,192,122806,1,0,0:0:0:0:
475,192,123152,128,0,123613:0:0:0:0:
256,192,123267,1,0,1:0:0:26:
182,192,123498,128,0,123729:0:0:0:0:
329,192,123498,128,0,123729:0:0:0:0:
36,192,123729,128,0,125575:0:0:0:0:
475,192,123729,128,4,125575:3:0:0:82:
256,192,123960,1,2,3:0:0:34:
109,192,124190,1,0,1:0:0:13:
329,192,124190,1,0,1:0:0:13:
402,192,124421,1,4,3:0:0:25:
256,192,124537,1,0,0:0:0:0:
182,192,124537,1,0,1:0:0:13:
109,192,124652,1,4,3:0:0:25:
329,192,124767,1,0,1:0:0:13:
256,192,124767,1,0,0:0:0:0:
182,192,124883,1,8,3:0:0:66:
329,192,124998,1,0,0:0:0:0:
402,192,124998,1,4,3:0:0:55:
109,192,125113,1,0,0:0:0:0:
182,192,125113,1,0,1:0:0:26:
329,192,125229,1,0,0:0:0:0:
256,192,125229,1,4,3:0:0:55:
109,192,125344,1,8,3:0:0:66:
182,192,125344,1,0,0:0:0:0:
329,192,125460,1,0,0:0:0:0:
402,192,125460,1,4,3:0:0:55:
182,192,125575,1,0,0:0:0:0:
256,192,125575,1,8,3:0:0:36:
109,192,125575,1,0,0:0:0:0:
329,192,125652,1,4,3:0:0:40:
402,192,125729,1,4,3:0:0:21:
256,192,125806,1,0,0:0:0:0:
36,192,125806,1,0,0:0:0:0:
475,192,125806,1,8,3:0:0:36:
109,192,125883,1,4,3:0:0:40:
182,192,125960,1,4,3:0:0:21:
329,192,126037,5,0,0:0:0:0:
256,192,126037,128,0,127883:0:0:0:0:
402,192,126037,1,4,0:0:0:55:
329,192,126267,1,0,0:0:0:0:
109,192,126498,1,0,0:0:0:0:
402,192,126498,1,4,3:0:0:82:
182,192,126729,1,0,0:0:0:0:
475,192,126960,1,0,0:0:0:0:
329,192,126960,1,0,1:0:0:13:
36,192,126960,1,0,1:0:0:13:
109,192,127190,1,0,0:0:0:0:
182,192,127421,1,0,0:0:0:0:
402,192,127421,1,4,3:0:0:82:
329,192,127652,1,2,3:0:0:34:
109,192,127883,1,0,1:0:0:13:
402,192,127883,1,0,1:0:0:13:
182,192,127883,1,0,0:0:0:0:
36,192,128113,1,0,0:0:0:0:
256,192,128113,128,0,128229:0:0:0:0:
329,192,128229,128,0,128344:0:0:0:0:
109,192,128344,1,4,3:0:0:82:
256,192,128344,128,0,129037:0:0:0:0:
475,192,128575,1,0,0:0:0:0:
402,192,128806,1,0,0:0:0:0:
109,192,128806,1,0,1:0:0:13:
36,192,128806,1,0,1:0:0:13:
182,192,129037,128,0,129267:0:0:0:0:
475,192,129152,128,0,129267:0:0:0:0:
256,192,129267,128,0,129498:0:0:0:0:
36,192,129383,128,0,129498:0:0:0:0:
329,192,129498,128,0,129729:0:0:0:0:
109,192,129613,128,0,129729:0:0:0:0:
402,192,129729,128,0,129960:0:0:0:0:
182,192,129844,128,0,129960:0:0:0:0:
475,192,129960,128,0,130190:0:0:0:0:
256,192,130075,128,0,130190:0:0:0:0:
36,192,130190,128,0,130421:0:0:0:0:
329,192,130306,128,0,130421:0:0:0:0:
109,192,130421,128,0,130652:0:0:0:0:
402,192,130537,128,0,130652:0:0:0:0:
182,192,130652,128,0,130883:0:0:0:0:
475,192,130767,128,0,130883:0:0:0:0:
256,192,130883,128,0,131113:0:0:0:0:
36,192,130998,128,0,131113:0:0:0:0:
329,192,131113,128,0,131575:0:0:0:0:
109,192,131113,1,4,3:0:0:82:
182,192,131344,1,2,3:0:0:34:
36,192,131575,1,0,1:0:0:13:
256,192,131575,1,0,1:0:0:13:
402,192,131575,128,0,131806:0:0:0:0:
109,192,131690,1,0,0:0:0:0:
475,192,131806,128,0,132383:0:0:0:0:
182,192,131806,1,0,0:0:0:0:
109,192,132037,1,0,0:0:0:0:
329,192,132037,1,4,3:0:0:82:
36,192,132267,1,0,0:0:0:0:
182,192,132267,1,8,3:0:0:66:
329,192,132383,1,0,0:0:0:0:
402,192,132498,1,0,0:0:0:0:
109,192,132498,1,0,1:0:0:26:
329,192,132613,1,0,0:0:0:0:
36,192,132613,1,4,3:0:0:55:
256,192,132729,128,0,133190:0:0:0:0:
109,192,132729,1,8,3:0:0:66:
182,192,132844,1,4,3:0:0:55:
36,192,132960,5,4,0:0:0:55:
329,192,132960,1,0,0:0:0:0:
402,192,132960,1,0,0:0:0:0:
475,192,132960,1,4,3:0:0:82:
109,192,133190,128,0,133421:0:0:0:0:
402,192,133306,1,0,0:0:0:0:
329,192,133421,128,0,133652:0:0:0:0:
475,192,133421,1,0,1:0:0:13:
36,192,133421,1,0,1:0:0:13:
182,192,133652,128,0,133883:0:0:0:0:
256,192,133652,1,0,0:0:0:0:
36,192,133883,1,4,3:0:0:82:
402,192,133883,128,0,134113:0:0:0:0:
475,192,133883,1,0,0:0:0:0:
256,192,134113,128,0,134344:0:0:0:0:
109,192,134113,1,0,0:0:0:0:
329,192,134344,1,0,1:0:0:13:
182,192,134344,1,0,1:0:0:13:
475,192,134344,128,0,134806:0:0:0:0:
109,192,134460,1,0,0:0:0:0:
36,192,134575,128,0,135037:0:0:0:0:
402,192,134575,1,0,0:0:0:0:
256,192,134690,1,0,0:0:0:0:
329,192,134806,1,0,0:0:0:0:
109,192,134806,1,4,3:0:0:82:
402,192,134921,1,0,0:0:0:0:
475,192,135037,128,0,135498:0:0:0:0:
182,192,135037,1,2,3:0:0:34:
109,192,135152,1,0,0:0:0:0:
36,192,135267,128,0,135729:0:0:0:0:
402,192,135267,1,0,1:0:0:13:
256,192,135267,1,0,1:0:0:13:
182,192,135383,1,0,0:0:0:0:
329,192,135498,1,0,0:0:0:0:
402,192,135613,1,0,0:0:0:0:
475,192,135729,128,0,136190:0:0:0:0:
182,192,135729,1,4,3:0:0:82:
109,192,135844,1,0,0:0:0:0:
36,192,135960,128,0,136190:0:0:0:0:
256,192,135960,1,0,1:0:0:13:
329,192,136075,1,0,0:0:0:0:
182,192,136190,1,0,0:0:0:0:
402,192,136190,1,4,0:0:0:55:
109,192,136190,1,0,1:0:0:26:
329,192,136421,1,0,0:0:0:0:
36,192,136421,1,0,0:0:0:0:
256,192,136421,1,4,0:0:0:40:
402,192,136652,1,0,0:0:0:0:
475,192,136652,128,0,137113:0:0:0:0:
109,192,136652,1,4,0:0:0:55:
182,192,136652,1,4,3:0:0:82:
256,192,136883,1,0,0:0:0:0:
402,192,137113,1,0,0:0:0:0:
36,192,137113,1,0,1:0:0:13:
182,192,137113,1,0,1:0:0:13:
256,192,137229,1,4,3:0:0:25:
109,192,137344,1,0,0:0:0:0:
329,192,137344,1,8,3:0:0:25:
182,192,137460,1,0,1:0:0:13:
36,192,137575,1,0,0:0:0:0:
402,192,137575,1,4,3:0:0:82:
329,192,137690,1,4,3:0:0:25:
256,192,137806,128,0,138037:0:0:0:0:
109,192,137806,1,0,0:0:0:0:
36,192,138037,1,0,1:0:0:13:
182,192,138037,1,0,1:0:0:13:
329,192,138037,128,0,138267:0:0:0:0:
402,192,138267,128,0,138844:0:0:0:0:
109,192,138267,1,0,0:0:0:0:
36,192,138498,1,0,0:0:0:0:
256,192,138498,1,4,3:0:0:82:
182,192,138729,128,2,138960:3:0:0:34:
329,192,138844,128,0,138960:0:0:0:0:
475,192,138960,1,0,1:0:0:13:
109,192,138960,128,0,139190:1:0:0:13:
256,192,139075,128,0,139190:0:0:0:0:
36,192,139190,128,0,140344:0:0:0:0:
402,192,139190,1,0,0:0:0:0:
329,192,139421,1,0,0:0:0:0:
475,192,139421,1,4,3:0:0:82:
109,192,139537,1,0,1:0:0:13:
402,192,139652,1,0,0:0:0:0:
256,192,139652,1,8,3:0:0:66:
182,192,139767,1,4,3:0:0:55:
329,192,139883,1,0,1:0:0:26:
475,192,139883,128,0,140344:0:0:0:0:
109,192,139998,1,4,3:0:0:55:
256,192,140113,1,8,3:0:0:66:
182,192,140229,1,4,3:0:0:55:
402,192,140344,1,8,3:0:0:36:
109,192,140344,1,0,0:0:0:0:
329,192,140421,1,4,3:0:0:40:
182,192,140498,1,4,3:0:0:21:
402,192,140575,1,8,3:0:0:36:
256,192,140652,1,4,3:0:0:40:
109,192,140729,1,4,3:0:0:21:
182,192,140806,128,0,141152:0:0:0:0:
36,192,140806,1,4,0:0:0:55:
475,192,140806,1,0,1:0:0:26:
256,192,141037,1,0,0:0:0:0:
329,192,141152,128,0,141960:0:0:0:0:
475,192,141267,1,4,3:0:0:82:
36,192,141267,1,0,0:0:0:0:
256,192,141498,1,0,0:0:0:0:
402,192,141729,1,0,1:0:0:13:
109,192,141729,1,0,1:0:0:13:
182,192,141960,128,0,142652:0:0:0:0:
475,192,141960,1,0,0:0:0:0:
36,192,142190,1,4,3:0:0:82:
402,192,142190,1,0,0:0:0:0:
475,192,142421,1,2,3:0:0:34:
36,192,142652,1,0,1:0:0:13:
329,192,142652,128,0,142767:1:0:0:13:
182,192,142767,128,0,142883:0:0:0:0:
256,192,142883,128,0,142998:0:0:0:0:
329,192,142998,128,0,143806:0:0:0:0:
36,192,143113,1,4,3:0:0:82:
182,192,143113,128,0,143806:0:0:0:0:
402,192,143344,1,0,0:0:0:0:
36,192,143575,1,0,1:0:0:13:
256,192,143575,1,0,1:0:0:13:
475,192,143690,1,0,1:0:0:13:
109,192,143806,1,0,0:0:0:0:
402,192,143921,1,4,3:0:0:41:
256,192,144037,128,0,144844:0:0:0:0:
36,192,144037,1,0,0:0:0:0:
475,192,144037,1,4,3:0:0:82:
109,192,144267,1,2,3:0:0:34:
475,192,144498,1,0,0:0:0:0:
329,192,144498,1,0,1:0:0:13:
182,192,144498,1,0,1:0:0:13:
402,192,144729,1,0,0:0:0:0:
475,192,144960,1,4,3:0:0:82:
256,192,144960,128,0,145190:0:0:0:0:
109,192,144960,1,0,0:0:0:0:
182,192,145190,1,0,0:0:0:0:
256,192,145306,128,0,145537:0:0:0:0:
402,192,145421,1,0,0:0:0:0:
109,192,145421,1,0,1:0:0:13:
36,192,145421,1,0,1:0:0:13:
256,192,145652,128,0,145767:0:0:0:0:
182,192,145652,1,0,0:0:0:0:
402,192,145883,1,4,3:0:0:82:
256,192,145883,128,0,146229:0:0:0:0:
109,192,145883,1,0,0:0:0:0:
36,192,146113,1,0,0:0:0:0:
475,192,146113,1,2,3:0:0:34:
329,192,146229,1,0,0:0:0:0:
182,192,146229,1,0,0:0:0:0:
402,192,146344,128,0,146575:1:0:0:13:
109,192,146344,128,0,146575:1:0:0:13:
329,192,146575,128,0,146806:0:0:0:0:
182,192,146575,128,0,146806:0:0:0:0:
256,192,146806,1,4,3:0:0:82:
36,192,146806,128,0,147152:0:0:0:0:
475,192,146921,128,0,147267:0:0:0:0:
329,192,147037,128,8,147383:3:0:0:66:
182,192,147152,128,0,147383:0:0:0:0:
36,192,147267,128,0,147613:1:0:0:26:
475,192,147383,128,4,147613:3:0:0:55:
182,192,147498,128,8,147613:3:0:0:66:
329,192,147498,128,0,147613:0:0:0:0:
256,192,147613,1,4,3:0:0:55:
36,192,147729,128,4,148075:0:0:0:55:
475,192,147729,128,4,148075:3:0:0:82:
182,192,148075,128,0,148421:0:0:0:0:
329,192,148075,128,0,148421:0:0:0:0:
475,192,148421,1,0,0:0:0:0:
36,192,148421,1,0,3:0:0:33:
402,192,148498,1,0,0:0:0:0:
109,192,148498,1,4,3:0:0:54:
329,192,148575,1,0,0:0:0:0:
182,192,148575,1,0,3:0:0:33:
36,192,148652,1,0,0:0:0:0:
256,192,148652,128,0,149575:0:0:0:0:
475,192,148652,1,0,1:0:0:50:
109,192,148998,1,0,0:0:0:0:
36,192,148998,1,8,3:0:0:42:
182,192,149113,1,0,0:0:0:0:
329,192,149190,1,0,0:0:0:0:
402,192,149267,1,0,0:0:0:0:
475,192,149344,1,8,3:0:0:42:
36,192,149402,1,0,0:0:0:0:
109,192,149460,1,0,0:0:0:0:
182,192,149517,1,0,0:0:0:0:
329,192,149575,128,0,150267:0:0:0:0:
475,192,149575,1,4,0:0:0:55:
402,192,149575,128,4,150267:3:0:0:60:
182,192,149921,128,0,150267:0:0:0:0:
109,192,149921,128,0,150267:0:0:0:0:
256,192,150267,1,0,1:0:0:42:
36,192,150383,1,0,0:0:0:0:
475,192,150383,1,0,1:0:0:20:
182,192,150498,1,0,0:0:0:0:
329,192,150498,1,0,1:0:0:42:
36,192,150613,1,0,0:0:0:0:
475,192,150613,1,0,1:0:0:42:
109,192,150729,1,0,0:0:0:0:
402,192,150729,1,8,3:0:0:42:
182,192,150844,1,0,0:0:0:0:
329,192,150844,1,4,3:0:0:42:
109,192,150960,1,0,0:0:0:0:
402,192,150960,1,0,0:0:0:0:
36,192,150960,1,0,0:0:0:0:
475,192,150960,1,0,0:0:0:0:
256,192,150960,1,4,0:0:0:55:
182,192,151190,128,0,151767:0:0:0:0:
329,192,151190,128,0,151767:0:0:0:0:
256,192,151652,1,0,2:0:0:91:
182,192,151883,1,0,0:0:0:0:
329,192,151883,1,0,1:0:0:42:
256,192,151883,1,0,0:0:0:0:
36,192,152113,128,0,152344:0:0:0:0:
182,192,152229,128,0,152460:0:0:0:0:
329,192,152344,128,0,152575:0:0:0:0:
109,192,152460,128,0,152690:0:0:0:0:
256,192,152575,128,0,152806:0:0:0:0:
402,192,152690,128,0,152921:0:0:0:0:
36,192,152690,1,0,0:0:0:0:
182,192,152806,1,0,0:0:0:0:
329,192,152921,1,0,0:0:0:0:
475,192,153037,1,4,0:0:0:28:
36,192,153037,1,4,0:0:0:28:
256,192,153037,1,4,3:0:0:60:
109,192,153037,1,0,0:0:0:0:
329,192,153267,1,0,0:0:0:0:
109,192,153267,1,0,0:0:0:0:
402,192,153267,1,4,3:0:0:42:
36,192,153498,1,0,0:0:0:0:
475,192,153498,1,2,3:0:0:34:
256,192,153729,1,0,1:0:0:42:
402,192,153729,1,0,0:0:0:0:
109,192,153729,1,0,0:0:0:0:
329,192,153844,1,0,0:0:0:0:
182,192,153844,1,0,0:0:0:0:
402,192,153960,1,8,3:0:0:42:
109,192,153960,1,0,0:0:0:0:
329,192,154075,1,0,1:0:0:20:
182,192,154075,1,0,0:0:0:0:
36,192,154190,1,0,0:0:0:0:
475,192,154190,1,4,3:0:0:42:
109,192,154306,1,0,0:0:0:0:
402,192,154306,1,0,1:0:0:42:
182,192,154421,1,0,0:0:0:0:
329,192,154421,1,8,3:0:0:42:
36,192,154537,1,0,0:0:0:0:
475,192,154537,1,4,3:0:0:42:
402,192,154652,1,8,1:0:0:23:
329,192,154652,1,8,1:0:0:23:
109,192,154767,1,8,2:0:0:23:
182,192,154767,1,8,2:0:0:23:
402,192,154883,1,8,1:0:0:23:
329,192,154883,1,8,1:0:0:23:
109,192,154998,1,8,2:0:0:23:
182,192,154998,1,8,2:0:0:23:
475,192,155113,1,0,0:0:0:0:
36,192,155113,1,8,3:0:0:36:
402,192,155190,1,0,0:0:0:0:
109,192,155190,1,4,3:0:0:40:
329,192,155267,1,0,0:0:0:0:
182,192,155267,1,4,3:0:0:21:
36,192,155344,1,0,0:0:0:0:
475,192,155344,1,8,3:0:0:36:
109,192,155421,1,0,0:0:0:0:
402,192,155421,1,4,3:0:0:40:
182,192,155498,1,0,0:0:0:0:
329,192,155498,1,4,3:0:0:21:
36,192,155575,5,4,0:0:0:55:
475,192,155575,1,0,0:0:0:0:
402,192,155575,1,0,0:0:0:0:
109,192,155575,1,0,1:0:0:26:
256,192,155575,128,0,155806:0:0:0:0:
182,192,155806,1,0,0:0:0:0:
329,192,155921,1,0,0:0:0:0:
256,192,156037,128,0,156267:0:0:0:0:
109,192,156037,1,0,0:0:0:0:
402,192,156037,1,4,3:0:0:82:
329,192,156267,1,0,0:0:0:0:
256,192,156383,128,0,156613:0:0:0:0:
475,192,156498,1,0,1:0:0:13:
36,192,156498,1,0,1:0:0:13:
182,192,156498,1,0,0:0:0:0:
329,192,156613,1,0,0:0:0:0:
256,192,156729,128,0,157883:0:0:0:0:
402,192,156844,1,0,0:0:0:0:
329,192,156960,1,0,0:0:0:0:
109,192,156960,1,4,3:0:0:82:
475,192,157075,1,0,0:0:0:0:
182,192,157190,1,2,3:0:0:34:
329,192,157421,1,0,1:0:0:13:
475,192,157421,1,0,1:0:0:13:
36,192,157421,1,0,0:0:0:0:
182,192,157537,1,0,0:0:0:0:
402,192,157652,1,0,0:0:0:0:
109,192,157767,1,0,0:0:0:0:
329,192,157883,1,0,0:0:0:0:
36,192,157883,1,4,3:0:0:82:
402,192,157998,1,0,0:0:0:0:
109,192,158113,1,0,0:0:0:0:
182,192,158152,1,0,0:0:0:0:
256,192,158229,1,0,0:0:0:0:
402,192,158306,1,0,0:0:0:0:
329,192,158344,1,0,0:0:0:0:
36,192,158344,1,0,1:0:0:13:
109,192,158344,1,0,1:0:0:13:
182,192,158575,1,0,0:0:0:0:
402,192,158575,1,0,0:0:0:0:
329,192,158806,1,0,0:0:0:0:
475,192,158806,128,0,159498:0:0:0:0:
109,192,158806,1,4,3:0:0:82:
256,192,159037,1,2,3:0:0:34:
36,192,159037,1,0,0:0:0:0:
182,192,159267,1,0,0:0:0:0:
109,192,159267,1,0,1:0:0:13:
402,192,159267,1,0,1:0:0:13:
329,192,159498,1,0,0:0:0:0:
36,192,159498,1,0,0:0:0:0:
109,192,159729,1,4,3:0:0:82:
475,192,159729,128,0,159960:0:0:0:0:
329,192,159844,1,0,0:0:0:0:
182,192,159960,1,0,0:0:0:0:
475,192,160075,128,0,160306:0:0:0:0:
256,192,160190,1,0,1:0:0:13:
109,192,160190,1,0,1:0:0:13:
36,192,160190,1,0,0:0:0:0:
475,192,160421,128,0,161575:0:0:0:0:
329,192,160421,1,0,0:0:0:0:
182,192,160652,1,0,0:0:0:0:
36,192,160652,1,4,3:0:0:82:
109,192,160883,1,0,0:0:0:0:
256,192,160883,1,2,3:0:0:34:
182,192,161113,1,0,0:0:0:0:
36,192,161113,1,0,1:0:0:13:
329,192,161113,1,0,1:0:0:13:
402,192,161344,1,0,0:0:0:0:
256,192,161344,1,0,0:0:0:0:
182,192,161575,5,0,0:0:0:0:
329,192,161575,5,4,3:0:0:82:
402,192,161690,1,0,0:0:0:0:
109,192,161806,1,0,0:0:0:0:
256,192,161806,1,8,3:0:0:66:
329,192,162037,1,0,0:0:0:0:
36,192,162037,1,0,0:0:0:0:
182,192,162037,1,0,1:0:0:26:
402,192,162152,1,0,0:0:0:0:
109,192,162152,1,4,3:0:0:55:
256,192,162267,1,8,3:0:0:66:
182,192,162344,1,0,0:0:0:0:
329,192,162421,1,0,0:0:0:0:
475,192,162498,5,4,3:0:0:60:
36,192,162498,1,4,0:0:0:55:
402,192,162498,1,0,0:0:0:0:
109,192,162498,1,0,0:0:0:0:
182,192,162613,1,0,0:0:0:0:
36,192,162729,1,0,0:0:0:0:
182,192,162844,1,0,0:0:0:0:
256,192,162960,1,0,0:0:0:0:
402,192,162960,1,0,1:0:0:13:
109,192,162960,1,0,1:0:0:13:
329,192,163075,1,0,0:0:0:0:
475,192,163190,1,0,0:0:0:0:
329,192,163306,1,0,0:0:0:0:
402,192,163421,1,0,0:0:0:0:
109,192,163421,1,4,3:0:0:82:
182,192,163537,1,0,0:0:0:0:
36,192,163652,1,0,0:0:0:0:
182,192,163767,1,0,0:0:0:0:
256,192,163883,1,0,0:0:0:0:
109,192,163883,1,0,1:0:0:13:
402,192,163883,1,0,1:0:0:13:
36,192,163998,128,0,164344:0:0:0:0:
109,192,164056,128,0,164344:0:0:0:0:
182,192,164113,128,0,164344:0:0:0:0:
329,192,164190,128,0,164344:0:0:0:0:
402,192,164267,128,0,164344:0:0:0:0:
475,192,164344,1,0,0:0:0:0:
256,192,164344,1,4,3:0:0:82:
182,192,164460,1,0,0:0:0:0:
36,192,164575,5,0,0:0:0:0:
182,192,164690,1,0,0:0:0:0:
256,192,164806,1,0,0:0:0:0:
402,192,164806,1,0,1:0:0:13:
109,192,164806,1,0,1:0:0:13:
329,192,164921,1,0,0:0:0:0:
475,192,165037,1,0,0:0:0:0:
329,192,165152,1,0,0:0:0:0:
402,192,165267,1,0,0:0:0:0:
109,192,165267,1,4,3:0:0:82:
182,192,165383,1,0,0:0:0:0:
36,192,165498,1,0,0:0:0:0:
182,192,165613,1,0,0:0:0:0:
402,192,165729,5,0,1:0:0:26:
109,192,165729,1,4,0:0:0:55:
256,192,165729,1,0,0:0:0:0:
182,192,165960,1,4,0:0:0:40:
329,192,165960,1,0,0:0:0:0:
36,192,165960,1,0,0:0:0:0:
402,192,166190,1,4,3:0:0:82:
109,192,166190,1,4,0:0:0:22:
256,192,166190,1,0,0:0:0:0:
182,192,166306,128,0,166421:0:0:0:0:
475,192,166421,128,0,166537:0:0:0:0:
109,192,166537,128,0,166652:0:0:0:0:
402,192,166652,128,0,166767:0:0:0:0:
36,192,166767,128,0,166883:0:0:0:0:
329,192,166883,128,0,166998:0:0:0:0:
109,192,166998,128,0,167113:0:0:0:0:
402,192,167113,128,0,167229:0:0:0:0:
182,192,167229,128,0,167344:0:0:0:0:
475,192,167344,128,0,167460:0:0:0:0:
109,192,167460,128,0,167575:0:0:0:0:
402,192,167575,128,0,167690:0:0:0:0:
36,192,167690,128,0,167806:0:0:0:0:
475,192,167806,1,0,0:0:0:0:
182,192,167806,1,0,0:0:0:0:
402,192,167921,1,0,0:0:0:0:
109,192,167921,1,0,0:0:0:0:
329,192,168037,1,0,0:0:0:0:
36,192,168037,1,0,0:0:0:0:
182,192,168152,1,0,0:0:0:0:
256,192,168152,1,0,0:0:0:0:
329,192,168267,1,0,0:0:0:0:
36,192,168267,1,0,0:0:0:0:
402,192,168383,1,0,0:0:0:0:
109,192,168383,1,0,0:0:0:0:
182,192,168498,1,0,0:0:0:0:
475,192,168498,1,0,0:0:0:0:
256,192,168613,1,0,0:0:0:0:
329,192,168613,1,0,0:0:0:0:
475,192,168729,1,0,0:0:0:0:
182,192,168729,1,0,0:0:0:0:
402,192,168844,1,0,0:0:0:0:
109,192,168844,1,0,0:0:0:0:
329,192,168960,1,0,0:0:0:0:
36,192,168960,1,0,0:0:0:0:
256,192,169075,1,0,0:0:0:0:
182,192,169075,1,0,0:0:0:0:
475,192,169190,1,0,0:0:0:0:
329,192,169267,1,0,0:0:0:0:
182,192,169344,1,0,0:0:0:0:
36,192,169421,1,0,0:0:0:0:
475,192,169421,1,0,0:0:0:0:
402,192,169498,1,0,0:0:0:0:
109,192,169537,1,4,3:0:0:55:
329,192,169575,1,0,0:0:0:0:
475,192,169652,1,8,3:0:0:66:
256,192,169652,1,0,0:0:0:0:
182,192,169729,1,0,0:0:0:0:
402,192,169767,1,4,3:0:0:55:
109,192,169806,1,0,0:0:0:0:
36,192,169883,1,0,0:0:0:0:
329,192,169883,1,8,3:0:0:36:
109,192,169960,1,0,0:0:0:0:
402,192,169960,1,4,3:0:0:40:
182,192,170037,1,0,0:0:0:0:
475,192,170037,1,4,3:0:0:21:
36,192,170113,1,0,0:0:0:0:
256,192,170113,1,8,3:0:0:36:
109,192,170190,1,0,0:0:0:0:
329,192,170190,1,4,3:0:0:40:
182,192,170267,1,0,0:0:0:0:
402,192,170267,1,4,3:0:0:21:
256,192,170344,5,0,0:0:0:0:
36,192,170344,1,4,0:0:0:55:
475,192,170344,128,0,170575:1:0:0:26:
329,192,170344,1,0,0:0:0:0:
109,192,170344,1,0,0:0:0:0:
402,192,170575,1,0,0:0:0:0:
182,192,170690,1,0,0:0:0:0:
36,192,170806,1,4,3:0:0:82:
475,192,170806,128,0,171037:0:0:0:0:
256,192,170806,1,0,0:0:0:0:
402,192,171037,1,0,0:0:0:0:
182,192,171152,1,0,0:0:0:0:
475,192,171152,128,0,171383:0:0:0:0:
36,192,171267,1,0,1:0:0:13:
256,192,171267,1,0,1:0:0:13:
475,192,171498,128,0,172652:0:0:0:0:
109,192,171498,1,0,0:0:0:0:
329,192,171729,1,0,0:0:0:0:
182,192,171729,1,4,3:0:0:82:
256,192,171960,1,2,3:0:0:34:
402,192,172190,1,0,0:0:0:0:
182,192,172190,1,0,1:0:0:13:
36,192,172190,1,0,1:0:0:13:
256,192,172306,1,0,0:0:0:0:
109,192,172421,1,0,0:0:0:0:
402,192,172537,1,0,1:0:0:13:
329,192,172652,1,0,0:0:0:0:
182,192,172652,1,4,3:0:0:82:
36,192,172767,1,0,1:0:0:13:
182,192,172883,1,8,3:0:0:24:
256,192,172921,1,0,0:0:0:0:
109,192,172998,1,4,3:0:0:24:
402,192,173075,1,0,0:0:0:0:
329,192,173113,1,0,0:0:0:0:
36,192,173113,1,0,1:0:0:13:
182,192,173113,1,0,1:0:0:13:
475,192,173229,1,8,3:0:0:24:
109,192,173344,1,0,1:0:0:13:
256,192,173460,1,4,3:0:0:24:
402,192,173575,1,4,3:0:0:82:
182,192,173575,128,0,174267:0:0:0:0:
36,192,173806,1,0,0:0:0:0:
329,192,173806,1,2,3:0:0:34:
256,192,174037,1,0,0:0:0:0:
402,192,174037,1,0,1:0:0:13:
109,192,174037,1,0,1:0:0:13:
329,192,174267,1,0,0:0:0:0:
36,192,174383,1,0,0:0:0:0:
402,192,174498,1,0,0:0:0:0:
182,192,174498,128,4,174729:3:0:0:82:
475,192,174613,1,0,0:0:0:0:
109,192,174729,1,0,0:0:0:0:
329,192,174844,1,0,0:0:0:0:
182,192,174844,128,0,175075:0:0:0:0:
36,192,174960,1,0,1:0:0:13:
402,192,174960,1,0,1:0:0:13:
256,192,175075,1,0,0:0:0:0:
182,192,175190,128,0,176344:0:0:0:0:
475,192,175190,1,0,0:0:0:0:
329,192,175421,1,0,0:0:0:0:
109,192,175421,1,4,3:0:0:82:
256,192,175652,1,0,0:0:0:0:
402,192,175652,1,2,3:0:0:34:
475,192,175883,1,0,0:0:0:0:
329,192,175883,1,0,1:0:0:13:
36,192,175883,1,0,1:0:0:13:
256,192,176113,1,0,0:0:0:0:
402,192,176229,1,0,0:0:0:0:
475,192,176344,5,0,0:0:0:0:
36,192,176344,1,4,3:0:0:82:
329,192,176460,1,0,0:0:0:0:
109,192,176575,1,8,3:0:0:66:
256,192,176690,1,0,0:0:0:0:
402,192,176806,1,0,1:0:0:13:
475,192,176806,1,0,1:0:0:13:
36,192,176806,1,0,0:0:0:0:
109,192,176883,1,0,0:0:0:0:
329,192,176921,1,0,1:0:0:13:
182,192,176960,1,0,0:0:0:0:
256,192,177037,1,8,3:0:0:66:
36,192,177037,1,0,0:0:0:0:
329,192,177113,1,0,0:0:0:0:
109,192,177152,1,4,3:0:0:55:
402,192,177190,1,0,0:0:0:0:
256,192,177267,1,4,3:0:0:60:
36,192,177267,128,4,177613:0:0:0:55:
475,192,177267,128,0,177613:0:0:0:0:
182,192,177267,1,0,0:0:0:0:
402,192,177613,128,0,177960:0:0:0:0:
109,192,177613,128,0,177960:0:0:0:0:
36,192,177960,1,0,0:0:0:0:
329,192,177960,1,0,1:0:0:33:
182,192,178037,1,4,3:0:0:54:
475,192,178113,1,0,3:0:0:33:
109,192,178190,1,0,0:0:0:0:
402,192,178190,1,0,0:0:0:0:
256,192,178190,1,0,1:0:0:50:
329,192,178421,1,4,3:0:0:42:
182,192,178537,1,0,0:0:0:0:
402,192,178537,1,8,3:0:0:42:
36,192,178652,1,0,0:0:0:0:
256,192,178652,1,4,3:0:0:42:
475,192,178767,1,8,3:0:0:42:
182,192,178883,1,0,0:0:0:0:
329,192,178883,1,8,3:0:0:42:
256,192,179113,1,0,0:0:0:0:
402,192,179113,128,0,179460:0:0:0:0:
109,192,179113,128,0,179460:0:0:0:0:
329,192,179460,128,0,179806:0:0:0:0:
182,192,179460,128,0,179806:0:0:0:0:
36,192,179806,1,0,0:0:0:0:
256,192,179806,1,8,3:0:0:20:
182,192,179921,1,4,3:0:0:20:
109,192,180037,1,0,0:0:0:0:
329,192,180037,1,0,1:0:0:42:
256,192,180152,1,0,1:0:0:42:
182,192,180267,1,0,0:0:0:0:
36,192,180267,1,0,0:0:0:0:
402,192,180267,1,8,3:0:0:42:
109,192,180383,1,0,0:0:0:0:
329,192,180383,1,4,3:0:0:42:
182,192,180498,1,0,0:0:0:0:
256,192,180498,1,0,0:0:0:0:
475,192,180498,1,4,0:0:0:55:
36,192,180729,128,0,181306:0:0:0:0:
329,192,180729,128,0,181306:0:0:0:0:
182,192,181190,1,0,2:0:0:91:
36,192,181421,1,0,0:0:0:0:
182,192,181421,1,0,0:0:0:0:
329,192,181421,1,0,1:0:0:42:
36,192,181652,1,0,0:0:0:0:
329,192,181652,1,8,3:0:0:42:
109,192,181767,1,0,0:0:0:0:
475,192,181767,1,0,1:0:0:42:
182,192,181883,1,0,0:0:0:0:
329,192,181883,1,4,3:0:0:42:
36,192,181998,1,0,0:0:0:0:
475,192,181998,1,0,0:0:0:0:
109,192,182113,1,0,0:0:0:0:
402,192,182113,1,0,0:0:0:0:
329,192,182229,1,0,0:0:0:0:
182,192,182229,1,0,0:0:0:0:
402,192,182344,1,0,0:0:0:0:
475,192,182344,1,0,1:0:0:42:
109,192,182344,1,0,0:0:0:0:
36,192,182460,1,0,0:0:0:0:
402,192,182575,1,0,0:0:0:0:
329,192,182575,1,0,0:0:0:0:
256,192,182575,1,4,0:0:0:55:
182,192,182575,1,4,3:0:0:60:
109,192,182806,5,0,0:0:0:0:
475,192,182806,1,4,3:0:0:42:
402,192,183037,1,2,3:0:0:34:
256,192,183267,1,0,0:0:0:0:
36,192,183267,1,0,0:0:0:0:
329,192,183267,1,0,1:0:0:42:
109,192,183498,1,0,0:0:0:0:
402,192,183498,1,8,3:0:0:42:
182,192,183613,1,0,0:0:0:0:
475,192,183729,1,4,3:0:0:42:
329,192,183844,1,0,0:0:0:0:
402,192,183844,1,0,0:0:0:0:
109,192,183844,1,0,1:0:0:42:
256,192,183960,1,8,3:0:0:42:
475,192,184075,1,4,3:0:0:42:
36,192,184190,5,0,0:0:0:0:
109,192,184190,1,8,1:0:0:45:
329,192,184306,1,0,0:0:0:0:
402,192,184306,1,8,2:0:0:45:
109,192,184421,1,0,0:0:0:0:
182,192,184421,1,8,1:0:0:45:
402,192,184537,1,0,0:0:0:0:
475,192,184537,1,8,2:0:0:45:
329,192,184652,1,0,0:0:0:0:
182,192,184652,1,8,3:0:0:36:
402,192,184729,1,0,0:0:0:0:
109,192,184729,1,4,3:0:0:40:
475,192,184806,1,0,0:0:0:0:
36,192,184806,1,4,3:0:0:21:
182,192,184883,1,0,0:0:0:0:
329,192,184883,1,8,3:0:0:36:
109,192,184960,1,0,0:0:0:0:
402,192,184960,1,4,3:0:0:40:
36,192,185037,1,0,0:0:0:0:
475,192,185037,1,4,3:0:0:21:
182,192,185113,5,4,0:0:0:55:
329,192,185113,1,0,0:0:0:0:
402,192,185113,1,0,0:0:0:0:
256,192,185113,1,0,1:0:0:26:
109,192,185113,1,0,0:0:0:0:
