osu file format v14

[General]
AudioFilename: Toni Leys - Freedom Planet - Dragon Valley (Toni Leys Remix feat. Esteban Bellucci) (1)_01.mp3
AudioLeadIn: 0
PreviewTime: 147267
Countdown: 0
SampleSet: Soft
StackLeniency: 0.7
Mode: 3
LetterboxInBreaks: 0
SpecialStyle: 0
WidescreenStoryboard: 0

[Editor]
Bookmarks: 7421,14806,22190,29575,44344,59575,74344,88652,96037,111267,126037,147729,155575,170344,185113
DistanceSpacing: 1
BeatDivisor: 4
GridSize: 8
TimelineZoom: 1.4

[Metadata]
Title:Dragon Valley (Toni Leys Remix feat. Esteban Bellucci)
TitleUnicode:Dragon Valley (Toni Leys Remix feat. Esteban Bellucci)
Artist:Toni Leys
ArtistUnicode:Toni Leys
Creator:LordRaika
Version:Easy
Source:Freedom Planet
Tags:mbc11 mapping contest monthly beatmapping
BeatmapID:841214
BeatmapSetID:385056

[Difficulty]
HPDrainRate:7
CircleSize:7
OverallDifficulty:7
ApproachRate:5
SliderMultiplier:1.4
SliderTickRate:1

[Events]
//Background and Video events
0,0,"BG.jpg",0,0
//Break Periods
//Storyboard Layer 0 (Background)
//Storyboard Layer 1 (Fail)
//Storyboard Layer 2 (Pass)
//Storyboard Layer 3 (Foreground)
//Storyboard Sound Samples

[TimingPoints]
37,461.538461538462,4,2,0,9,1,0
59575,-100,4,2,0,9,0,1
88652,-100,4,2,0,9,0,0
96498,-100,4,2,0,12,0,0
110806,-100,4,2,0,9,0,0
126037,-100,4,2,0,9,0,1
126152,-100,4,2,0,9,0,0
155575,-100,4,2,0,9,0,1
185113,-100,4,2,0,9,0,0

[HitObjects]
182,192,37,5,4,0:0:0:55:
329,192,37,128,4,960:3:0:0:60:
475,192,960,128,4,1306:0:0:0:55:
329,192,1306,128,0,1652:1:0:0:35:
182,192,1652,128,4,2690:0:0:0:55:
109,192,2690,1,0,1:0:0:43:
182,192,3152,1,4,3:0:0:75:
256,192,3498,1,4,3:0:0:56:
329,192,3729,1,4,0:0:0:55:
182,192,3729,128,4,4652:3:0:0:60:
36,192,4652,128,4,4998:0:0:0:55:
182,192,4998,128,0,5344:1:0:0:35:
329,192,5344,128,4,6498:0:0:0:55:
182,192,6498,1,0,1:0:0:50:
329,192,6960,1,0,1:0:0:40:
256,192,7190,1,0,2:0:0:91:
475,192,7421,1,4,3:0:0:60:
36,192,7421,128,4,7767:0:0:0:55:
109,192,7767,128,2,8113:0:0:0:0:
182,192,8113,128,0,8806:3:0:0:33:
329,192,8806,1,2,0:0:0:0:
402,192,9037,1,2,0:0:0:0:
475,192,9267,1,4,3:0:0:60:
36,192,9267,128,4,9613:0:0:0:55:
109,192,9613,128,2,9960:0:0:0:0:
182,192,9960,128,2,12498:0:0:0:0:
475,192,10421,128,2,10652:0:0:0:0:
402,192,10652,128,2,10883:0:0:0:0:
329,192,10883,128,4,12498:0:0:0:55:
256,192,12498,1,0,1:0:0:47:
475,192,12729,1,4,3:0:0:60:
36,192,12729,1,4,0:0:0:55:
256,192,13190,1,0,1:0:0:30:
182,192,13421,1,4,3:0:0:28:
329,192,13421,1,4,3:0:0:28:
402,192,13652,128,4,14113:3:0:0:60:
109,192,13652,128,4,14113:0:0:0:55:
36,192,14113,128,4,14806:1:0:0:40:
475,192,14113,128,4,14806:0:0:0:55:
256,192,14806,128,8,18498:3:0:0:44:
36,192,18498,1,4,3:0:0:82:
475,192,18960,1,8,2:0:0:31:
36,192,19421,1,4,3:0:0:82:
256,192,19652,1,2,3:0:0:34:
475,192,19883,1,8,1:0:0:33:
36,192,20344,1,4,3:0:0:82:
36,192,20575,1,4,3:0:0:51:
475,192,20806,1,8,2:0:0:31:
36,192,21267,1,4,3:0:0:82:
256,192,21498,1,2,3:0:0:34:
475,192,21729,1,8,1:0:0:23:
475,192,21960,1,8,1:0:0:23:
109,192,22190,1,4,3:0:0:82:
402,192,22652,1,0,1:0:0:21:
182,192,23113,1,4,3:0:0:82:
329,192,23575,1,0,1:0:0:21:
109,192,24037,1,4,3:0:0:82:
256,192,24267,1,2,3:0:0:34:
402,192,24498,1,0,1:0:0:21:
182,192,24960,1,4,3:0:0:82:
329,192,25421,1,0,1:0:0:21:
109,192,25883,1,4,3:0:0:82:
256,192,26113,1,2,3:0:0:34:
402,192,26344,1,0,1:0:0:21:
36,192,26806,1,4,3:0:0:82:
475,192,27267,1,0,1:0:0:21:
36,192,27729,1,4,3:0:0:82:
256,192,27960,1,2,3:0:0:34:
475,192,28190,1,0,1:0:0:21:
256,192,28883,1,0,2:0:0:91:
109,192,29113,1,2,3:0:0:21:
402,192,29113,1,0,1:0:0:21:
36,192,29575,5,4,0:0:0:55:
475,192,29575,1,4,3:0:0:82:
182,192,30037,1,2,0:0:0:0:
329,192,30498,1,2,0:0:0:0:
182,192,30844,1,2,0:0:0:0:
402,192,31190,128,2,31767:0:0:0:0:
329,192,31767,1,2,0:0:0:0:
256,192,32113,128,2,33267:0:0:0:0:
109,192,33267,1,2,0:0:0:0:
182,192,33613,1,2,0:0:0:0:
109,192,33960,1,2,0:0:0:0:
256,192,34306,1,2,0:0:0:0:
36,192,34652,1,2,0:0:0:0:
109,192,34883,1,2,0:0:0:0:
182,192,35113,1,2,0:0:0:0:
329,192,35460,1,2,0:0:0:0:
475,192,35806,128,2,36498:0:0:0:0:
182,192,36498,1,0,1:0:0:26:
329,192,36729,1,2,0:0:0:0:
36,192,36960,5,4,0:0:0:55:
475,192,36960,1,2,0:0:0:0:
182,192,37652,1,2,0:0:0:0:
256,192,37883,1,2,0:0:0:0:
402,192,38229,1,2,0:0:0:0:
109,192,38575,1,2,0:0:0:0:
182,192,38806,1,2,0:0:0:0:
329,192,39152,1,2,0:0:0:0:
402,192,39498,128,2,40421:0:0:0:0:
36,192,40421,1,2,0:0:0:0:
109,192,40652,1,2,0:0:0:0:
329,192,40998,1,2,0:0:0:0:
109,192,41344,1,2,0:0:0:0:
182,192,41575,1,2,0:0:0:0:
402,192,41921,1,2,0:0:0:0:
256,192,42267,1,2,0:0:0:0:
182,192,42498,128,2,43421:0:0:0:0:
109,192,43421,1,0,1:0:0:26:
402,192,43421,1,4,3:0:0:57:
402,192,43883,1,8,3:0:0:57:
109,192,43883,1,0,1:0:0:26:
36,192,44344,5,4,0:0:0:55:
475,192,44344,1,4,3:0:0:82:
182,192,44806,1,2,0:0:0:0:
256,192,45267,1,2,0:0:0:0:
182,192,45613,1,2,0:0:0:0:
329,192,45960,128,2,46537:0:0:0:0:
256,192,46537,1,2,0:0:0:0:
182,192,46883,128,2,48037:0:0:0:0:
109,192,48037,1,2,0:0:0:0:
402,192,48383,1,2,0:0:0:0:
109,192,48729,1,2,0:0:0:0:
329,192,49075,1,2,0:0:0:0:
36,192,49421,1,2,0:0:0:0:
109,192,49652,1,2,0:0:0:0:
182,192,49883,1,2,0:0:0:0:
329,192,50229,1,2,0:0:0:0:
475,192,50575,128,2,51267:0:0:0:0:
182,192,51267,1,0,1:0:0:26:
329,192,51498,1,2,0:0:0:0:
109,192,51729,5,4,0:0:0:55:
402,192,51729,1,2,0:0:0:0:
36,192,52421,1,2,0:0:0:0:
109,192,52652,1,2,0:0:0:0:
402,192,52998,1,2,0:0:0:0:
182,192,53344,1,2,0:0:0:0:
109,192,53575,1,2,0:0:0:0:
475,192,53921,1,2,0:0:0:0:
329,192,54267,128,2,55190:0:0:0:0:
109,192,55190,1,2,0:0:0:0:
182,192,55421,1,2,0:0:0:0:
36,192,55767,1,2,0:0:0:0:
402,192,56113,1,2,0:0:0:0:
329,192,56344,1,2,0:0:0:0:
475,192,56690,1,2,0:0:0:0:
182,192,57037,1,2,0:0:0:0:
109,192,57267,128,2,58190:0:0:0:0:
182,192,58190,1,0,1:0:0:26:
329,192,58190,1,4,3:0:0:57:
182,192,58652,1,0,1:0:0:26:
329,192,58652,1,8,3:0:0:57:
256,192,59113,1,8,3:0:0:36:
256,192,59344,1,8,3:0:0:36:
36,192,59575,5,4,0:0:0:55:
475,192,59575,1,0,1:0:0:26:
36,192,60037,1,2,0:0:0:0:
109,192,60498,1,2,0:0:0:0:
402,192,60498,1,2,0:0:0:0:
182,192,60729,128,2,61883:0:0:0:0:
402,192,61421,1,0,1:0:0:26:
36,192,61883,1,4,3:0:0:82:
329,192,62344,1,0,1:0:0:26:
182,192,62806,128,2,63498:0:0:0:0:
329,192,63267,1,0,1:0:0:26:
182,192,63729,1,2,0:0:0:0:
329,192,64190,1,2,0:0:0:0:
182,192,64190,1,2,0:0:0:0:
36,192,64421,128,2,65575:0:0:0:0:
329,192,65113,1,0,1:0:0:26:
109,192,65575,1,4,3:0:0:82:
402,192,65806,1,8,3:0:0:66:
182,192,66037,1,0,1:0:0:26:
329,192,66267,1,8,3:0:0:66:
475,192,66498,1,2,0:0:0:0:
36,192,66498,1,4,0:0:0:55:
329,192,66844,1,2,0:0:0:0:
182,192,66844,1,2,0:0:0:0:
475,192,67190,128,2,67883:0:0:0:0:
36,192,67190,128,2,67883:0:0:0:0:
256,192,67883,128,2,68344:0:0:0:0:
109,192,68344,1,2,0:0:0:0:
402,192,68344,1,2,0:0:0:0:
329,192,68690,1,2,0:0:0:0:
182,192,68690,1,2,0:0:0:0:
109,192,69037,1,2,0:0:0:0:
402,192,69037,1,2,0:0:0:0:
256,192,69498,1,2,0:0:0:0:
182,192,69729,1,2,0:0:0:0:
329,192,69729,1,2,0:0:0:0:
475,192,69960,128,2,71575:0:0:0:0:
36,192,69960,128,2,71575:0:0:0:0:
256,192,70652,1,0,1:0:0:26:
256,192,71575,1,0,1:0:0:26:
109,192,71806,128,0,72960:0:0:0:0:
402,192,71806,128,2,72960:0:0:0:0:
256,192,72498,1,0,1:0:0:26:
329,192,72960,1,4,3:0:0:57:
329,192,73421,1,8,3:0:0:57:
182,192,73883,1,8,3:0:0:36:
182,192,74113,1,8,3:0:0:36:
475,192,74344,5,4,0:0:0:55:
329,192,74344,1,0,1:0:0:26:
475,192,74806,1,2,0:0:0:0:
475,192,75267,1,2,0:0:0:0:
182,192,75267,1,2,0:0:0:0:
329,192,75498,128,2,76652:0:0:0:0:
182,192,76190,1,0,1:0:0:26:
402,192,76652,1,4,3:0:0:82:
109,192,77113,1,0,1:0:0:26:
329,192,77575,128,2,78267:0:0:0:0:
109,192,78037,1,0,1:0:0:26:
329,192,78498,1,2,0:0:0:0:
329,192,78960,1,2,0:0:0:0:
36,192,78960,1,2,0:0:0:0:
475,192,79190,128,2,80344:0:0:0:0:
36,192,79883,1,0,1:0:0:26:
109,192,80344,1,4,3:0:0:82:
329,192,80575,1,8,3:0:0:66:
182,192,80806,1,0,1:0:0:26:
329,192,81037,1,8,3:0:0:66:
36,192,81267,1,4,0:0:0:55:
475,192,81267,128,4,81613:3:0:0:60:
402,192,81613,128,0,81960:0:0:0:0:
329,192,81960,128,0,83113:0:0:0:0:
36,192,83113,128,4,83460:3:0:0:60:
475,192,83113,1,4,0:0:0:55:
109,192,83460,128,2,83806:0:0:0:0:
182,192,83806,128,2,84267:0:0:0:0:
329,192,84267,1,2,0:0:0:0:
402,192,84498,1,4,0:0:0:55:
475,192,84729,128,2,86575:0:0:0:0:
36,192,84729,1,2,0:0:0:0:
109,192,85421,1,0,1:0:0:42:
109,192,86344,1,0,1:0:0:42:
402,192,86575,128,4,88190:0:0:0:25:
109,192,87267,1,0,1:0:0:42:
329,192,88190,1,8,1:0:0:23:
182,192,88190,1,8,1:0:0:23:
329,192,88421,1,8,1:0:0:23:
182,192,88421,1,8,1:0:0:23:
256,192,88652,5,4,3:0:0:52:
36,192,89113,1,8,2:0:0:31:
182,192,89575,1,4,3:0:0:52:
329,192,89806,1,2,3:0:0:31:
475,192,90037,1,8,1:0:0:33:
329,192,90498,1,4,3:0:0:52:
329,192,90729,1,4,3:0:0:33:
36,192,90960,1,8,2:0:0:31:
182,192,91421,1,4,3:0:0:52:
329,192,91652,1,2,3:0:0:34:
182,192,91883,1,4,3:0:0:33:
475,192,91998,1,8,1:0:0:23:
329,192,92344,1,4,3:0:0:52:
36,192,92806,1,8,2:0:0:31:
182,192,93267,1,4,3:0:0:52:
329,192,93498,1,2,3:0:0:34:
475,192,93729,1,8,1:0:0:33:
329,192,94190,1,4,3:0:0:52:
329,192,94421,1,4,3:0:0:33:
36,192,94652,1,8,2:0:0:31:
329,192,95113,1,4,3:0:0:52:
182,192,95344,1,2,3:0:0:34:
36,192,95575,1,8,1:0:0:23:
36,192,95806,1,8,1:0:0:23:
475,192,96037,128,10,97883:2:0:0:22:
182,192,97883,128,2,99729:0:0:0:0:
402,192,99729,128,2,101575:0:0:0:0:
109,192,101575,128,2,102498:0:0:0:0:
182,192,102498,128,2,103421:0:0:0:0:
36,192,103421,128,2,104344:0:0:0:0:
329,192,103421,1,2,0:0:0:0:
109,192,104344,128,2,105267:0:0:0:0:
402,192,104344,1,2,0:0:0:0:
182,192,105267,128,2,106190:0:0:0:0:
475,192,105267,1,2,0:0:0:0:
256,192,106190,128,2,107113:0:0:0:0:
36,192,106190,1,2,0:0:0:0:
329,192,107113,128,2,108037:0:0:0:0:
182,192,107113,128,2,108037:0:0:0:0:
402,192,108037,128,2,108960:0:0:0:0:
109,192,108037,128,2,108960:0:0:0:0:
475,192,108960,128,2,110344:0:0:0:0:
36,192,108960,128,2,110344:0:0:0:0:
182,192,110806,1,4,0:0:0:55:
256,192,110960,5,8,3:0:0:60:
329,192,111113,5,8,3:0:0:80:
109,192,111267,1,0,1:0:0:13:
182,192,111267,1,0,1:0:0:13:
329,192,111729,1,4,3:0:0:82:
182,192,112190,1,0,1:0:0:26:
475,192,112652,128,4,114498:3:0:0:82:
182,192,113113,1,0,1:0:0:26:
36,192,113575,1,4,3:0:0:82:
182,192,114037,1,0,1:0:0:26:
329,192,114498,128,4,116344:3:0:0:82:
109,192,114960,1,0,1:0:0:26:
36,192,115421,1,4,3:0:0:82:
109,192,115883,1,0,1:0:0:26:
182,192,116344,128,4,118190:3:0:0:82:
475,192,116806,1,0,1:0:0:26:
402,192,117267,1,4,3:0:0:82:
402,192,117729,1,8,3:0:0:82:
36,192,118190,128,4,120037:3:0:0:82:
475,192,118190,1,4,2:0:0:55:
329,192,118652,1,0,1:0:0:26:
402,192,119113,1,4,3:0:0:82:
329,192,119575,1,0,1:0:0:26:
182,192,120037,128,4,121883:3:0:0:82:
402,192,120498,1,0,1:0:0:26:
475,192,120960,1,4,3:0:0:82:
402,192,121421,1,0,1:0:0:26:
329,192,121883,128,4,122806:3:0:0:82:
36,192,122344,1,0,1:0:0:26:
402,192,122806,128,4,123729:3:0:0:82:
109,192,123267,1,0,1:0:0:26:
475,192,123729,128,4,124652:3:0:0:82:
182,192,124190,1,0,1:0:0:26:
109,192,124652,1,0,0:0:0:0:
402,192,124652,1,4,3:0:0:57:
182,192,125113,1,8,3:0:0:57:
329,192,125113,1,0,0:0:0:0:
256,192,125575,1,8,3:0:0:36:
256,192,125806,1,8,3:0:0:36:
36,192,126037,5,4,0:0:0:55:
475,192,126037,128,0,128113:1:0:0:26:
109,192,126960,1,0,1:0:0:26:
182,192,127883,1,0,1:0:0:26:
402,192,128113,128,0,129037:0:0:0:0:
109,192,128806,1,0,1:0:0:26:
329,192,129037,128,0,129960:0:0:0:0:
36,192,129729,1,0,1:0:0:26:
256,192,129960,128,0,130883:0:0:0:0:
475,192,130652,1,0,1:0:0:26:
182,192,130883,128,0,131575:0:0:0:0:
256,192,131575,1,0,1:0:0:26:
402,192,131806,1,0,0:0:0:0:
182,192,132037,1,4,3:0:0:82:
329,192,132267,1,8,3:0:0:66:
182,192,132498,1,0,1:0:0:26:
329,192,132729,1,8,3:0:0:66:
475,192,132960,1,2,0:0:0:0:
36,192,132960,1,4,0:0:0:55:
329,192,133421,1,0,0:0:0:0:
182,192,133421,1,0,0:0:0:0:
475,192,133883,1,0,0:0:0:0:
36,192,133883,1,0,0:0:0:0:
256,192,134344,128,0,134806:1:0:0:26:
182,192,134806,1,2,0:0:0:0:
329,192,134806,1,2,0:0:0:0:
256,192,135267,128,0,135729:0:0:0:0:
109,192,135729,1,0,0:0:0:0:
402,192,135729,1,0,0:0:0:0:
256,192,135960,128,0,136421:0:0:0:0:
36,192,136421,128,2,138037:0:0:0:0:
475,192,136421,128,2,138037:0:0:0:0:
329,192,137113,1,0,1:0:0:26:
329,192,138037,1,0,1:0:0:26:
256,192,138267,128,2,138729:0:0:0:0:
182,192,138729,1,0,0:0:0:0:
402,192,138960,1,0,1:0:0:26:
109,192,139190,1,0,0:0:0:0:
329,192,139421,1,4,3:0:0:57:
329,192,139883,1,8,3:0:0:57:
182,192,140344,1,8,3:0:0:36:
182,192,140575,1,8,3:0:0:36:
109,192,140806,5,4,0:0:0:55:
402,192,140806,1,0,1:0:0:26:
36,192,141267,128,2,141960:0:0:0:0:
329,192,141729,1,0,1:0:0:26:
182,192,141960,128,2,142652:0:0:0:0:
475,192,142652,1,0,1:0:0:26:
329,192,142883,128,0,143806:0:0:0:0:
36,192,143575,1,0,1:0:0:26:
256,192,144037,128,2,144729:0:0:0:0:
256,192,144960,1,2,0:0:0:0:
256,192,145306,1,2,0:0:0:0:
256,192,145652,1,0,0:0:0:0:
256,192,145883,128,0,146344:0:0:0:0:
182,192,146344,1,0,1:0:0:26:
256,192,146575,1,0,0:0:0:0:
109,192,146806,1,4,3:0:0:82:
182,192,147037,1,8,3:0:0:66:
256,192,147267,1,0,1:0:0:26:
329,192,147498,1,8,3:0:0:66:
109,192,147729,5,4,0:0:0:55:
402,192,147729,1,4,3:0:0:82:
182,192,148075,1,2,0:0:0:0:
256,192,148421,128,2,149575:0:0:0:0:
182,192,149575,1,4,0:0:0:55:
256,192,149921,1,2,0:0:0:0:
329,192,150267,128,2,150729:0:0:0:0:
256,192,150729,1,2,0:0:0:0:
329,192,150960,1,4,0:0:0:55:
402,192,151190,128,0,152113:0:0:0:0:
475,192,152113,128,2,153037:0:0:0:0:
36,192,152113,128,2,153037:0:0:0:0:
256,192,153037,1,4,0:0:0:55:
402,192,153729,1,0,1:0:0:42:
109,192,153729,1,0,0:0:0:0:
256,192,154190,1,4,3:0:0:42:
182,192,154652,1,8,1:0:0:23:
329,192,154652,1,8,1:0:0:23:
329,192,154883,1,8,1:0:0:23:
182,192,154883,1,8,1:0:0:23:
256,192,155113,1,8,3:0:0:36:
256,192,155344,1,8,3:0:0:36:
36,192,155575,5,4,0:0:0:55:
475,192,155575,128,2,156498:0:0:0:0:
109,192,156498,1,0,1:0:0:26:
402,192,156498,1,2,0:0:0:0:
329,192,156729,128,2,157883:0:0:0:0:
109,192,157421,1,0,1:0:0:26:
256,192,158113,1,2,0:0:0:0:
109,192,158344,1,0,1:0:0:26:
256,192,158575,1,2,0:0:0:0:
329,192,158806,128,2,159729:0:0:0:0:
109,192,159267,1,0,1:0:0:26:
182,192,159729,1,2,0:0:0:0:
109,192,160190,1,2,0:0:0:0:
402,192,160190,1,0,1:0:0:26:
36,192,160421,128,2,161575:0:0:0:0:
402,192,161113,1,0,1:0:0:26:
329,192,161575,1,4,3:0:0:57:
182,192,161575,1,0,1:0:0:26:
182,192,162037,1,0,1:0:0:26:
329,192,162037,1,8,3:0:0:57:
475,192,162498,1,2,0:0:0:0:
36,192,162498,1,4,0:0:0:55:
109,192,162844,1,2,0:0:0:0:
402,192,162844,1,2,0:0:0:0:
182,192,163190,128,2,163883:0:0:0:0:
329,192,163190,128,2,163883:0:0:0:0:
256,192,163883,1,0,1:0:0:26:
36,192,164344,1,2,0:0:0:0:
475,192,164344,1,2,0:0:0:0:
109,192,164690,1,2,0:0:0:0:
402,192,164690,1,2,0:0:0:0:
182,192,165037,1,2,0:0:0:0:
329,192,165037,1,2,0:0:0:0:
256,192,165498,1,2,0:0:0:0:
402,192,165729,1,2,0:0:0:0:
109,192,165729,1,4,0:0:0:55:
475,192,165960,128,2,168960:0:0:0:0:
36,192,165960,128,4,168960:0:0:0:40:
256,192,166652,1,0,1:0:0:26:
256,192,167575,1,0,1:0:0:26:
256,192,168498,1,0,1:0:0:26:
182,192,168960,1,0,1:0:0:26:
329,192,168960,1,4,3:0:0:57:
329,192,169421,1,8,3:0:0:57:
182,192,169421,1,0,1:0:0:26:
109,192,169883,1,8,3:0:0:18:
402,192,169883,1,8,3:0:0:18:
182,192,170113,1,8,3:0:0:18:
329,192,170113,1,8,3:0:0:18:
36,192,170344,5,4,0:0:0:55:
475,192,170344,128,2,171267:0:0:0:0:
402,192,171267,1,2,0:0:0:0:
182,192,171267,1,0,1:0:0:26:
329,192,171498,128,2,172652:0:0:0:0:
182,192,172190,1,0,1:0:0:26:
256,192,172883,1,2,0:0:0:0:
182,192,173113,1,0,1:0:0:26:
256,192,173344,1,2,0:0:0:0:
329,192,173575,128,2,174498:0:0:0:0:
109,192,174037,1,0,1:0:0:26:
402,192,174498,1,2,0:0:0:0:
475,192,174960,1,2,0:0:0:0:
109,192,174960,1,0,1:0:0:26:
402,192,175190,128,2,176344:0:0:0:0:
109,192,175883,1,0,1:0:0:26:
329,192,176344,1,4,3:0:0:57:
36,192,176344,1,0,1:0:0:26:
36,192,176806,1,0,1:0:0:26:
329,192,176806,1,8,3:0:0:57:
475,192,177267,1,2,0:0:0:0:
109,192,177267,1,4,0:0:0:55:
182,192,177613,1,2,0:0:0:0:
256,192,177960,1,2,0:0:0:0:
182,192,178537,1,0,0:0:0:0:
329,192,178537,1,8,3:0:0:42:
109,192,178883,1,0,0:0:0:0:
402,192,178883,1,8,3:0:0:42:
475,192,179113,1,4,3:0:0:60:
36,192,179113,1,4,0:0:0:55:
109,192,179460,1,2,0:0:0:0:
182,192,179806,1,2,0:0:0:0:
256,192,180267,1,8,3:0:0:42:
329,192,180498,1,0,0:0:0:0:
36,192,180498,1,4,0:0:0:55:
182,192,180729,128,0,182575:0:0:0:0:
475,192,180729,128,4,182575:3:0:0:42:
36,192,182575,1,4,0:0:0:55:
329,192,182575,1,4,3:0:0:60:
402,192,183267,1,0,1:0:0:42:
109,192,183267,1,0,0:0:0:0:
329,192,183729,1,4,3:0:0:42:
182,192,183729,1,0,0:0:0:0:
256,192,184190,1,8,1:0:0:45:
256,192,184421,1,8,1:0:0:45:
329,192,184652,1,8,3:0:0:18:
182,192,184652,1,8,3:0:0:18:
329,192,184883,1,8,3:0:0:18:
182,192,184883,1,8,3:0:0:18:
36,192,185113,5,4,0:0:0:55:
475,192,185113,1,0,1:0:0:26:
