osu file format v14

[General]
AudioFilename: audio.mp3
AudioLeadIn: 0
PreviewTime: 110690
Countdown: 1
SampleSet: Normal
StackLeniency: 0.7
Mode: 1
LetterboxInBreaks: 0
WidescreenStoryboard: 0

[Editor]
DistanceSpacing: 1
BeatDivisor: 4
GridSize: 32
TimelineZoom: 2.2

[Metadata]
Title:Dragon Valley (Toni Leys Remix feat. Esteban Bellucci)
TitleUnicode:Dragon Valley (Toni Leys Remix feat. Esteban Bellucci)
Artist:Toni Leys
ArtistUnicode:Toni Leys
Creator:Eiuh
Version:Mystic Oni
Source:Freedom Planet
Tags:electronic chiptune edm electronic game guitar solo happy indie pop remix upbeat vgm videogame
BeatmapID:1261397
BeatmapSetID:596561

[Difficulty]
HPDrainRate:6
CircleSize:5
OverallDifficulty:7
ApproachRate:10
SliderMultiplier:1.40000000596046
SliderTickRate:1

[Events]
//Background and Video events
0,0,"dragonbg.png",0,0
//Break Periods
//Storyboard Layer 0 (Background)
//Storyboard Layer 1 (Fail)
//Storyboard Layer 2 (Pass)
//Storyboard Layer 3 (Foreground)
//Storyboard Sound Samples

[TimingPoints]
37,461.538461538462,4,1,0,100,1,0
37,-71.4285714285714,4,1,0,100,0,0
22190,-50,4,1,0,100,0,0
22537,-51.2820512820513,4,1,0,100,0,0
22652,-52.6315789473684,4,1,0,100,0,0
22767,-53.763440860215,4,1,0,100,0,0
22883,-54.9450549450549,4,1,0,100,0,0
22998,-56.1797752808989,4,1,0,100,0,0
23113,-57.4712643678161,4,1,0,100,0,0
23229,-58.8235294117647,4,1,0,100,0,0
23344,-60.2409638554217,4,1,0,100,0,0
23460,-61.7283950617284,4,1,0,100,0,0
23575,-63.2911392405063,4,1,0,100,0,0
23690,-64.9350649350649,4,1,0,100,0,0
23806,-66.6666666666667,4,1,0,100,0,0
23921,-68.4931506849315,4,1,0,100,0,0
24037,-71.4285714285714,4,1,0,100,0,0
59575,-66.6666666666667,4,1,0,100,0,0
72960,-71.4285714285714,4,1,0,100,0,0
73075,-73.5294117647059,4,1,0,100,0,0
73190,-75.7575757575758,4,1,0,100,0,0
73306,-78.125,4,1,0,100,0,0
73421,-80.6451612903226,4,1,0,100,0,0
73537,-83.3333333333333,4,1,0,100,0,0
73652,-86.2068965517241,4,1,0,100,0,0
73767,-89.2857142857143,4,1,0,100,0,0
73883,-66.6666666666667,4,1,0,100,0,0
74344,-66.6666666666667,4,1,0,100,0,0
80344,-65.7894736842105,4,1,0,100,0,0
80460,-64.9350649350649,4,1,0,100,0,0
80575,-64.1025641025641,4,1,0,100,0,0
80690,-63.2911392405063,4,1,0,100,0,0
80806,-62.5,4,1,0,100,0,0
81267,-62.5,4,1,0,100,0,0
81613,-71.4285714285714,4,1,0,100,0,0
84729,-71.4285714285714,4,1,0,100,0,0
88652,-125,4,1,0,100,0,0
92344,-111.111111111111,4,1,0,100,0,0
93037,-100,4,1,0,100,0,0
93152,-97.0873786407767,4,1,0,100,0,0
93267,-94.3396226415094,4,1,0,100,0,0
93383,-91.743119266055,4,1,0,100,0,0
93498,-90.9090909090909,4,1,0,100,0,0
93729,-86.9565217391304,4,1,0,100,0,0
94652,-83.3333333333333,4,1,0,100,0,0
94883,-80,4,1,0,100,0,0
94940,-79.3650793650794,4,1,0,100,0,0
94998,-78.7401574803149,4,1,0,100,0,0
95056,-78.125,4,1,0,100,0,0
95113,-77.5193798449612,4,1,0,100,0,0
95344,-76.9230769230769,4,1,0,100,0,0
96498,-83.3333333333333,4,1,0,100,0,0
103421,-80,4,1,0,100,0,0
104344,-78.125,4,1,0,100,0,0
105267,-76.3358778625954,4,1,0,100,0,0
106190,-74.6268656716418,4,1,0,100,0,0
107113,-72.992700729927,4,1,0,100,0,0
108037,-71.4285714285714,4,1,0,100,0,0
108960,-66.6666666666667,4,1,0,100,0,0
126037,-66.6666666666667,4,1,0,100,0,1
147729,-71.4285714285714,4,1,0,100,0,0
155113,-71.9424460431655,4,1,0,100,0,0
155190,-72.463768115942,4,1,0,100,0,0
155267,-72.992700729927,4,1,0,100,0,0
155344,-74.0740740740741,4,1,0,100,0,0
155421,-74.6268656716418,4,1,0,100,0,0
155498,-75.187969924812,4,1,0,100,0,0
155575,-66.6666666666667,4,1,0,100,0,0
169883,-67.1140939597315,4,1,0,100,0,0
169960,-67.5675675675676,4,1,0,100,0,0
170037,-68.0272108843537,4,1,0,100,0,0
170113,-68.4931506849315,4,1,0,100,0,0
170190,-68.9655172413793,4,1,0,100,0,0
170267,-69.4444444444444,4,1,0,100,0,0
170344,-62.5,4,1,0,100,0,0
176921,-58.8235294117647,4,1,0,100,0,0
180729,-62.5,4,1,0,100,0,0

[HitObjects]
256,192,37,5,12,0:0:0:0:
256,192,960,1,12,0:0:0:0:
256,192,1306,1,12,0:0:0:0:
256,192,1652,1,4,0:0:0:0:
256,192,2690,1,0,0:0:0:0:
256,192,2806,1,8,0:0:0:0:
256,192,3037,1,0,0:0:0:0:
256,192,3152,1,0,0:0:0:0:
256,192,3267,1,0,0:0:0:0:
256,192,3383,1,0,0:0:0:0:
256,192,3498,1,0,0:0:0:0:
256,192,3729,1,4,0:0:0:0:
256,192,4652,1,4,0:0:0:0:
256,192,4998,1,12,0:0:0:0:
256,192,5344,1,12,0:0:0:0:
256,192,6267,1,0,0:0:0:0:
256,192,6383,1,0,0:0:0:0:
256,192,6498,1,8,0:0:0:0:
256,192,6729,1,0,0:0:0:0:
256,192,6960,1,8,0:0:0:0:
256,192,7075,1,0,0:0:0:0:
256,192,7190,1,0,0:0:0:0:
256,192,7306,1,8,0:0:0:0:
256,192,7421,1,4,0:0:0:0:
256,192,8113,1,0,0:0:0:0:
256,192,8190,1,0,0:0:0:0:
256,192,8267,1,0,0:0:0:0:
256,192,8344,1,8,0:0:0:0:
256,192,8690,1,8,0:0:0:0:
256,192,8806,1,8,0:0:0:0:
256,192,8921,1,0,0:0:0:0:
256,192,9037,1,0,0:0:0:0:
256,192,9267,1,12,0:0:0:0:
256,192,9729,1,0,0:0:0:0:
256,192,9806,1,0,0:0:0:0:
256,192,9883,1,0,0:0:0:0:
256,192,9960,1,0,0:0:0:0:
256,192,10037,1,0,0:0:0:0:
256,192,10113,1,0,0:0:0:0:
256,192,10190,1,8,0:0:0:0:
256,192,10421,1,4,0:0:0:0:
256,192,10652,1,0,0:0:0:0:
256,192,10883,1,12,0:0:0:0:
256,192,11267,1,8,0:0:0:0:
256,192,11344,1,0,0:0:0:0:
256,192,11421,1,0,0:0:0:0:
256,192,11498,1,0,0:0:0:0:
256,192,11575,1,8,0:0:0:0:
256,192,11806,1,0,0:0:0:0:
256,192,11921,1,0,0:0:0:0:
256,192,12037,1,8,0:0:0:0:
256,192,12113,1,8,0:0:0:0:
256,192,12190,1,0,0:0:0:0:
256,192,12267,1,0,0:0:0:0:
256,192,12383,1,8,0:0:0:0:
256,192,12498,1,0,0:0:0:0:
256,192,12729,1,12,0:0:0:0:
256,192,13133,1,0,0:0:0:0:
256,192,13190,1,8,0:0:0:0:
256,192,13421,1,0,0:0:0:0:
256,192,13652,1,12,0:0:0:0:
256,192,14113,1,4,0:0:0:0:
256,192,14806,12,0,18037,0:0:0:0:
256,192,18498,5,0,0:0:0:0:
256,192,18613,1,8,0:0:0:0:
256,192,18729,1,0,0:0:0:0:
256,192,18844,1,0,0:0:0:0:
256,192,18960,1,8,0:0:0:0:
256,192,19190,1,0,0:0:0:0:
256,192,19306,1,0,0:0:0:0:
256,192,19421,1,0,0:0:0:0:
256,192,19537,1,8,0:0:0:0:
256,192,19652,1,0,0:0:0:0:
256,192,19883,1,8,0:0:0:0:
256,192,19998,1,0,0:0:0:0:
256,192,20113,1,8,0:0:0:0:
256,192,20190,1,0,0:0:0:0:
256,192,20267,1,8,0:0:0:0:
256,192,20344,1,8,0:0:0:0:
256,192,20460,1,0,0:0:0:0:
256,192,20690,1,0,0:0:0:0:
256,192,20806,1,8,0:0:0:0:
256,192,20921,1,0,0:0:0:0:
256,192,21037,1,8,0:0:0:0:
256,192,21094,1,8,0:0:0:0:
256,192,21152,1,8,0:0:0:0:
256,192,21210,1,8,0:0:0:0:
256,192,21267,1,0,0:0:0:0:
256,192,21383,1,0,0:0:0:0:
256,192,21498,1,8,0:0:0:0:
256,192,21613,1,8,0:0:0:0:
256,192,21729,1,0,0:0:0:0:
256,192,21844,1,0,0:0:0:0:
256,192,21960,1,0,0:0:0:0:
256,192,22075,1,0,0:0:0:0:
256,192,22190,1,8,0:0:0:0:
256,192,22267,1,8,0:0:0:0:
256,192,22344,1,8,0:0:0:0:
256,192,22421,1,0,0:0:0:0:
256,192,22537,1,0,0:0:0:0:
256,192,22652,1,8,0:0:0:0:
256,192,22767,1,0,0:0:0:0:
256,192,22883,1,0,0:0:0:0:
256,192,22998,1,0,0:0:0:0:
256,192,23113,1,8,0:0:0:0:
256,192,23229,1,8,0:0:0:0:
256,192,23344,1,0,0:0:0:0:
256,192,23460,1,0,0:0:0:0:
256,192,23575,1,8,0:0:0:0:
256,192,23690,1,8,0:0:0:0:
256,192,23806,1,0,0:0:0:0:
256,192,24037,1,0,0:0:0:0:
256,192,24267,1,0,0:0:0:0:
256,192,24383,1,8,0:0:0:0:
256,192,24498,1,0,0:0:0:0:
256,192,24613,1,8,0:0:0:0:
256,192,24729,1,8,0:0:0:0:
256,192,24844,1,0,0:0:0:0:
256,192,24960,1,0,0:0:0:0:
256,192,25190,1,0,0:0:0:0:
256,192,25306,1,0,0:0:0:0:
256,192,25421,1,8,0:0:0:0:
256,192,25537,1,8,0:0:0:0:
256,192,25652,1,8,0:0:0:0:
256,192,25767,1,0,0:0:0:0:
256,192,25883,1,0,0:0:0:0:
256,192,26113,1,8,0:0:0:0:
256,192,26229,1,8,0:0:0:0:
256,192,26344,1,0,0:0:0:0:
256,192,26460,1,8,0:0:0:0:
256,192,26575,1,0,0:0:0:0:
256,192,26690,1,0,0:0:0:0:
256,192,26806,1,0,0:0:0:0:
256,192,27037,1,0,0:0:0:0:
256,192,27153,1,0,0:0:0:0:
256,192,27268,1,0,0:0:0:0:
256,192,27384,1,8,0:0:0:0:
256,192,27499,1,0,0:0:0:0:
256,192,27614,1,0,0:0:0:0:
256,192,27730,1,8,0:0:0:0:
256,192,27844,1,8,0:0:0:0:
256,192,27960,1,0,0:0:0:0:
256,192,28190,1,8,0:0:0:0:
256,192,28306,1,0,0:0:0:0:
256,192,28421,1,8,0:0:0:0:
256,192,28498,1,0,0:0:0:0:
256,192,28575,1,8,0:0:0:0:
256,192,28652,1,8,0:0:0:0:
256,192,28767,1,0,0:0:0:0:
256,192,28883,1,0,0:0:0:0:
256,192,28998,1,0,0:0:0:0:
256,192,29113,1,8,0:0:0:0:
256,192,29229,1,8,0:0:0:0:
256,192,29344,1,0,0:0:0:0:
256,192,29460,1,0,0:0:0:0:
256,192,29575,1,12,0:0:0:0:
256,192,30037,1,8,0:0:0:0:
256,192,30267,1,0,0:0:0:0:
256,192,30383,1,0,0:0:0:0:
256,192,30498,1,8,0:0:0:0:
256,192,30613,1,0,0:0:0:0:
256,192,30844,1,8,0:0:0:0:
256,192,30960,1,0,0:0:0:0:
256,192,31190,1,0,0:0:0:0:
256,192,31306,1,8,0:0:0:0:
256,192,31421,1,8,0:0:0:0:
256,192,31537,1,0,0:0:0:0:
256,192,31652,1,0,0:0:0:0:
256,192,31767,1,8,0:0:0:0:
256,192,31883,1,0,0:0:0:0:
256,192,32113,1,0,0:0:0:0:
256,192,32229,1,8,0:0:0:0:
256,192,32287,1,0,0:0:0:0:
256,192,32345,1,0,0:0:0:0:
256,192,32460,1,8,0:0:0:0:
256,192,32575,1,0,0:0:0:0:
256,192,32690,1,0,0:0:0:0:
256,192,32806,1,8,0:0:0:0:
256,192,32921,1,8,0:0:0:0:
256,192,33037,1,0,0:0:0:0:
256,192,33267,1,8,0:0:0:0:
256,192,33498,1,0,0:0:0:0:
256,192,33613,1,8,0:0:0:0:
256,192,33729,1,8,0:0:0:0:
256,192,33844,1,0,0:0:0:0:
256,192,33960,1,8,0:0:0:0:
256,192,34075,1,0,0:0:0:0:
256,192,34306,1,8,0:0:0:0:
256,192,34421,1,8,0:0:0:0:
256,192,34537,1,0,0:0:0:0:
256,192,34652,1,8,0:0:0:0:
256,192,34883,1,0,0:0:0:0:
256,192,34998,1,8,0:0:0:0:
256,192,35113,1,8,0:0:0:0:
256,192,35344,1,0,0:0:0:0:
256,192,35460,1,0,0:0:0:0:
256,192,35575,1,8,0:0:0:0:
256,192,35690,1,8,0:0:0:0:
256,192,35806,1,0,0:0:0:0:
256,192,35921,1,8,0:0:0:0:
256,192,36152,1,8,0:0:0:0:
256,192,36267,1,0,0:0:0:0:
256,192,36383,1,0,0:0:0:0:
256,192,36498,1,8,0:0:0:0:
256,192,36613,1,8,0:0:0:0:
256,192,36729,1,0,0:0:0:0:
256,192,36806,1,0,0:0:0:0:
256,192,36883,1,0,0:0:0:0:
256,192,36960,1,8,0:0:0:0:
256,192,37190,1,8,0:0:0:0:
256,192,37306,1,8,0:0:0:0:
256,192,37421,1,0,0:0:0:0:
256,192,37652,1,0,0:0:0:0:
256,192,37767,1,0,0:0:0:0:
256,192,37883,1,8,0:0:0:0:
256,192,37998,1,0,0:0:0:0:
256,192,38113,1,8,0:0:0:0:
256,192,38229,1,8,0:0:0:0:
256,192,38344,1,0,0:0:0:0:
256,192,38575,1,0,0:0:0:0:
256,192,38690,1,0,0:0:0:0:
256,192,38806,1,8,0:0:0:0:
256,192,39037,1,8,0:0:0:0:
256,192,39152,1,0,0:0:0:0:
256,192,39383,1,0,0:0:0:0:
256,192,39498,1,8,0:0:0:0:
256,192,39613,1,8,0:0:0:0:
256,192,39671,1,8,0:0:0:0:
256,192,39729,1,0,0:0:0:0:
256,192,39844,1,0,0:0:0:0:
256,192,39960,1,0,0:0:0:0:
256,192,40075,1,0,0:0:0:0:
256,192,40190,1,8,0:0:0:0:
256,192,40421,1,0,0:0:0:0:
256,192,40537,1,8,0:0:0:0:
256,192,40652,1,8,0:0:0:0:
256,192,40767,1,0,0:0:0:0:
256,192,40883,1,8,0:0:0:0:
256,192,40998,1,0,0:0:0:0:
256,192,41113,1,0,0:0:0:0:
256,192,41344,1,8,0:0:0:0:
256,192,41421,1,8,0:0:0:0:
256,192,41498,1,8,0:0:0:0:
256,192,41575,1,0,0:0:0:0:
256,192,41806,1,0,0:0:0:0:
256,192,41921,1,8,0:0:0:0:
256,192,42037,1,0,0:0:0:0:
256,192,42267,1,8,0:0:0:0:
256,192,42383,1,0,0:0:0:0:
256,192,42498,1,0,0:0:0:0:
256,192,42729,1,8,0:0:0:0:
256,192,42844,1,0,0:0:0:0:
256,192,42960,1,8,0:0:0:0:
256,192,43190,1,0,0:0:0:0:
256,192,43306,1,0,0:0:0:0:
256,192,43421,1,0,0:0:0:0:
256,192,43537,1,8,0:0:0:0:
256,192,43594,1,8,0:0:0:0:
256,192,43652,1,0,0:0:0:0:
256,192,43767,1,0,0:0:0:0:
256,192,43883,1,8,0:0:0:0:
256,192,43940,5,8,0:0:0:0:
256,192,43998,1,8,0:0:0:0:
256,192,44113,1,0,0:0:0:0:
256,192,44344,1,12,0:0:0:0:
256,192,44806,1,0,0:0:0:0:
256,192,45036,1,8,0:0:0:0:
256,192,45152,1,0,0:0:0:0:
256,192,45267,1,0,0:0:0:0:
256,192,45382,1,0,0:0:0:0:
256,192,45613,1,8,0:0:0:0:
256,192,45729,1,0,0:0:0:0:
256,192,45959,1,0,0:0:0:0:
256,192,46075,1,8,0:0:0:0:
256,192,46190,1,8,0:0:0:0:
256,192,46306,1,0,0:0:0:0:
256,192,46421,1,0,0:0:0:0:
256,192,46536,1,8,0:0:0:0:
256,192,46652,1,0,0:0:0:0:
256,192,46882,1,0,0:0:0:0:
256,192,46998,1,8,0:0:0:0:
256,192,47056,1,0,0:0:0:0:
256,192,47114,1,0,0:0:0:0:
256,192,47229,1,8,0:0:0:0:
256,192,47344,1,0,0:0:0:0:
256,192,47459,1,0,0:0:0:0:
256,192,47575,1,8,0:0:0:0:
256,192,47690,1,8,0:0:0:0:
256,192,47806,1,0,0:0:0:0:
256,192,48036,1,8,0:0:0:0:
256,192,48267,1,0,0:0:0:0:
256,192,48382,1,8,0:0:0:0:
256,192,48498,1,8,0:0:0:0:
256,192,48613,1,0,0:0:0:0:
256,192,48729,1,8,0:0:0:0:
256,192,48844,1,0,0:0:0:0:
256,192,49075,1,8,0:0:0:0:
256,192,49190,1,8,0:0:0:0:
256,192,49306,1,0,0:0:0:0:
256,192,49421,1,8,0:0:0:0:
256,192,49652,1,0,0:0:0:0:
256,192,49767,1,8,0:0:0:0:
256,192,49882,1,8,0:0:0:0:
256,192,50113,1,0,0:0:0:0:
256,192,50229,1,0,0:0:0:0:
256,192,50344,1,8,0:0:0:0:
256,192,50459,1,8,0:0:0:0:
256,192,50575,1,0,0:0:0:0:
256,192,50690,1,8,0:0:0:0:
256,192,50921,1,8,0:0:0:0:
256,192,51036,1,0,0:0:0:0:
256,192,51152,1,0,0:0:0:0:
256,192,51267,1,8,0:0:0:0:
256,192,51382,1,8,0:0:0:0:
256,192,51498,1,0,0:0:0:0:
256,192,51575,1,0,0:0:0:0:
256,192,51652,1,0,0:0:0:0:
256,192,51729,1,8,0:0:0:0:
256,192,51959,1,8,0:0:0:0:
256,192,52075,1,8,0:0:0:0:
256,192,52190,1,0,0:0:0:0:
256,192,52421,1,0,0:0:0:0:
256,192,52536,1,8,0:0:0:0:
256,192,52652,1,8,0:0:0:0:
256,192,52767,1,8,0:0:0:0:
256,192,52882,1,0,0:0:0:0:
256,192,52998,1,8,0:0:0:0:
256,192,53113,1,0,0:0:0:0:
256,192,53344,1,0,0:0:0:0:
256,192,53459,1,0,0:0:0:0:
256,192,53575,1,8,0:0:0:0:
256,192,53806,1,8,0:0:0:0:
256,192,53921,1,0,0:0:0:0:
256,192,54152,1,0,0:0:0:0:
256,192,54267,1,8,0:0:0:0:
256,192,54382,1,8,0:0:0:0:
256,192,54440,1,8,0:0:0:0:
256,192,54498,1,0,0:0:0:0:
256,192,54613,1,0,0:0:0:0:
256,192,54729,1,0,0:0:0:0:
256,192,54844,1,0,0:0:0:0:
256,192,54959,1,8,0:0:0:0:
256,192,55190,1,0,0:0:0:0:
256,192,55306,1,8,0:0:0:0:
256,192,55421,1,8,0:0:0:0:
256,192,55536,1,0,0:0:0:0:
256,192,55652,1,8,0:0:0:0:
256,192,55767,1,0,0:0:0:0:
256,192,55882,1,0,0:0:0:0:
256,192,56113,1,8,0:0:0:0:
256,192,56190,1,8,0:0:0:0:
256,192,56267,1,8,0:0:0:0:
256,192,56344,1,0,0:0:0:0:
256,192,56460,1,0,0:0:0:0:
256,192,56575,1,8,0:0:0:0:
256,192,56690,1,8,0:0:0:0:
256,192,56806,1,0,0:0:0:0:
256,192,57036,1,8,0:0:0:0:
256,192,57152,1,0,0:0:0:0:
256,192,57267,1,0,0:0:0:0:
256,192,57498,1,8,0:0:0:0:
256,192,57613,1,0,0:0:0:0:
256,192,57729,1,8,0:0:0:0:
256,192,57959,1,0,0:0:0:0:
256,192,58075,1,0,0:0:0:0:
256,192,58190,1,0,0:0:0:0:
256,192,58306,1,8,0:0:0:0:
256,192,58363,1,8,0:0:0:0:
256,192,58421,1,0,0:0:0:0:
256,192,58536,1,0,0:0:0:0:
256,192,58652,1,0,0:0:0:0:
256,192,58709,1,0,0:0:0:0:
256,192,58767,1,8,0:0:0:0:
256,192,58882,1,8,0:0:0:0:
256,192,59113,1,0,0:0:0:0:
256,192,59190,1,8,0:0:0:0:
256,192,59267,1,8,0:0:0:0:
256,192,59344,1,8,0:0:0:0:
256,192,59421,1,0,0:0:0:0:
256,192,59575,1,12,0:0:0:0:
256,192,59806,1,0,0:0:0:0:
256,192,59921,1,0,0:0:0:0:
256,192,60037,1,8,0:0:0:0:
256,192,60152,1,8,0:0:0:0:
256,192,60267,1,0,0:0:0:0:
256,192,60383,1,8,0:0:0:0:
256,192,60498,1,0,0:0:0:0:
256,192,60729,1,8,0:0:0:0:
256,192,60844,1,0,0:0:0:0:
256,192,60960,1,0,0:0:0:0:
256,192,61190,1,0,0:0:0:0:
256,192,61421,1,8,0:0:0:0:
256,192,61652,1,0,0:0:0:0:
256,192,61767,1,8,0:0:0:0:
256,192,61883,1,0,0:0:0:0:
256,192,62113,1,8,0:0:0:0:
256,192,62190,1,8,0:0:0:0:
256,192,62267,1,8,0:0:0:0:
256,192,62344,1,0,0:0:0:0:
256,192,62460,1,0,0:0:0:0:
256,192,62575,1,8,0:0:0:0:
256,192,62806,1,0,0:0:0:0:
256,192,63037,1,0,0:0:0:0:
256,192,63152,1,0,0:0:0:0:
256,192,63267,1,8,0:0:0:0:
256,192,63383,1,0,0:0:0:0:
256,192,63498,1,0,0:0:0:0:
256,192,63613,1,0,0:0:0:0:
256,192,63729,1,8,0:0:0:0:
256,192,63844,1,0,0:0:0:0:
256,192,63960,1,0,0:0:0:0:
256,192,64075,1,8,0:0:0:0:
256,192,64190,1,0,0:0:0:0:
256,192,64421,1,8,0:0:0:0:
256,192,64652,1,0,0:0:0:0:
256,192,64883,1,0,0:0:0:0:
256,192,65113,1,8,0:0:0:0:
256,192,65229,1,8,0:0:0:0:
256,192,65344,1,0,0:0:0:0:
256,192,65460,1,8,0:0:0:0:
256,192,65575,1,0,0:0:0:0:
256,192,65690,1,0,0:0:0:0:
256,192,65806,1,0,0:0:0:0:
256,192,66037,1,8,0:0:0:0:
256,192,66152,1,8,0:0:0:0:
256,192,66267,1,0,0:0:0:0:
256,192,66344,1,0,0:0:0:0:
256,192,66421,1,0,0:0:0:0:
256,192,66498,1,8,0:0:0:0:
256,192,66613,1,0,0:0:0:0:
256,192,66729,1,0,0:0:0:0:
256,192,66844,1,8,0:0:0:0:
256,192,66960,1,0,0:0:0:0:
256,192,67075,1,0,0:0:0:0:
256,192,67190,1,8,0:0:0:0:
256,192,67421,1,0,0:0:0:0:
256,192,67652,1,0,0:0:0:0:
256,192,67883,1,8,0:0:0:0:
256,192,68037,1,0,0:0:0:0:
256,192,68113,1,0,0:0:0:0:
256,192,68190,1,8,0:0:0:0:
256,192,68267,1,8,0:0:0:0:
256,192,68344,1,8,0:0:0:0:
256,192,68460,1,0,0:0:0:0:
256,192,68575,1,0,0:0:0:0:
256,192,68690,1,8,0:0:0:0:
256,192,68806,1,0,0:0:0:0:
256,192,68921,1,0,0:0:0:0:
256,192,69037,1,8,0:0:0:0:
256,192,69267,1,0,0:0:0:0:
256,192,69498,1,8,0:0:0:0:
256,192,69613,1,8,0:0:0:0:
256,192,69729,1,0,0:0:0:0:
256,192,69960,1,8,0:0:0:0:
256,192,70075,1,8,0:0:0:0:
256,192,70190,1,8,0:0:0:0:
256,192,70421,1,0,0:0:0:0:
256,192,70652,1,8,0:0:0:0:
256,192,70883,1,0,0:0:0:0:
256,192,70998,1,0,0:0:0:0:
256,192,71113,1,8,0:0:0:0:
256,192,71229,1,0,0:0:0:0:
256,192,71344,1,0,0:0:0:0:
256,192,71460,1,0,0:0:0:0:
256,192,71575,1,0,0:0:0:0:
256,192,71690,1,8,0:0:0:0:
256,192,71806,1,0,0:0:0:0:
256,192,72037,1,0,0:0:0:0:
256,192,72267,1,8,0:0:0:0:
256,192,72383,1,0,0:0:0:0:
256,192,72498,1,0,0:0:0:0:
256,192,72613,1,0,0:0:0:0:
256,192,72729,1,8,0:0:0:0:
256,192,72960,1,0,0:0:0:0:
256,192,73075,1,8,0:0:0:0:
256,192,73190,1,0,0:0:0:0:
256,192,73306,1,0,0:0:0:0:
256,192,73421,1,8,0:0:0:0:
256,192,73537,1,0,0:0:0:0:
256,192,73652,1,0,0:0:0:0:
256,192,73767,1,0,0:0:0:0:
256,192,73883,1,8,0:0:0:0:
256,192,73960,1,0,0:0:0:0:
256,192,74037,1,0,0:0:0:0:
256,192,74113,1,0,0:0:0:0:
256,192,74190,1,0,0:0:0:0:
256,192,74267,1,0,0:0:0:0:
256,192,74344,1,8,0:0:0:0:
256,192,74806,1,8,0:0:0:0:
256,192,74921,1,0,0:0:0:0:
256,192,75037,1,0,0:0:0:0:
256,192,75152,1,8,0:0:0:0:
256,192,75267,1,0,0:0:0:0:
256,192,75498,1,8,0:0:0:0:
256,192,75613,1,0,0:0:0:0:
256,192,75729,1,0,0:0:0:0:
256,192,75960,1,0,0:0:0:0:
256,192,76190,1,8,0:0:0:0:
256,192,76421,1,0,0:0:0:0:
256,192,76537,1,8,0:0:0:0:
256,192,76652,1,0,0:0:0:0:
256,192,76883,1,8,0:0:0:0:
256,192,76960,1,8,0:0:0:0:
256,192,77037,1,8,0:0:0:0:
256,192,77113,1,0,0:0:0:0:
256,192,77229,1,0,0:0:0:0:
256,192,77344,1,8,0:0:0:0:
256,192,77575,1,0,0:0:0:0:
256,192,77806,1,0,0:0:0:0:
256,192,77921,1,0,0:0:0:0:
256,192,78037,1,8,0:0:0:0:
256,192,78152,1,0,0:0:0:0:
256,192,78267,1,0,0:0:0:0:
256,192,78383,1,0,0:0:0:0:
256,192,78498,1,8,0:0:0:0:
256,192,78613,1,8,0:0:0:0:
256,192,78729,1,0,0:0:0:0:
256,192,78844,1,8,0:0:0:0:
256,192,78960,1,0,0:0:0:0:
256,192,79190,1,8,0:0:0:0:
256,192,79421,1,0,0:0:0:0:
256,192,79652,1,0,0:0:0:0:
256,192,79883,1,8,0:0:0:0:
256,192,80113,1,0,0:0:0:0:
256,192,80229,1,0,0:0:0:0:
256,192,80344,1,0,0:0:0:0:
256,192,80460,1,8,0:0:0:0:
256,192,80575,1,0,0:0:0:0:
256,192,80690,1,0,0:0:0:0:
256,192,80806,1,8,0:0:0:0:
256,192,80883,1,8,0:0:0:0:
256,192,80960,1,0,0:0:0:0:
256,192,81037,1,8,0:0:0:0:
256,192,81113,1,0,0:0:0:0:
256,192,81190,1,0,0:0:0:0:
256,192,81267,1,8,0:0:0:0:
256,192,81613,1,0,0:0:0:0:
256,192,81959,1,8,0:0:0:0:
256,192,82037,1,0,0:0:0:0:
256,192,82113,1,0,0:0:0:0:
256,192,82190,1,0,0:0:0:0:
256,192,82421,1,0,0:0:0:0:
256,192,82537,1,0,0:0:0:0:
256,192,82806,1,0,0:0:0:0:
256,192,82882,1,0,0:0:0:0:
256,192,82959,1,8,0:0:0:0:
256,192,83036,1,8,0:0:0:0:
256,192,83113,1,8,0:0:0:0:
256,192,83459,1,8,0:0:0:0:
256,192,83806,1,0,0:0:0:0:
256,192,84036,1,0,0:0:0:0:
256,192,84267,1,8,0:0:0:0:
256,192,84382,1,8,0:0:0:0:
256,192,84498,1,0,0:0:0:0:
256,192,84729,1,8,0:0:0:0:
256,192,84844,1,8,0:0:0:0:
256,192,84959,1,8,0:0:0:0:
256,192,85190,1,0,0:0:0:0:
256,192,85421,1,8,0:0:0:0:
256,192,85652,1,0,0:0:0:0:
256,192,85767,1,0,0:0:0:0:
256,192,85882,1,8,0:0:0:0:
256,192,85998,1,0,0:0:0:0:
256,192,86113,1,0,0:0:0:0:
256,192,86229,1,0,0:0:0:0:
256,192,86344,1,0,0:0:0:0:
256,192,86459,1,8,0:0:0:0:
256,192,86575,1,0,0:0:0:0:
256,192,86806,1,0,0:0:0:0:
256,192,87036,1,8,0:0:0:0:
256,192,87152,1,0,0:0:0:0:
256,192,87267,1,0,0:0:0:0:
256,192,87382,1,0,0:0:0:0:
256,192,87498,1,8,0:0:0:0:
256,192,87729,1,0,0:0:0:0:
256,192,87844,1,8,0:0:0:0:
256,192,87959,1,0,0:0:0:0:
256,192,88075,1,0,0:0:0:0:
256,192,88190,1,8,0:0:0:0:
256,192,88306,1,8,0:0:0:0:
256,192,88421,1,8,0:0:0:0:
256,192,88536,1,8,0:0:0:0:
256,192,88883,1,0,0:0:0:0:
256,192,89113,1,8,0:0:0:0:
256,192,89344,1,0,0:0:0:0:
256,192,89460,1,8,0:0:0:0:
256,192,89575,1,0,0:0:0:0:
256,192,89690,1,0,0:0:0:0:
256,192,89806,1,8,0:0:0:0:
256,192,90037,1,0,0:0:0:0:
256,192,90152,1,0,0:0:0:0:
256,192,90267,1,8,0:0:0:0:
256,192,90344,1,8,0:0:0:0:
256,192,90421,1,8,0:0:0:0:
256,192,90498,1,8,0:0:0:0:
256,192,90729,1,0,0:0:0:0:
256,192,90960,1,8,0:0:0:0:
256,192,91190,1,0,0:0:0:0:
256,192,91248,1,0,0:0:0:0:
256,192,91306,1,8,0:0:0:0:
256,192,91363,1,8,0:0:0:0:
256,192,91421,1,8,0:0:0:0:
256,192,91537,1,0,0:0:0:0:
256,192,91652,1,12,0:0:0:0:
256,192,91998,1,4,0:0:0:0:
256,192,92344,1,0,0:0:0:0:
256,192,92460,1,0,0:0:0:0:
256,192,92690,1,0,0:0:0:0:
256,192,92806,1,8,0:0:0:0:
256,192,93037,1,0,0:0:0:0:
256,192,93152,1,8,0:0:0:0:
256,192,93267,1,0,0:0:0:0:
256,192,93383,1,0,0:0:0:0:
256,192,93498,1,8,0:0:0:0:
256,192,93729,1,0,0:0:0:0:
256,192,93844,1,8,0:0:0:0:
256,192,93960,1,8,0:0:0:0:
256,192,94037,1,8,0:0:0:0:
256,192,94113,1,8,0:0:0:0:
256,192,94190,1,8,0:0:0:0:
256,192,94306,1,0,0:0:0:0:
256,192,94421,1,0,0:0:0:0:
256,192,94537,1,0,0:0:0:0:
256,192,94652,1,8,0:0:0:0:
256,192,94883,1,0,0:0:0:0:
256,192,94940,1,0,0:0:0:0:
256,192,94998,1,8,0:0:0:0:
256,192,95056,1,8,0:0:0:0:
256,192,95113,1,8,0:0:0:0:
256,192,95229,1,0,0:0:0:0:
256,192,95344,1,12,0:0:0:0:
256,192,95575,1,0,0:0:0:0:
256,192,95690,1,0,0:0:0:0:
256,192,95806,1,0,0:0:0:0:
256,192,95921,1,0,0:0:0:0:
256,192,96498,1,0,0:0:0:0:
256,192,96960,1,8,0:0:0:0:
256,192,97306,1,0,0:0:0:0:
256,192,97652,1,0,0:0:0:0:
256,192,97767,1,8,0:0:0:0:
256,192,97883,1,8,0:0:0:0:
256,192,98229,1,0,0:0:0:0:
256,192,98575,1,8,0:0:0:0:
256,192,98690,1,8,0:0:0:0:
256,192,98806,1,0,0:0:0:0:
256,192,99613,1,0,0:0:0:0:
256,192,99671,1,0,0:0:0:0:
256,192,99729,1,8,0:0:0:0:
256,192,100075,1,8,0:0:0:0:
256,192,100421,1,8,0:0:0:0:
256,192,100767,1,0,0:0:0:0:
256,192,101113,1,0,0:0:0:0:
256,192,101344,1,0,0:0:0:0:
256,192,101575,1,8,0:0:0:0:
256,192,101921,1,0,0:0:0:0:
256,192,102267,1,0,0:0:0:0:
256,192,102325,1,8,0:0:0:0:
256,192,103190,1,0,0:0:0:0:
256,192,103306,1,0,0:0:0:0:
256,192,103421,1,8,0:0:0:0:
256,192,104113,1,8,0:0:0:0:
256,192,104344,1,8,0:0:0:0:
256,192,104690,1,0,0:0:0:0:
256,192,105037,1,0,0:0:0:0:
256,192,105267,1,8,0:0:0:0:
256,192,105613,1,0,0:0:0:0:
256,192,105960,1,8,0:0:0:0:
256,192,106075,1,0,0:0:0:0:
256,192,106190,1,8,0:0:0:0:
256,192,106883,1,0,0:0:0:0:
256,192,106998,1,0,0:0:0:0:
256,192,107113,1,8,0:0:0:0:
256,192,107460,1,0,0:0:0:0:
256,192,107806,1,8,0:0:0:0:
256,192,107883,1,8,0:0:0:0:
256,192,107960,1,0,0:0:0:0:
256,192,108037,1,8,0:0:0:0:
256,192,108383,1,8,0:0:0:0:
256,192,108729,1,0,0:0:0:0:
256,192,108960,1,8,0:0:0:0:
256,192,109075,1,8,0:0:0:0:
256,192,109190,1,0,0:0:0:0:
256,192,109306,1,0,0:0:0:0:
256,192,109421,1,8,0:0:0:0:
256,192,109537,1,0,0:0:0:0:
256,192,109652,1,0,0:0:0:0:
256,192,109767,1,0,0:0:0:0:
256,192,109883,1,8,0:0:0:0:
256,192,109998,1,8,0:0:0:0:
256,192,110113,1,8,0:0:0:0:
256,192,110229,1,8,0:0:0:0:
256,192,110344,1,0,0:0:0:0:
256,192,110498,1,8,0:0:0:0:
256,192,110575,1,8,0:0:0:0:
256,192,110652,1,8,0:0:0:0:
256,192,110729,1,8,0:0:0:0:
256,192,110806,1,4,0:0:0:0:
256,192,110960,1,4,0:0:0:0:
256,192,111113,1,8,0:0:0:0:
256,192,111267,1,12,0:0:0:0:
256,192,111497,1,0,0:0:0:0:
256,192,111613,1,0,0:0:0:0:
256,192,111728,1,8,0:0:0:0:
256,192,111843,1,0,0:0:0:0:
256,192,112074,1,0,0:0:0:0:
256,192,112190,1,8,0:0:0:0:
256,192,112420,1,0,0:0:0:0:
256,192,112536,1,0,0:0:0:0:
256,192,112651,1,8,0:0:0:0:
256,192,112767,1,0,0:0:0:0:
256,192,112882,1,0,0:0:0:0:
256,192,112997,1,8,0:0:0:0:
256,192,113113,1,0,0:0:0:0:
256,192,113343,1,0,0:0:0:0:
256,192,113459,1,8,0:0:0:0:
256,192,113517,1,8,0:0:0:0:
256,192,113575,1,0,0:0:0:0:
256,192,113690,1,8,0:0:0:0:
256,192,113805,1,0,0:0:0:0:
256,192,113920,1,0,0:0:0:0:
256,192,114036,1,8,0:0:0:0:
256,192,114151,1,0,0:0:0:0:
256,192,114267,1,0,0:0:0:0:
256,192,114497,1,8,0:0:0:0:
256,192,114728,1,0,0:0:0:0:
256,192,114843,1,0,0:0:0:0:
256,192,114959,1,8,0:0:0:0:
256,192,115074,1,0,0:0:0:0:
256,192,115190,1,8,0:0:0:0:
256,192,115305,1,0,0:0:0:0:
256,192,115536,1,8,0:0:0:0:
256,192,115651,1,8,0:0:0:0:
256,192,115767,1,0,0:0:0:0:
256,192,115882,1,8,0:0:0:0:
256,192,116113,1,0,0:0:0:0:
256,192,116228,1,0,0:0:0:0:
256,192,116343,1,8,0:0:0:0:
256,192,116574,1,0,0:0:0:0:
256,192,116690,1,0,0:0:0:0:
256,192,116805,1,8,0:0:0:0:
256,192,116920,1,8,0:0:0:0:
256,192,117036,1,0,0:0:0:0:
256,192,117151,1,8,0:0:0:0:
256,192,117382,1,8,0:0:0:0:
256,192,117497,1,0,0:0:0:0:
256,192,117613,1,0,0:0:0:0:
256,192,117728,1,8,0:0:0:0:
256,192,117843,1,8,0:0:0:0:
256,192,117959,1,0,0:0:0:0:
256,192,118036,1,0,0:0:0:0:
256,192,118113,1,0,0:0:0:0:
256,192,118190,1,8,0:0:0:0:
256,192,118420,1,8,0:0:0:0:
256,192,118536,1,8,0:0:0:0:
256,192,118651,1,0,0:0:0:0:
256,192,118882,1,0,0:0:0:0:
256,192,118997,1,0,0:0:0:0:
256,192,119113,1,8,0:0:0:0:
256,192,119228,1,0,0:0:0:0:
256,192,119343,1,0,0:0:0:0:
256,192,119459,1,8,0:0:0:0:
256,192,119574,1,0,0:0:0:0:
256,192,119805,1,0,0:0:0:0:
256,192,119920,1,0,0:0:0:0:
256,192,120036,1,8,0:0:0:0:
256,192,120267,1,0,0:0:0:0:
256,192,120382,1,8,0:0:0:0:
256,192,120498,1,0,0:0:0:0:
256,192,120729,1,0,0:0:0:0:
256,192,120843,1,0,0:0:0:0:
256,192,120959,1,0,0:0:0:0:
256,192,121074,1,8,0:0:0:0:
256,192,121190,1,0,0:0:0:0:
256,192,121305,1,0,0:0:0:0:
256,192,121420,1,8,0:0:0:0:
256,192,121651,1,0,0:0:0:0:
256,192,121767,1,0,0:0:0:0:
256,192,121882,1,8,0:0:0:0:
256,192,121997,1,0,0:0:0:0:
256,192,122113,1,8,0:0:0:0:
256,192,122228,1,8,0:0:0:0:
256,192,122343,1,0,0:0:0:0:
256,192,122574,1,8,0:0:0:0:
256,192,122651,1,8,0:0:0:0:
256,192,122728,1,8,0:0:0:0:
256,192,122805,1,0,0:0:0:0:
256,192,123036,1,0,0:0:0:0:
256,192,123151,1,8,0:0:0:0:
256,192,123267,1,0,0:0:0:0:
256,192,123497,1,8,0:0:0:0:
256,192,123613,1,0,0:0:0:0:
256,192,123728,1,0,0:0:0:0:
256,192,123844,1,0,0:0:0:0:
256,192,123959,1,8,0:0:0:0:
256,192,124074,1,8,0:0:0:0:
256,192,124190,1,0,0:0:0:0:
256,192,124420,1,0,0:0:0:0:
256,192,124536,1,0,0:0:0:0:
256,192,124651,1,0,0:0:0:0:
256,192,124767,1,8,0:0:0:0:
256,192,124824,1,8,0:0:0:0:
256,192,124882,1,0,0:0:0:0:
256,192,124997,1,0,0:0:0:0:
256,192,125113,1,8,0:0:0:0:
256,192,125170,1,8,0:0:0:0:
256,192,125228,1,8,0:0:0:0:
256,192,125343,1,0,0:0:0:0:
256,192,125575,1,4,0:0:0:0:
256,192,125729,1,8,0:0:0:0:
256,192,125806,1,8,0:0:0:0:
256,192,125883,1,8,0:0:0:0:
256,192,125960,1,0,0:0:0:0:
256,192,126037,1,8,0:0:0:0:
256,192,126267,1,0,0:0:0:0:
256,192,126498,1,8,0:0:0:0:
256,192,126613,1,0,0:0:0:0:
256,192,126844,1,8,0:0:0:0:
256,192,126960,1,0,0:0:0:0:
256,192,127075,1,8,0:0:0:0:
256,192,127190,1,8,0:0:0:0:
256,192,127421,1,0,0:0:0:0:
256,192,127652,1,0,0:0:0:0:
256,192,127767,1,0,0:0:0:0:
256,192,127883,1,0,0:0:0:0:
256,192,128113,1,8,0:0:0:0:
256,192,128190,1,0,0:0:0:0:
256,192,128267,1,8,0:0:0:0:
256,192,128344,1,0,0:0:0:0:
256,192,128421,1,8,0:0:0:0:
256,192,128498,1,0,0:0:0:0:
256,192,128575,1,8,0:0:0:0:
256,192,128652,1,0,0:0:0:0:
256,192,128729,1,8,0:0:0:0:
256,192,128806,1,0,0:0:0:0:
256,192,129037,1,0,0:0:0:0:
256,192,129152,1,0,0:0:0:0:
256,192,129267,1,8,0:0:0:0:
256,192,129383,1,0,0:0:0:0:
256,192,129498,1,8,0:0:0:0:
256,192,129613,1,8,0:0:0:0:
256,192,129729,1,0,0:0:0:0:
256,192,129806,1,8,0:0:0:0:
256,192,129883,1,8,0:0:0:0:
256,192,129960,1,0,0:0:0:0:
256,192,130075,1,0,0:0:0:0:
256,192,130190,1,8,0:0:0:0:
256,192,130306,1,8,0:0:0:0:
256,192,130421,1,8,0:0:0:0:
256,192,130537,1,0,0:0:0:0:
256,192,130652,1,8,0:0:0:0:
256,192,130767,1,8,0:0:0:0:
256,192,130883,1,0,0:0:0:0:
256,192,131113,1,0,0:0:0:0:
256,192,131344,1,0,0:0:0:0:
256,192,131460,1,0,0:0:0:0:
256,192,131575,1,8,0:0:0:0:
256,192,131690,1,0,0:0:0:0:
256,192,131806,1,8,0:0:0:0:
256,192,132037,1,0,0:0:0:0:
256,192,132267,1,0,0:0:0:0:
256,192,132383,1,0,0:0:0:0:
256,192,132498,1,8,0:0:0:0:
256,192,132613,1,8,0:0:0:0:
256,192,132729,1,0,0:0:0:0:
256,192,132960,1,0,0:0:0:0:
256,192,133190,1,8,0:0:0:0:
256,192,133421,1,8,0:0:0:0:
256,192,133652,1,0,0:0:0:0:
256,192,133883,1,8,0:0:0:0:
256,192,134113,1,8,0:0:0:0:
256,192,134344,1,8,0:0:0:0:
256,192,134575,1,8,0:0:0:0:
256,192,134652,1,0,0:0:0:0:
256,192,134729,1,8,0:0:0:0:
256,192,134806,1,8,0:0:0:0:
256,192,134883,1,0,0:0:0:0:
256,192,134960,1,0,0:0:0:0:
256,192,135037,1,8,0:0:0:0:
256,192,135113,1,0,0:0:0:0:
256,192,135190,1,0,0:0:0:0:
256,192,135267,1,8,0:0:0:0:
256,192,135344,1,8,0:0:0:0:
256,192,135421,1,8,0:0:0:0:
256,192,135498,1,0,0:0:0:0:
256,192,135575,1,0,0:0:0:0:
256,192,135652,1,0,0:0:0:0:
256,192,135729,1,8,0:0:0:0:
256,192,135959,1,8,0:0:0:0:
256,192,136017,1,8,0:0:0:0:
256,192,136074,1,8,0:0:0:0:
256,192,136132,1,8,0:0:0:0:
256,192,136190,1,0,0:0:0:0:
256,192,136421,1,12,0:0:0:0:
256,192,136652,1,0,0:0:0:0:
256,192,136883,1,0,0:0:0:0:
256,192,136998,1,0,0:0:0:0:
256,192,137113,1,8,0:0:0:0:
256,192,137460,1,0,0:0:0:0:
256,192,137575,1,8,0:0:0:0:
256,192,137690,1,0,0:0:0:0:
256,192,137806,1,0,0:0:0:0:
256,192,137921,1,0,0:0:0:0:
256,192,138037,1,8,0:0:0:0:
256,192,138267,1,0,0:0:0:0:
256,192,138729,1,0,0:0:0:0:
256,192,138844,1,8,0:0:0:0:
256,192,138960,1,8,0:0:0:0:
256,192,139075,1,0,0:0:0:0:
256,192,139190,1,8,0:0:0:0:
256,192,139267,1,8,0:0:0:0:
256,192,139344,1,8,0:0:0:0:
256,192,139421,1,8,0:0:0:0:
256,192,139498,1,8,0:0:0:0:
256,192,139575,1,8,0:0:0:0:
256,192,139652,1,0,0:0:0:0:
256,192,139883,1,0,0:0:0:0:
256,192,139960,1,0,0:0:0:0:
256,192,140037,1,8,0:0:0:0:
256,192,140113,1,0,0:0:0:0:
256,192,140190,1,0,0:0:0:0:
256,192,140267,1,8,0:0:0:0:
256,192,140344,1,0,0:0:0:0:
256,192,140421,1,0,0:0:0:0:
256,192,140498,1,8,0:0:0:0:
256,192,140575,1,0,0:0:0:0:
256,192,140806,1,12,0:0:0:0:
256,192,141037,1,0,0:0:0:0:
256,192,141152,1,0,0:0:0:0:
256,192,141267,1,8,0:0:0:0:
256,192,141383,1,8,0:0:0:0:
256,192,141613,1,8,0:0:0:0:
256,192,141729,1,8,0:0:0:0:
256,192,141960,1,8,0:0:0:0:
256,192,142075,1,0,0:0:0:0:
256,192,142190,1,0,0:0:0:0:
256,192,142306,1,0,0:0:0:0:
256,192,142421,1,0,0:0:0:0:
256,192,142652,1,0,0:0:0:0:
256,192,142883,1,0,0:0:0:0:
256,192,142998,1,8,0:0:0:0:
256,192,143113,1,0,0:0:0:0:
256,192,143229,1,8,0:0:0:0:
256,192,143344,1,0,0:0:0:0:
256,192,143575,1,8,0:0:0:0:
256,192,143690,1,0,0:0:0:0:
256,192,143806,1,0,0:0:0:0:
256,192,144037,1,8,0:0:0:0:
256,192,144113,1,8,0:0:0:0:
256,192,144190,1,8,0:0:0:0:
256,192,144267,1,8,0:0:0:0:
256,192,144344,1,8,0:0:0:0:
256,192,144421,1,8,0:0:0:0:
256,192,144498,1,8,0:0:0:0:
256,192,144575,1,8,0:0:0:0:
256,192,144652,1,8,0:0:0:0:
256,192,144729,1,8,0:0:0:0:
256,192,144806,1,8,0:0:0:0:
256,192,144883,1,8,0:0:0:0:
256,192,144960,1,8,0:0:0:0:
256,192,145248,1,8,0:0:0:0:
256,192,145306,1,8,0:0:0:0:
256,192,145594,1,8,0:0:0:0:
256,192,145652,1,8,0:0:0:0:
256,192,145883,1,0,0:0:0:0:
256,192,146229,1,8,0:0:0:0:
256,192,146287,1,0,0:0:0:0:
256,192,146344,1,0,0:0:0:0:
256,192,146575,1,0,0:0:0:0:
256,192,146806,1,0,0:0:0:0:
256,192,146921,1,8,0:0:0:0:
256,192,147037,1,0,0:0:0:0:
256,192,147152,1,0,0:0:0:0:
256,192,147267,1,8,0:0:0:0:
256,192,147344,1,8,0:0:0:0:
256,192,147421,1,8,0:0:0:0:
256,192,147498,1,0,0:0:0:0:
256,192,147613,1,0,0:0:0:0:
256,192,147729,1,8,0:0:0:0:
256,192,148075,1,0,0:0:0:0:
256,192,148421,1,8,0:0:0:0:
256,192,148499,1,0,0:0:0:0:
256,192,148575,1,0,0:0:0:0:
256,192,148652,1,0,0:0:0:0:
256,192,148883,1,0,0:0:0:0:
256,192,148999,1,0,0:0:0:0:
256,192,149268,1,0,0:0:0:0:
256,192,149344,1,0,0:0:0:0:
256,192,149421,1,8,0:0:0:0:
256,192,149498,1,8,0:0:0:0:
256,192,149575,1,8,0:0:0:0:
256,192,149921,1,8,0:0:0:0:
256,192,150383,1,0,0:0:0:0:
256,192,150498,1,8,0:0:0:0:
256,192,150613,1,8,0:0:0:0:
256,192,150729,1,0,0:0:0:0:
256,192,150844,1,0,0:0:0:0:
256,192,150960,1,0,0:0:0:0:
256,192,151190,1,8,0:0:0:0:
256,192,151306,1,8,0:0:0:0:
256,192,151421,1,0,0:0:0:0:
256,192,151537,1,8,0:0:0:0:
256,192,151652,1,0,0:0:0:0:
256,192,151767,1,0,0:0:0:0:
256,192,151883,1,0,0:0:0:0:
256,192,152112,1,0,0:0:0:0:
256,192,152189,1,0,0:0:0:0:
256,192,152266,1,0,0:0:0:0:
256,192,152343,1,8,0:0:0:0:
256,192,152574,1,0,0:0:0:0:
256,192,152689,1,8,0:0:0:0:
256,192,152805,1,0,0:0:0:0:
256,192,152921,1,0,0:0:0:0:
256,192,153037,1,8,0:0:0:0:
256,192,153267,1,0,0:0:0:0:
256,192,153498,1,8,0:0:0:0:
256,192,153613,1,8,0:0:0:0:
256,192,153729,1,0,0:0:0:0:
256,192,153960,1,0,0:0:0:0:
256,192,154075,1,0,0:0:0:0:
256,192,154190,1,0,0:0:0:0:
256,192,154305,1,8,0:0:0:0:
256,192,154362,1,8,0:0:0:0:
256,192,154420,1,0,0:0:0:0:
256,192,154479,1,8,0:0:0:0:
256,192,154537,1,0,0:0:0:0:
256,192,154652,1,8,0:0:0:0:
256,192,154710,1,8,0:0:0:0:
256,192,154767,1,8,0:0:0:0:
256,192,154883,1,0,0:0:0:0:
256,192,155113,1,0,0:0:0:0:
256,192,155190,1,0,0:0:0:0:
256,192,155267,1,8,0:0:0:0:
256,192,155344,1,8,0:0:0:0:
256,192,155421,1,8,0:0:0:0:
256,192,155498,1,0,0:0:0:0:
256,192,155575,1,8,0:0:0:0:
256,192,155806,1,0,0:0:0:0:
256,192,155921,1,0,0:0:0:0:
256,192,156037,1,8,0:0:0:0:
256,192,156152,1,8,0:0:0:0:
256,192,156267,1,0,0:0:0:0:
256,192,156383,1,8,0:0:0:0:
256,192,156498,1,0,0:0:0:0:
256,192,156729,1,8,0:0:0:0:
256,192,156844,1,0,0:0:0:0:
256,192,156960,1,0,0:0:0:0:
256,192,157190,1,0,0:0:0:0:
256,192,157421,1,8,0:0:0:0:
256,192,157652,1,0,0:0:0:0:
256,192,157767,1,8,0:0:0:0:
256,192,157883,1,0,0:0:0:0:
256,192,157998,1,0,0:0:0:0:
256,192,158113,1,8,0:0:0:0:
256,192,158190,1,8,0:0:0:0:
256,192,158267,1,8,0:0:0:0:
256,192,158344,1,0,0:0:0:0:
256,192,158460,1,0,0:0:0:0:
256,192,158575,1,8,0:0:0:0:
256,192,158806,1,0,0:0:0:0:
256,192,159037,1,0,0:0:0:0:
256,192,159152,1,0,0:0:0:0:
256,192,159267,1,8,0:0:0:0:
256,192,159383,1,0,0:0:0:0:
256,192,159498,1,0,0:0:0:0:
256,192,159613,1,0,0:0:0:0:
256,192,159729,1,8,0:0:0:0:
256,192,159844,1,0,0:0:0:0:
256,192,159960,1,0,0:0:0:0:
256,192,160075,1,8,0:0:0:0:
256,192,160190,1,0,0:0:0:0:
256,192,160421,1,8,0:0:0:0:
256,192,160652,1,0,0:0:0:0:
256,192,160883,1,0,0:0:0:0:
256,192,161113,1,8,0:0:0:0:
256,192,161229,1,8,0:0:0:0:
256,192,161344,1,0,0:0:0:0:
256,192,161460,1,8,0:0:0:0:
256,192,161575,1,0,0:0:0:0:
256,192,161690,1,0,0:0:0:0:
256,192,161806,1,0,0:0:0:0:
256,192,161921,1,0,0:0:0:0:
256,192,162037,1,8,0:0:0:0:
256,192,162152,1,8,0:0:0:0:
256,192,162267,1,0,0:0:0:0:
256,192,162344,1,0,0:0:0:0:
256,192,162421,1,0,0:0:0:0:
256,192,162498,1,8,0:0:0:0:
256,192,162613,1,0,0:0:0:0:
256,192,162729,1,0,0:0:0:0:
256,192,162844,1,8,0:0:0:0:
256,192,162960,1,0,0:0:0:0:
256,192,163075,1,0,0:0:0:0:
256,192,163190,1,8,0:0:0:0:
256,192,163421,1,0,0:0:0:0:
256,192,163652,1,0,0:0:0:0:
256,192,163883,1,8,0:0:0:0:
256,192,164037,1,0,0:0:0:0:
256,192,164113,1,0,0:0:0:0:
256,192,164190,1,0,0:0:0:0:
256,192,164267,1,8,0:0:0:0:
256,192,164344,1,8,0:0:0:0:
256,192,164460,1,0,0:0:0:0:
256,192,164575,1,0,0:0:0:0:
256,192,164690,1,8,0:0:0:0:
256,192,164806,1,0,0:0:0:0:
256,192,164921,1,8,0:0:0:0:
256,192,165037,1,8,0:0:0:0:
256,192,165267,1,0,0:0:0:0:
256,192,165498,1,8,0:0:0:0:
256,192,165613,1,8,0:0:0:0:
256,192,165729,1,0,0:0:0:0:
256,192,165960,1,8,0:0:0:0:
256,192,166075,1,0,0:0:0:0:
256,192,166190,1,8,0:0:0:0:
256,192,166421,1,0,0:0:0:0:
256,192,166652,1,8,0:0:0:0:
256,192,166883,1,0,0:0:0:0:
256,192,166998,1,0,0:0:0:0:
256,192,167113,1,8,0:0:0:0:
256,192,167229,1,0,0:0:0:0:
256,192,167344,1,0,0:0:0:0:
256,192,167460,1,0,0:0:0:0:
256,192,167575,1,0,0:0:0:0:
256,192,167690,1,8,0:0:0:0:
256,192,167806,1,0,0:0:0:0:
256,192,168037,1,0,0:0:0:0:
256,192,168267,1,8,0:0:0:0:
256,192,168383,1,0,0:0:0:0:
256,192,168498,1,0,0:0:0:0:
256,192,168613,1,0,0:0:0:0:
256,192,168729,1,8,0:0:0:0:
256,192,168960,1,0,0:0:0:0:
256,192,169075,1,8,0:0:0:0:
256,192,169190,1,0,0:0:0:0:
256,192,169306,1,0,0:0:0:0:
256,192,169421,1,8,0:0:0:0:
256,192,169537,1,0,0:0:0:0:
256,192,169652,1,0,0:0:0:0:
256,192,169767,1,0,0:0:0:0:
256,192,169883,1,8,0:0:0:0:
256,192,169960,1,0,0:0:0:0:
256,192,170037,1,0,0:0:0:0:
256,192,170113,1,8,0:0:0:0:
256,192,170190,1,8,0:0:0:0:
256,192,170267,1,0,0:0:0:0:
256,192,170344,1,8,0:0:0:0:
256,192,170575,1,0,0:0:0:0:
256,192,170690,1,0,0:0:0:0:
256,192,170806,1,8,0:0:0:0:
256,192,170921,1,8,0:0:0:0:
256,192,171036,1,0,0:0:0:0:
256,192,171152,1,8,0:0:0:0:
256,192,171267,1,0,0:0:0:0:
256,192,171383,1,0,0:0:0:0:
256,192,171498,1,8,0:0:0:0:
256,192,171729,1,0,0:0:0:0:
256,192,171959,1,0,0:0:0:0:
256,192,172075,1,8,0:0:0:0:
256,192,172190,1,8,0:0:0:0:
256,192,172306,1,0,0:0:0:0:
256,192,172421,1,8,0:0:0:0:
256,192,172537,1,0,0:0:0:0:
256,192,172652,1,0,0:0:0:0:
256,192,172882,1,8,0:0:0:0:
256,192,172959,1,8,0:0:0:0:
256,192,173036,1,8,0:0:0:0:
256,192,173113,1,0,0:0:0:0:
256,192,173229,1,0,0:0:0:0:
256,192,173344,1,8,0:0:0:0:
256,192,173575,1,0,0:0:0:0:
256,192,173806,1,0,0:0:0:0:
256,192,173921,1,0,0:0:0:0:
256,192,174036,1,8,0:0:0:0:
256,192,174152,1,0,0:0:0:0:
256,192,174267,1,0,0:0:0:0:
256,192,174382,1,0,0:0:0:0:
256,192,174498,1,8,0:0:0:0:
256,192,174613,1,0,0:0:0:0:
256,192,174729,1,0,0:0:0:0:
256,192,174844,1,8,0:0:0:0:
256,192,174959,1,0,0:0:0:0:
256,192,175075,1,0,0:0:0:0:
256,192,175190,1,8,0:0:0:0:
256,192,175421,1,0,0:0:0:0:
256,192,175537,1,0,0:0:0:0:
256,192,175652,1,8,0:0:0:0:
256,192,175767,1,8,0:0:0:0:
256,192,175882,1,0,0:0:0:0:
256,192,175998,1,0,0:0:0:0:
256,192,176113,1,8,0:0:0:0:
256,192,176229,1,0,0:0:0:0:
256,192,176344,1,0,0:0:0:0:
256,192,176459,1,8,0:0:0:0:
256,192,176575,1,8,0:0:0:0:
256,192,176690,1,8,0:0:0:0:
256,192,176806,1,0,0:0:0:0:
256,192,176921,1,8,0:0:0:0:
256,192,177036,1,0,0:0:0:0:
256,192,177113,1,0,0:0:0:0:
256,192,177190,1,0,0:0:0:0:
256,192,177267,1,8,0:0:0:0:
256,192,177613,1,8,0:0:0:0:
256,192,177959,1,8,0:0:0:0:
256,192,178037,1,0,0:0:0:0:
256,192,178113,1,0,0:0:0:0:
256,192,178190,1,0,0:0:0:0:
256,192,178537,1,0,0:0:0:0:
256,192,178806,1,0,0:0:0:0:
256,192,178882,1,0,0:0:0:0:
256,192,178959,1,0,0:0:0:0:
256,192,179036,1,8,0:0:0:0:
256,192,179113,1,8,0:0:0:0:
256,192,179459,1,8,0:0:0:0:
256,192,179806,1,0,0:0:0:0:
256,192,180036,1,0,0:0:0:0:
256,192,180267,1,8,0:0:0:0:
256,192,180382,1,8,0:0:0:0:
256,192,180498,1,0,0:0:0:0:
256,192,180729,1,8,0:0:0:0:
256,192,180844,1,0,0:0:0:0:
256,192,180959,1,8,0:0:0:0:
256,192,181190,1,0,0:0:0:0:
256,192,181421,1,8,0:0:0:0:
256,192,181652,1,0,0:0:0:0:
256,192,181767,1,0,0:0:0:0:
256,192,181882,1,8,0:0:0:0:
256,192,181998,1,0,0:0:0:0:
256,192,182113,1,0,0:0:0:0:
256,192,182229,1,0,0:0:0:0:
256,192,182344,1,0,0:0:0:0:
256,192,182459,1,8,0:0:0:0:
256,192,182575,1,0,0:0:0:0:
256,192,182806,1,0,0:0:0:0:
256,192,183036,1,8,0:0:0:0:
256,192,183152,1,0,0:0:0:0:
256,192,183267,1,0,0:0:0:0:
256,192,183382,1,0,0:0:0:0:
256,192,183498,1,8,0:0:0:0:
256,192,183729,1,0,0:0:0:0:
256,192,183844,1,8,0:0:0:0:
256,192,183959,1,0,0:0:0:0:
256,192,184075,1,0,0:0:0:0:
256,192,184190,1,8,0:0:0:0:
256,192,184306,1,0,0:0:0:0:
256,192,184421,1,0,0:0:0:0:
256,192,184536,1,0,0:0:0:0:
256,192,184652,1,8,0:0:0:0:
256,192,184729,1,0,0:0:0:0:
256,192,184806,1,0,0:0:0:0:
256,192,184882,1,8,0:0:0:0:
256,192,184959,1,8,0:0:0:0:
256,192,185113,1,4,0:0:0:0:
256,192,185229,12,0,190190,0:0:0:0:
