osu file format v14

[General]
AudioFilename: audio.ogg
AudioLeadIn: 0
PreviewTime: 74315
Countdown: 0
SampleSet: Soft
StackLeniency: 0.7
Mode: 3
LetterboxInBreaks: 0
SpecialStyle: 0
WidescreenStoryboard: 1

[Editor]
DistanceSpacing: 1
BeatDivisor: 4
GridSize: 8
TimelineZoom: 2

[Metadata]
Title:Xb10r
TitleUnicode:Xb10r
Artist:Tonari no Niwa wa Aoi (NIWASHI + Aoi)
ArtistUnicode:隣の庭は青い (庭師 + Aoi)
Creator:Lami-
Version:CS' EXCEED
Source:SOUND VOLTEX EXCEED GEAR
Tags:Critical_Star DenYi electronic instrumental video game konami bemani the 10th kac テンブラー temblor オリジナル楽曲コンテストアザレアの使命篇 The Mission of Azalea
BeatmapID:3625999
BeatmapSetID:1730230

[Difficulty]
HPDrainRate:8.5
CircleSize:4
OverallDifficulty:8.3
ApproachRate:5
SliderMultiplier:1.4
SliderTickRate:1

[Events]
//Background and Video events
0,0,"bg.jpg",0,0
//Break Periods
//Storyboard Layer 0 (Background)
//Storyboard Layer 1 (Fail)
//Storyboard Layer 2 (Pass)
//Storyboard Layer 3 (Foreground)
//Storyboard Layer 4 (Overlay)
//Storyboard Sound Samples
Sample,52715,0,"snare_strong.wav",30
Sample,89315,0,"LR_Snare Normal.wav",45
Sample,89915,0,"LR_Snare Normal.wav",45
Sample,90515,0,"LR_Snare Normal.wav",45

[TimingPoints]
2390,300,4,2,1,50,1,0
74390,-100,4,2,1,50,0,1
95990,-100,4,2,1,50,0,0

[HitObjects]
64,192,2390,5,4,0:0:0:0:
192,192,2390,1,2,0:0:0:0:
320,192,2390,1,0,0:0:0:70:LR_Snare Pop.wav
448,192,2390,1,0,0:0:0:0:
192,192,2540,1,0,0:0:0:0:
64,192,2690,1,0,0:0:0:0:
320,192,2690,1,0,0:0:0:0:
448,192,2765,1,0,0:0:0:0:
192,192,2840,1,0,0:0:0:0:
64,192,2915,1,0,0:0:0:0:
320,192,2990,1,0,0:0:0:0:
192,192,3065,1,0,0:0:0:0:
448,192,3140,1,0,0:0:0:0:
192,192,3290,1,0,0:0:0:0:
448,192,3290,1,0,0:0:0:0:
320,192,3365,1,0,0:0:0:0:
64,192,3440,1,0,0:0:0:0:
192,192,3515,1,0,0:0:0:0:
448,192,3590,1,0,0:0:0:0:
320,192,3740,1,0,0:0:0:0:
64,192,3815,1,0,0:0:0:0:
192,192,3890,1,0,0:0:0:0:
448,192,3890,1,0,0:0:0:0:
320,192,3965,1,0,0:0:0:0:
192,192,4040,1,0,0:0:0:0:
320,192,4115,1,0,0:0:0:0:
448,192,4190,1,0,0:0:0:0:
64,192,4265,1,0,0:0:0:0:
320,192,4340,1,0,0:0:0:0:
192,192,4415,1,0,0:0:0:0:
64,192,4490,1,0,0:0:0:0:
448,192,4490,1,0,0:0:0:0:
192,192,4640,1,0,0:0:0:0:
320,192,4715,1,0,0:0:0:0:
64,192,4790,1,0,0:0:0:0:
448,192,4790,1,0,0:0:0:0:
192,192,4940,1,0,0:0:0:0:
320,192,5090,1,0,0:0:0:0:
448,192,5090,1,0,0:0:0:0:
64,192,5240,1,0,0:0:0:0:
320,192,5315,1,0,0:0:0:0:
64,192,5390,1,0,0:0:0:0:
448,192,5465,1,0,0:0:0:0:
192,192,5540,1,0,0:0:0:0:
64,192,5690,1,0,0:0:0:0:
448,192,5690,1,0,0:0:0:0:
320,192,5765,1,0,0:0:0:0:
64,192,5840,1,0,0:0:0:0:
192,192,5840,1,0,0:0:0:0:
320,192,5915,1,0,0:0:0:0:
192,192,5990,1,0,0:0:0:40:LR_Drum Rpd.wav
448,192,5990,1,0,0:0:0:0:
64,192,6140,1,0,0:0:0:0:
192,192,6140,1,0,0:0:0:0:
320,192,6290,1,0,0:0:0:0:
448,192,6290,1,0,0:0:0:0:
64,192,6365,1,0,0:0:0:0:
192,192,6440,1,0,0:0:0:40:LR_Drum Rpd.wav
448,192,6440,1,0,0:0:0:0:
64,192,6590,1,0,0:0:0:40:LR_Drum Rpd.wav
192,192,6590,1,0,0:0:0:0:
320,192,6665,1,0,0:0:0:40:LR_Drum Rpd.wav
448,192,6665,1,0,0:0:0:0:
192,192,6740,1,0,0:0:0:0:
448,192,6815,1,0,0:0:0:40:LR_Drum Rpd.wav
64,192,6890,1,0,0:0:0:40:LR_Drum Rpd.wav
192,192,6890,1,0,0:0:0:0:
64,192,6965,1,2,0:0:0:0:
192,192,6965,1,0,0:0:0:0:
320,192,7040,1,2,0:0:0:0:
448,192,7040,1,0,0:0:0:0:
320,192,7115,1,2,0:0:0:0:
64,192,7190,1,2,0:0:0:0:
192,192,7190,1,4,0:0:0:0:
448,192,7190,1,0,0:0:0:0:
64,192,7340,1,0,0:0:0:0:
192,192,7490,1,8,0:0:0:0:
320,192,7490,1,0,0:0:0:0:
448,192,7490,1,0,0:0:0:0:
320,192,7640,1,0,0:0:0:0:
192,192,7790,1,2,0:0:0:0:
448,192,7790,1,0,0:0:0:0:
320,192,7865,1,0,0:0:0:0:
64,192,7940,1,0,0:0:0:0:
192,192,7940,1,0,0:0:0:0:
64,192,8090,1,8,0:0:0:0:
320,192,8090,1,0,0:0:0:0:
448,192,8090,1,0,0:0:0:0:
64,192,8240,1,2,0:0:0:0:
448,192,8240,1,0,0:0:0:0:
320,192,8315,1,2,0:0:0:0:
64,192,8390,1,2,0:0:0:0:
192,192,8390,1,0,0:0:0:0:
448,192,8390,1,0,0:0:0:0:
192,192,8540,1,0,0:0:0:0:
64,192,8690,1,8,0:0:0:0:
320,192,8690,1,0,0:0:0:0:
448,192,8690,1,0,0:0:0:0:
192,192,8840,1,2,0:0:0:0:
448,192,8840,1,0,0:0:0:0:
320,192,8915,1,2,0:0:0:0:
64,192,8990,1,2,0:0:0:0:
192,192,8990,1,0,0:0:0:0:
448,192,8990,1,0,0:0:0:0:
64,192,9140,1,2,0:0:0:0:
192,192,9140,1,0,0:0:0:0:
320,192,9140,1,0,0:0:0:0:
64,192,9290,1,8,0:0:0:0:
320,192,9290,1,0,0:0:0:0:
448,192,9290,1,0,0:0:0:0:
320,192,9440,1,2,0:0:0:0:
448,192,9440,1,0,0:0:0:0:
64,192,9515,1,2,0:0:0:0:
192,192,9515,1,0,0:0:0:0:
320,192,9590,1,2,0:0:0:0:
448,192,9590,1,0,0:0:0:0:
192,192,9665,1,2,0:0:0:0:
64,192,9740,1,2,0:0:0:0:
320,192,9740,1,0,0:0:0:0:
448,192,9815,1,2,0:0:0:0:
64,192,9890,1,2,0:0:0:0:
192,192,9890,1,0,0:0:0:0:
320,192,9965,1,2,0:0:0:0:
192,192,10040,1,2,0:0:0:0:
448,192,10040,1,0,0:0:0:0:
64,192,10115,1,2,0:0:0:0:
320,192,10190,1,2,0:0:0:0:
448,192,10190,1,0,0:0:0:0:
64,192,10265,1,2,0:0:0:0:
192,192,10265,1,0,0:0:0:0:
320,192,10340,1,2,0:0:0:0:
448,192,10340,1,0,0:0:0:0:
64,192,10415,1,2,0:0:0:0:
192,192,10415,1,0,0:0:0:0:
320,192,10490,1,2,0:0:0:0:
448,192,10490,1,0,0:0:0:0:
64,192,10565,1,2,0:0:0:0:
192,192,10565,1,0,0:0:0:0:
320,192,10640,1,2,0:0:0:0:
448,192,10640,1,0,0:0:0:0:
192,192,10690,1,2,0:0:0:40:scratches kick.wav
64,192,10740,1,2,0:0:0:40:scratches kick.wav
320,192,10790,1,2,0:0:0:0:
448,192,10790,1,4,0:0:0:0:
64,192,10890,1,2,0:0:0:0:
320,192,10890,1,0,0:0:0:0:
64,192,10990,1,2,0:0:0:0:
192,192,10990,1,0,0:0:0:0:
192,192,11090,1,2,0:0:0:0:
448,192,11090,1,0,0:0:0:0:
320,192,11190,1,2,0:0:0:0:
448,192,11190,1,0,0:0:0:0:
64,192,11290,1,2,0:0:0:0:
320,192,11290,1,0,0:0:0:0:
64,192,11390,1,2,0:0:0:0:
192,192,11390,1,0,0:0:0:0:
448,192,11390,128,0,11640:0:0:0:0:
320,192,11440,128,0,11590:0:0:0:0:
192,192,11490,128,0,11540:0:0:0:0:
64,192,11540,1,0,0:0:0:0:
192,192,11590,1,0,0:0:0:0:
320,192,11640,1,0,0:0:0:0:
64,192,11690,1,2,0:0:0:0:
448,192,11690,1,0,0:0:0:0:
192,192,11765,1,0,0:0:0:0:
320,192,11840,1,2,0:0:0:0:
448,192,11840,1,0,0:0:0:0:
64,192,11877,1,0,0:0:0:40:scratches kick.wav
192,192,11915,1,0,0:0:0:40:scratches kick.wav
320,192,11952,1,0,0:0:0:40:scratches kick.wav
64,192,11990,128,4,12215:0:0:0:0:
448,192,11990,128,2,12065:0:0:0:0:
192,192,12140,1,0,0:0:0:50:LR_Snare Normal.wav
320,192,12140,128,0,12365:0:0:0:0:
448,192,12140,128,0,12215:0:0:0:0:
64,192,12290,128,0,12365:0:0:0:50:LR_Snare Normal.wav
192,192,12290,1,0,0:0:0:0:
448,192,12290,128,0,12365:0:0:0:0:
64,192,12440,128,2,12515:0:0:0:0:
320,192,12440,1,0,0:0:0:40:cymbal_short.wav
448,192,12440,128,0,12665:0:0:0:0:
64,192,12590,128,0,12665:0:0:0:50:LR_Snare Normal.wav
192,192,12590,128,0,12815:0:0:0:0:
320,192,12590,1,0,0:0:0:0:
64,192,12740,128,0,12815:0:0:0:50:LR_Snare Normal.wav
320,192,12740,1,0,0:0:0:0:
448,192,12740,128,0,12815:0:0:0:0:
64,192,12890,128,2,12965:0:0:0:0:
192,192,12890,1,0,0:0:0:40:cymbal_short.wav
448,192,12890,128,0,13115:0:0:0:0:
64,192,13040,128,0,13115:0:0:0:50:LR_Snare Normal.wav
192,192,13040,1,0,0:0:0:0:
320,192,13040,128,0,13265:0:0:0:0:
64,192,13190,128,0,13265:0:0:0:50:LR_Snare Normal.wav
192,192,13190,1,0,0:0:0:0:
448,192,13190,128,0,13265:0:0:0:0:
64,192,13340,128,2,13565:0:0:0:0:
320,192,13340,1,0,0:0:0:40:cymbal_short.wav
448,192,13340,128,0,13415:0:0:0:0:
192,192,13490,128,0,13715:0:0:0:50:LR_Snare Normal.wav
320,192,13490,1,0,0:0:0:0:
448,192,13490,128,0,13565:0:0:0:0:
64,192,13640,128,0,13715:0:0:0:50:LR_Snare Normal.wav
320,192,13640,1,0,0:0:0:0:
448,192,13640,128,0,13715:0:0:0:0:
64,192,13790,128,2,13865:0:0:0:0:
192,192,13790,128,0,13865:0:0:0:40:cymbal_short.wav
448,192,13790,1,0,0:0:0:0:
320,192,13865,1,0,0:0:0:50:LR_Snare Normal.wav
64,192,13940,128,2,14015:0:0:0:0:
192,192,13940,128,0,14240:0:0:0:0:
448,192,13940,128,0,14015:0:0:0:0:
64,192,14090,128,2,14315:0:0:0:0:
320,192,14090,128,0,14165:0:0:0:40:cymbal_short.wav
448,192,14165,1,0,0:0:0:50:LR_Snare Normal.wav
320,192,14240,1,0,0:0:0:50:LR_Snare Normal.wav
192,192,14315,1,0,0:0:0:50:LR_Snare Normal.wav
64,192,14390,128,2,14615:0:0:0:0:
320,192,14390,1,4,0:0:0:0:
448,192,14390,128,0,14465:0:0:0:0:
320,192,14540,1,0,0:0:0:50:LR_Snare Normal.wav
448,192,14540,128,0,14615:0:0:0:0:
192,192,14615,1,0,0:0:0:0:
64,192,14690,1,0,0:0:0:50:LR_Snare Normal.wav
448,192,14690,128,0,14765:0:0:0:0:
192,192,14765,1,0,0:0:0:0:
64,192,14840,128,2,14915:0:0:0:0:
320,192,14840,128,0,14990:0:0:0:40:cymbal_short.wav
448,192,14840,1,0,0:0:0:0:
64,192,14990,128,0,15065:0:0:0:50:LR_Snare Normal.wav
448,192,14990,1,0,0:0:0:0:
320,192,15065,1,0,0:0:0:0:
64,192,15140,128,0,15215:0:0:0:50:LR_Snare Normal.wav
192,192,15140,1,0,0:0:0:0:
320,192,15215,1,0,0:0:0:0:
64,192,15290,1,2,0:0:0:0:
192,192,15290,128,0,15515:0:0:0:40:cymbal_short.wav
448,192,15290,128,0,15365:0:0:0:0:
320,192,15440,1,0,0:0:0:50:LR_Snare Normal.wav
448,192,15440,128,0,15515:0:0:0:0:
64,192,15515,1,0,0:0:0:0:
192,192,15590,1,0,0:0:0:50:LR_Snare Normal.wav
448,192,15590,128,0,15665:0:0:0:0:
320,192,15665,1,0,0:0:0:0:
64,192,15740,128,2,15815:0:0:0:0:
192,192,15740,1,0,0:0:0:40:cymbal_short.wav
448,192,15740,128,0,16040:0:0:0:0:
64,192,15890,128,0,15965:0:0:0:50:LR_Snare Normal.wav
192,192,15890,1,0,0:0:0:0:
64,192,16040,128,0,16115:0:0:0:50:LR_Snare Normal.wav
192,192,16040,1,0,0:0:0:0:
320,192,16115,1,0,0:0:0:50:LR_Snare Normal.wav
64,192,16190,1,2,0:0:0:0:
192,192,16190,128,0,16340:0:0:0:40:cymbal_short.wav
448,192,16190,1,0,0:0:0:0:
64,192,16340,1,0,0:0:0:40:scratches kick.wav
448,192,16340,1,0,0:0:0:0:
320,192,16377,1,0,0:0:0:40:scratches kick.wav
192,192,16415,1,0,0:0:0:40:scratches kick.wav
64,192,16452,1,0,0:0:0:40:scratches kick.wav
320,192,16490,1,2,0:0:0:0:
448,192,16490,1,4,0:0:0:0:
64,192,16565,1,2,0:0:0:0:
192,192,16565,1,0,0:0:0:0:
320,192,16640,1,2,0:0:0:0:
448,192,16640,1,0,0:0:0:0:
192,192,16715,1,2,0:0:0:0:
64,192,16790,128,4,17015:0:0:0:0:
320,192,16790,128,2,16865:0:0:0:0:
448,192,16790,128,0,16940:0:0:0:0:
192,192,16865,128,0,17015:0:0:0:0:
320,192,16940,128,0,17090:0:0:0:0:
448,192,17015,128,0,17165:0:0:0:0:
64,192,17090,128,0,17165:0:0:0:50:LR_Snare Normal.wav
192,192,17090,128,0,17165:0:0:0:0:
320,192,17165,128,0,17240:0:0:0:0:
64,192,17240,128,2,17390:0:0:0:0:
192,192,17240,128,0,17315:0:0:0:40:cymbal_short.wav
448,192,17240,128,0,17465:0:0:0:0:
320,192,17315,128,0,17465:0:0:0:0:
192,192,17390,128,0,17540:0:0:0:0:
64,192,17465,128,0,17615:0:0:0:0:
320,192,17540,128,0,17615:0:0:0:50:LR_Snare Normal.wav
448,192,17540,128,0,17615:0:0:0:0:
192,192,17615,128,0,17690:0:0:0:0:
64,192,17690,128,2,17765:0:0:0:0:
320,192,17690,128,0,17765:0:0:0:40:cymbal_short.wav
448,192,17690,128,0,17840:0:0:0:0:
192,192,17765,128,0,17915:0:0:0:0:
64,192,17840,128,0,17915:0:0:0:0:
320,192,17840,128,0,17990:0:0:0:0:
448,192,17915,128,0,18065:0:0:0:0:
64,192,17990,128,0,18065:0:0:0:50:LR_Snare Normal.wav
192,192,17990,128,0,18065:0:0:0:0:
320,192,18065,128,0,18140:0:0:0:0:
64,192,18140,128,2,18290:0:0:0:0:
192,192,18140,128,0,18215:0:0:0:40:cymbal_short.wav
448,192,18140,128,0,18215:0:0:0:0:
320,192,18215,128,0,18365:0:0:0:0:
192,192,18290,128,0,18440:0:0:0:0:
448,192,18290,128,0,18365:0:0:0:0:
64,192,18365,128,0,18515:0:0:0:0:
320,192,18440,128,0,18515:0:0:0:50:LR_Snare Normal.wav
448,192,18440,128,0,18515:0:0:0:0:
192,192,18515,128,0,18590:0:0:0:0:
64,192,18590,1,2,0:0:0:0:
320,192,18590,1,0,0:0:0:40:cymbal_short.wav
448,192,18590,1,0,0:0:0:0:
192,192,18665,1,0,0:0:0:0:
320,192,18740,1,0,0:0:0:40:scratches kick.wav
448,192,18740,1,0,0:0:0:0:
64,192,18777,1,0,0:0:0:40:scratches kick.wav
192,192,18815,1,0,0:0:0:40:scratches kick.wav
320,192,18852,1,0,0:0:0:40:scratches kick.wav
64,192,18890,128,2,19190:0:0:0:0:
448,192,18890,128,4,19640:0:0:0:0:
192,192,19190,1,2,0:0:0:0:
320,192,19190,1,0,0:0:0:0:
64,192,19340,1,2,0:0:0:0:
192,192,19340,1,0,0:0:0:0:
64,192,19490,1,2,0:0:0:0:
320,192,19490,1,0,0:0:0:0:
64,192,19640,1,2,0:0:0:0:
192,192,19640,1,0,0:0:0:0:
320,192,19640,1,0,0:0:0:0:
64,192,19790,1,2,0:0:0:0:
192,192,19790,1,0,0:0:0:0:
448,192,19790,1,0,0:0:0:0:
192,192,19940,1,2,0:0:0:0:
320,192,19940,1,0,0:0:0:0:
448,192,19940,1,0,0:0:0:0:
64,192,20090,1,2,0:0:0:0:
320,192,20090,1,0,0:0:0:0:
448,192,20090,1,0,0:0:0:0:
64,192,20240,1,2,0:0:0:0:
192,192,20240,1,0,0:0:0:0:
320,192,20315,1,2,0:0:0:0:
448,192,20315,1,0,0:0:0:0:
64,192,20390,1,2,0:0:0:0:
192,192,20390,1,0,0:0:0:0:
320,192,20465,1,2,0:0:0:0:
448,192,20465,1,0,0:0:0:0:
64,192,20540,1,2,0:0:0:0:
192,192,20540,1,0,0:0:0:0:
320,192,20615,1,2,0:0:0:0:
448,192,20615,1,0,0:0:0:0:
64,192,20690,1,2,0:0:0:0:
192,192,20690,1,0,0:0:0:0:
320,192,20765,1,2,0:0:0:0:
448,192,20765,1,0,0:0:0:0:
64,192,20840,1,2,0:0:0:0:
192,192,20840,1,0,0:0:0:0:
320,192,20915,1,2,0:0:0:0:
448,192,20915,1,0,0:0:0:0:
64,192,20990,1,0,0:0:0:40:scratches kick.wav
192,192,20990,1,0,0:0:0:0:
448,192,21027,1,0,0:0:0:40:scratches kick.wav
320,192,21065,1,0,0:0:0:40:scratches kick.wav
192,192,21102,1,0,0:0:0:40:scratches kick.wav
64,192,21140,1,0,0:0:0:40:scratches kick.wav
448,192,21177,1,0,0:0:0:40:scratches kick.wav
320,192,21215,1,0,0:0:0:40:scratches kick.wav
192,192,21252,1,0,0:0:0:40:scratches kick.wav
64,192,21290,128,2,21515:0:0:0:0:
448,192,21290,128,0,21515:0:0:0:70:LR2_ClapRRvLE.wav
64,192,21590,1,4,0:0:0:0:
192,192,21590,1,2,0:0:0:0:
320,192,21590,1,0,0:0:0:70:LR_Snare Pop.wav
448,192,21590,1,0,0:0:0:0:
192,192,21740,1,0,0:0:0:0:
64,192,21890,1,0,0:0:0:0:
320,192,21965,1,0,0:0:0:0:
64,192,22040,1,0,0:0:0:0:
192,192,22115,1,0,0:0:0:0:
448,192,22190,1,0,0:0:0:0:
320,192,22415,1,0,0:0:0:0:
192,192,22640,1,0,0:0:0:0:
64,192,22940,1,0,0:0:0:0:
192,192,23090,1,0,0:0:0:0:
320,192,23240,1,0,0:0:0:0:
320,192,23540,1,0,0:0:0:0:
192,192,23690,1,0,0:0:0:0:
448,192,23840,1,0,0:0:0:0:
64,192,23990,1,0,0:0:0:0:
448,192,24215,1,0,0:0:0:0:
320,192,24440,1,0,0:0:0:0:
64,192,24590,1,0,0:0:0:0:
448,192,24740,1,0,0:0:0:0:
192,192,24815,1,0,0:0:0:0:
64,192,24965,1,0,0:0:0:0:
320,192,25040,1,0,0:0:0:0:
64,192,25190,1,0,0:0:0:60:LR_Hat Normal.wav
448,192,25190,1,0,0:0:0:0:
64,192,25340,1,0,0:0:0:60:LR_Hat Normal.wav
192,192,25490,1,0,0:0:0:60:LR_Hat Normal.wav
448,192,25490,1,0,0:0:0:0:
448,192,25640,1,0,0:0:0:60:LR_Hat Normal.wav
192,192,25715,1,0,0:0:0:0:
64,192,25790,1,0,0:0:0:40:LR_Drum Rim Fast.wav
320,192,25790,1,0,0:0:0:0:
448,192,25865,1,0,0:0:0:40:LR_Drum Rim Fast.wav
192,192,25940,1,0,0:0:0:40:LR_Drum Rim Fast.wav
320,192,26015,1,0,0:0:0:40:LR_Drum Rim Fast.wav
64,192,26090,1,0,0:0:0:40:LR_Drum Rim Fast.wav
448,192,26090,1,0,0:0:0:0:
192,192,26165,1,0,0:0:0:40:LR_Drum Rim Fast.wav
320,192,26240,1,0,0:0:0:40:LR_Drum Rim Fast.wav
192,192,26315,1,0,0:0:0:40:LR_Drum Rim Fast.wav
64,192,26390,1,4,0:0:0:0:
320,192,26390,1,2,0:0:0:0:
448,192,26390,1,0,0:0:0:0:
192,192,26540,1,0,0:0:0:0:
320,192,26615,1,0,0:0:0:0:
448,192,26615,1,0,0:0:0:0:
64,192,26690,1,0,0:0:0:40:LR_Drum Rim Fast.wav
192,192,26690,1,0,0:0:0:0:
320,192,26765,1,0,0:0:0:40:LR_Drum Rim Fast.wav
64,192,26840,1,0,0:0:0:40:LR_Drum Rim Fast.wav
448,192,26840,1,0,0:0:0:40:LR_Drum Rpd.wav
192,192,26915,1,0,0:0:0:40:LR_Drum Rim Fast.wav
320,192,26990,1,0,0:0:0:40:LR_Drum Rim Fast.wav
448,192,26990,1,0,0:0:0:40:LR_Drum Rpd.wav
192,192,27065,1,0,0:0:0:40:LR_Drum Rim Fast.wav
64,192,27140,1,0,0:0:0:40:LR_Drum Rim Fast.wav
448,192,27140,128,0,27215:0:0:0:0:
320,192,27215,128,0,27290:0:0:0:40:LR_Drum Rim Fast.wav
64,192,27290,1,0,0:0:0:40:LR_Drum Rim Fast.wav
448,192,27290,128,0,27365:0:0:0:0:
192,192,27365,128,0,27440:0:0:0:40:LR_Drum Rim Fast.wav
64,192,27440,128,2,27515:0:0:0:0:
320,192,27440,1,0,0:0:0:40:cymbal_short.wav
448,192,27440,1,0,0:0:0:40:LR_Drum Rim Fast.wav
192,192,27515,128,0,27590:0:0:0:40:LR_Drum Rim Fast.wav
64,192,27590,1,2,0:0:0:0:
320,192,27590,1,0,0:0:0:40:cymbal_short.wav
448,192,27590,1,0,0:0:0:45:LR_Drum Rim Fast.wav
192,192,27665,1,0,0:0:0:45:LR_Drum Rim Fast.wav
448,192,27740,1,0,0:0:0:45:LR_Drum Rim Fast.wav
64,192,27815,1,0,0:0:0:45:LR_Drum Rim Fast.wav
192,192,27815,1,0,0:0:0:40:LR_Drum Rpd.wav
320,192,27890,1,0,0:0:0:45:LR_Drum Rim Fast.wav
448,192,27890,1,0,0:0:0:40:LR_Drum Rpd.wav
192,192,27965,1,0,0:0:0:45:LR_Drum Rim Fast.wav
64,192,28040,1,0,0:0:0:45:LR_Drum Rim Fast.wav
448,192,28040,1,0,0:0:0:0:
320,192,28115,1,0,0:0:0:45:LR_Drum Rim Fast.wav
64,192,28190,128,2,28265:0:0:0:0:
192,192,28190,1,0,0:0:0:40:cymbal_short.wav
448,192,28190,1,0,0:0:0:45:LR_Drum Rim Fast.wav
320,192,28265,1,0,0:0:0:45:LR_Drum Rim Fast.wav
64,192,28340,1,0,0:0:0:45:LR_Drum Rim Fast.wav
448,192,28340,128,0,28415:0:0:0:0:
192,192,28415,1,0,0:0:0:45:LR_Drum Rim Fast.wav
64,192,28490,1,2,0:0:0:0:
320,192,28490,128,0,28565:0:0:0:40:cymbal_short.wav
448,192,28490,1,0,0:0:0:50:LR_Drum Rim Fast.wav
192,192,28565,1,0,0:0:0:50:LR_Drum Rim Fast.wav
320,192,28640,1,0,0:0:0:50:LR_Drum Rim Fast.wav
448,192,28640,128,0,28715:0:0:0:0:
192,192,28715,1,0,0:0:0:50:LR_Drum Rim Fast.wav
64,192,28790,128,2,28865:0:0:0:0:
320,192,28790,1,0,0:0:0:40:cymbal_short.wav
448,192,28790,128,0,29015:0:0:0:50:LR_Drum Rim Fast.wav
192,192,28865,128,0,28940:0:0:0:50:LR_Drum Rim Fast.wav
320,192,28940,128,0,29015:0:0:0:50:LR_Drum Rim Fast.wav
64,192,29015,128,0,29090:0:0:0:50:LR_Drum Rim Fast.wav
320,192,29090,128,0,29165:0:0:0:50:LR_Drum Rim Fast.wav
448,192,29090,128,0,29165:0:0:0:0:
192,192,29165,128,0,29240:0:0:0:50:LR_Drum Rim Fast.wav
64,192,29240,128,0,29315:0:0:0:50:LR_Drum Rim Fast.wav
448,192,29240,128,0,29315:0:0:0:0:
320,192,29315,128,0,29390:0:0:0:50:LR_Drum Rim Fast.wav
64,192,29390,128,2,29615:0:0:0:0:
192,192,29390,1,0,0:0:0:40:cymbal_short.wav
448,192,29390,128,0,29465:0:0:0:50:LR_Drum Rim Fast.wav
320,192,29465,128,0,29540:0:0:0:50:LR_Drum Rim Fast.wav
192,192,29540,128,0,29615:0:0:0:50:LR_Drum Rim Fast.wav
448,192,29615,128,0,29690:0:0:0:50:LR_Drum Rim Fast.wav
64,192,29690,128,0,29765:0:0:0:50:LR_Drum Rim Fast.wav
192,192,29690,128,0,29765:0:0:0:0:
320,192,29765,128,0,29840:0:0:0:50:LR_Drum Rim Fast.wav
64,192,29840,128,0,29915:0:0:0:50:LR_Drum Rim Fast.wav
448,192,29840,128,0,29915:0:0:0:0:
192,192,29915,128,0,29990:0:0:0:50:LR_Drum Rim Fast.wav
320,192,29990,1,2,0:0:0:0:
448,192,29990,1,0,0:0:0:40:cymbal_short.wav
64,192,30065,1,0,0:0:0:0:
320,192,30140,1,0,0:0:0:0:
448,192,30140,1,0,0:0:0:0:
448,192,30215,1,0,0:0:0:0:
64,192,30290,1,0,0:0:0:0:
192,192,30290,1,0,0:0:0:0:
320,192,30365,1,0,0:0:0:0:
64,192,30440,1,2,0:0:0:0:
192,192,30440,1,0,0:0:0:40:cymbal_short.wav
448,192,30440,1,0,0:0:0:0:
320,192,30515,1,0,0:0:0:0:
64,192,30590,1,0,0:0:0:0:
192,192,30590,1,0,0:0:0:0:
64,192,30665,1,0,0:0:0:0:
320,192,30740,1,0,0:0:0:0:
448,192,30740,1,0,0:0:0:0:
320,192,30815,1,0,0:0:0:0:
64,192,30890,1,0,0:0:0:40:scratches kick.wav
192,192,30890,1,0,0:0:0:0:
448,192,30927,1,0,0:0:0:40:scratches kick.wav
320,192,30965,1,0,0:0:0:40:scratches kick.wav
192,192,31002,1,0,0:0:0:40:scratches kick.wav
64,192,31040,1,0,0:0:0:40:scratches kick.wav
448,192,31077,1,0,0:0:0:40:scratches kick.wav
320,192,31115,1,0,0:0:0:40:scratches kick.wav
192,192,31152,1,0,0:0:0:40:scratches kick.wav
64,192,31190,1,6,0:0:0:0:
448,192,31190,128,0,31340:0:0:0:70:LR_Snare Pop.wav
320,192,31340,1,0,0:0:0:40:scratches kick.wav
64,192,31377,1,0,0:0:0:40:scratches kick.wav
192,192,31415,1,0,0:0:0:40:scratches kick.wav
320,192,31452,1,0,0:0:0:40:scratches kick.wav
64,192,31490,1,2,0:0:0:0:
448,192,31490,1,0,0:0:0:0:
192,192,31565,1,2,0:0:0:0:
320,192,31565,1,0,0:0:0:0:
64,192,31640,1,2,0:0:0:0:
448,192,31640,1,0,0:0:0:0:
192,192,31715,1,2,0:0:0:0:
64,192,31790,1,2,0:0:0:0:
320,192,31790,128,0,32165:0:0:0:0:
448,192,31790,128,0,31940:0:0:0:0:
64,192,31940,1,0,0:0:0:0:
192,192,32015,128,2,32390:0:0:0:0:
448,192,32015,128,0,32090:0:0:0:0:
448,192,32165,1,0,0:0:0:0:
64,192,32240,128,2,32465:0:0:0:0:
320,192,32240,128,0,32315:0:0:0:0:
448,192,32315,1,0,0:0:0:0:
320,192,32390,1,0,0:0:0:0:
192,192,32465,1,0,0:0:0:0:
64,192,32540,128,2,32615:0:0:0:0:
320,192,32540,128,0,32615:0:0:0:0:
448,192,32540,128,0,32765:0:0:0:0:
64,192,32690,128,2,32765:0:0:0:0:
192,192,32690,128,0,32990:0:0:0:0:
320,192,32690,1,0,0:0:0:0:
64,192,32840,128,2,32990:0:0:0:0:
320,192,32840,1,0,0:0:0:0:
448,192,32840,1,0,0:0:0:0:
320,192,32990,1,2,0:0:0:0:
448,192,32990,1,0,0:0:0:0:
192,192,33065,1,2,0:0:0:0:
64,192,33140,128,2,33215:0:0:0:0:
448,192,33140,1,0,0:0:0:0:
320,192,33215,1,2,0:0:0:0:
192,192,33290,128,2,33365:0:0:0:0:
448,192,33290,1,0,0:0:0:0:
64,192,33365,1,2,0:0:0:0:
192,192,33440,1,2,0:0:0:0:
448,192,33440,128,0,33515:0:0:0:0:
64,192,33515,1,2,0:0:0:0:
192,192,33590,1,2,0:0:0:0:
320,192,33590,128,4,33740:0:0:0:0:
448,192,33590,1,0,0:0:0:0:
448,192,33740,1,0,0:0:0:0:
64,192,33815,128,0,33965:0:0:0:0:
192,192,33815,1,0,0:0:0:0:
320,192,33890,128,8,33965:0:0:0:0:
448,192,33890,1,0,0:0:0:0:
192,192,33965,128,0,34040:0:0:0:0:
64,192,34040,128,0,34115:0:0:0:0:
448,192,34040,128,0,34190:0:0:0:0:
320,192,34115,128,0,34190:0:0:0:0:
64,192,34190,128,2,34340:0:0:0:0:
192,192,34190,128,0,34265:0:0:0:0:
448,192,34265,128,0,34340:0:0:0:0:
320,192,34340,128,0,34415:0:0:0:0:
192,192,34415,128,0,34565:0:0:0:0:
448,192,34415,128,0,34490:0:0:0:0:
64,192,34490,128,8,34565:0:0:0:0:
320,192,34490,1,0,0:0:0:0:
320,192,34640,128,0,34940:0:0:0:0:
448,192,34640,1,0,0:0:0:0:
64,192,34715,1,0,0:0:0:0:
192,192,34790,1,2,0:0:0:0:
448,192,34790,1,0,0:0:0:0:
64,192,34865,1,0,0:0:0:0:
192,192,34940,1,0,0:0:0:0:
320,192,35015,1,0,0:0:0:0:
64,192,35090,128,8,35165:0:0:0:0:
448,192,35090,128,0,35315:0:0:0:0:
320,192,35165,128,0,35240:0:0:0:0:
64,192,35240,128,0,35315:0:0:0:0:
192,192,35315,128,0,35390:0:0:0:0:
320,192,35390,128,2,35615:0:0:0:0:
448,192,35390,128,0,35465:0:0:0:0:
192,192,35465,128,0,35540:0:0:0:0:
64,192,35540,1,8,0:0:0:0:
448,192,35540,128,0,35615:0:0:0:0:
192,192,35615,1,0,0:0:0:0:
64,192,35690,128,2,35840:0:0:0:0:
320,192,35690,1,0,0:0:0:0:
448,192,35690,1,0,0:0:0:0:
448,192,35840,1,0,0:0:0:40:scratches kick.wav
320,192,35877,1,0,0:0:0:40:scratches kick.wav
192,192,35915,1,0,0:0:0:40:scratches kick.wav
64,192,35952,1,0,0:0:0:40:scratches kick.wav
320,192,35990,1,4,0:0:0:0:
448,192,35990,1,0,0:0:0:0:
64,192,36140,1,2,0:0:0:0:
192,192,36140,1,0,0:0:0:0:
320,192,36215,1,0,0:0:0:0:
64,192,36290,1,2,0:0:0:0:
192,192,36290,1,8,0:0:0:0:
448,192,36290,1,0,0:0:0:0:
320,192,36365,1,0,0:0:0:0:
192,192,36440,1,0,0:0:0:0:
448,192,36515,1,0,0:0:0:0:
64,192,36590,1,2,0:0:0:0:
320,192,36590,1,0,0:0:0:0:
192,192,36665,1,0,0:0:0:0:
64,192,36740,1,2,0:0:0:0:
448,192,36740,1,0,0:0:0:0:
192,192,36815,1,0,0:0:0:0:
320,192,36890,1,2,0:0:0:0:
448,192,36890,1,0,0:0:0:0:
64,192,36965,1,2,0:0:0:0:
192,192,36965,1,0,0:0:0:0:
320,192,37040,1,0,0:0:0:40:scratches kick.wav
448,192,37040,1,0,0:0:0:0:
64,192,37077,1,0,0:0:0:40:scratches kick.wav
192,192,37115,1,0,0:0:0:40:scratches kick.wav
320,192,37152,1,0,0:0:0:40:scratches kick.wav
448,192,37190,128,0,37340:0:0:0:40:scratches kick.wav
64,192,37340,1,2,0:0:0:0:
192,192,37340,1,0,0:0:0:40:cymbal_short.wav
320,192,37340,1,0,0:0:0:0:
64,192,37490,1,2,0:0:0:0:
320,192,37490,1,4,0:0:0:0:
448,192,37490,1,0,0:0:0:0:
192,192,37565,1,0,0:0:0:0:
448,192,37640,1,0,0:0:0:0:
320,192,37715,1,0,0:0:0:0:
64,192,37790,128,2,37865:0:0:0:0:
192,192,37790,1,0,0:0:0:0:
448,192,37790,1,0,0:0:0:0:
320,192,37865,1,0,0:0:0:0:
192,192,37940,128,2,38015:0:0:0:0:
448,192,37940,1,0,0:0:0:0:
64,192,38015,1,0,0:0:0:0:
192,192,38090,1,2,0:0:0:0:
320,192,38090,128,0,38165:0:0:0:0:
448,192,38090,1,0,0:0:0:0:
64,192,38165,1,0,0:0:0:0:
192,192,38240,1,2,0:0:0:0:
448,192,38240,128,0,38315:0:0:0:0:
320,192,38315,1,0,0:0:0:0:
64,192,38390,1,2,0:0:0:0:
192,192,38390,1,4,0:0:0:0:
448,192,38390,1,0,0:0:0:0:
320,192,38465,1,0,0:0:0:0:
64,192,38540,1,2,0:0:0:0:
448,192,38540,1,0,0:0:0:0:
192,192,38615,1,0,0:0:0:0:
64,192,38690,1,2,0:0:0:0:
448,192,38690,1,0,0:0:0:0:
320,192,38765,1,0,0:0:0:0:
64,192,38840,1,2,0:0:0:0:
448,192,38840,1,0,0:0:0:0:
192,192,38915,1,0,0:0:0:0:
320,192,38990,1,2,0:0:0:0:
448,192,38990,1,0,0:0:0:0:
64,192,39065,1,2,0:0:0:0:
192,192,39065,1,0,0:0:0:0:
320,192,39140,1,2,0:0:0:0:
448,192,39140,1,0,0:0:0:0:
64,192,39215,1,2,0:0:0:0:
192,192,39215,1,0,0:0:0:0:
448,192,39290,1,0,0:0:0:40:scratches kick.wav
320,192,39327,1,0,0:0:0:40:scratches kick.wav
192,192,39365,1,0,0:0:0:40:scratches kick.wav
64,192,39402,1,0,0:0:0:40:scratches kick.wav
320,192,39440,1,0,0:0:0:0:
448,192,39440,1,0,0:0:0:0:
192,192,39515,1,0,0:0:0:0:
64,192,39590,128,2,39715:0:0:0:0:
320,192,39590,128,0,39715:0:0:0:0:
448,192,39590,128,0,39715:0:0:0:0:
64,192,39790,128,2,39915:0:0:0:0:
192,192,39790,128,0,39915:0:0:0:0:
320,192,39790,128,0,39915:0:0:0:0:
64,192,39990,128,2,40115:0:0:0:0:
192,192,39990,128,0,40115:0:0:0:0:
448,192,39990,128,0,40115:0:0:0:0:
192,192,40190,128,2,40315:0:0:0:0:
320,192,40190,128,0,40315:0:0:0:0:
448,192,40190,128,0,40315:0:0:0:0:
64,192,40390,128,2,40515:0:0:0:0:
320,192,40390,128,0,40515:0:0:0:0:
448,192,40390,128,0,40515:0:0:0:0:
64,192,40590,128,2,40715:0:0:0:0:
192,192,40590,128,0,40715:0:0:0:0:
320,192,40590,128,0,40715:0:0:0:0:
64,192,40790,128,2,42290:0:0:0:0:
192,192,40790,128,4,42140:0:0:0:0:
320,192,40790,128,0,41990:0:0:0:0:
448,192,40790,128,0,41840:0:0:0:0:
448,192,41990,1,2,0:0:0:0:
320,192,42140,1,2,0:0:0:0:
192,192,42290,1,8,0:0:0:0:
448,192,42290,1,0,0:0:0:0:
64,192,42440,1,0,0:0:0:0:
192,192,42515,1,8,0:0:0:0:
64,192,42590,1,2,0:0:0:0:
448,192,42590,1,0,0:0:0:40:cymbal_short.wav
320,192,42665,1,0,0:0:0:0:
64,192,42740,1,2,0:0:0:0:
448,192,42740,1,0,0:0:0:40:cymbal_short.wav
192,192,42815,1,0,0:0:0:0:
320,192,42890,1,0,0:0:0:0:
448,192,42890,1,0,0:0:0:0:
64,192,42965,1,0,0:0:0:0:
192,192,43040,1,0,0:0:0:0:
320,192,43115,1,0,0:0:0:0:
64,192,43190,128,2,43340:0:0:0:0:
192,192,43190,128,0,43340:0:0:0:40:cymbal_short.wav
448,192,43190,128,0,43340:0:0:0:0:
64,192,43490,128,4,43715:0:0:0:0:
192,192,43490,128,2,43715:0:0:0:0:
320,192,43490,128,8,43715:0:0:0:70:LR_Snare Pop.wav
448,192,43490,128,0,43715:0:0:0:0:
64,192,43790,1,2,0:0:0:0:
448,192,43790,1,0,0:0:0:0:
320,192,43865,1,0,0:0:0:0:
64,192,43940,1,0,0:0:0:0:
192,192,43940,1,0,0:0:0:0:
192,192,44015,1,0,0:0:0:0:
320,192,44090,1,2,0:0:0:0:
448,192,44090,1,0,0:0:0:0:
64,192,44165,1,0,0:0:0:0:
192,192,44240,1,0,0:0:0:0:
448,192,44240,1,0,0:0:0:0:
448,192,44315,1,0,0:0:0:0:
64,192,44390,1,2,0:0:0:0:
192,192,44390,1,0,0:0:0:0:
320,192,44465,1,0,0:0:0:0:
64,192,44540,1,0,0:0:0:0:
448,192,44540,1,0,0:0:0:0:
64,192,44615,1,0,0:0:0:0:
320,192,44690,1,2,0:0:0:0:
448,192,44690,1,0,0:0:0:0:
192,192,44765,1,0,0:0:0:0:
64,192,44840,1,0,0:0:0:0:
320,192,44840,1,0,0:0:0:0:
320,192,44915,1,0,0:0:0:0:
64,192,44990,1,2,0:0:0:0:
192,192,44990,1,0,0:0:0:0:
320,192,45065,1,0,0:0:0:0:
64,192,45140,1,0,0:0:0:0:
448,192,45140,1,0,0:0:0:0:
192,192,45215,1,0,0:0:0:0:
64,192,45290,1,2,0:0:0:0:
448,192,45290,1,0,0:0:0:0:
320,192,45365,1,0,0:0:0:0:
192,192,45440,1,0,0:0:0:0:
448,192,45440,1,0,0:0:0:0:
64,192,45515,1,0,0:0:0:0:
320,192,45590,128,2,45740:0:0:0:0:
448,192,45590,128,0,45815:0:0:0:0:
64,192,45665,1,0,0:0:0:0:
192,192,45740,1,0,0:0:0:0:
320,192,45815,1,0,0:0:0:0:
64,192,45890,128,2,46115:0:0:0:0:
192,192,45890,128,0,46040:0:0:0:0:
448,192,45965,1,0,0:0:0:0:
320,192,46040,1,0,0:0:0:0:
192,192,46115,1,0,0:0:0:0:
64,192,46190,1,2,0:0:0:0:
448,192,46190,1,0,0:0:0:0:
320,192,46265,1,0,0:0:0:0:
64,192,46340,1,0,0:0:0:0:
448,192,46340,1,0,0:0:0:0:
192,192,46415,1,0,0:0:0:0:
320,192,46490,1,2,0:0:0:0:
448,192,46490,1,0,0:0:0:0:
192,192,46565,1,0,0:0:0:0:
64,192,46640,128,2,46790:0:0:0:0:
320,192,46640,128,4,46715:0:0:0:0:
448,192,46640,128,0,46715:0:0:0:0:
192,192,46715,128,0,46865:0:0:0:0:
320,192,46790,128,2,46940:0:0:0:0:
448,192,46790,128,0,47015:0:0:0:0:
64,192,46940,1,0,0:0:0:0:
192,192,47015,1,0,0:0:0:0:
320,192,47090,1,2,0:0:0:0:
448,192,47090,1,0,0:0:0:0:
192,192,47165,1,0,0:0:0:0:
64,192,47240,128,2,47540:0:0:0:0:
320,192,47240,1,4,0:0:0:0:
448,192,47240,128,0,47465:0:0:0:0:
192,192,47390,1,0,0:0:0:0:
320,192,47465,1,0,0:0:0:0:
192,192,47540,1,2,0:0:0:0:
448,192,47540,1,0,0:0:0:0:
64,192,47615,1,2,0:0:0:0:
320,192,47615,1,0,0:0:0:0:
448,192,47690,1,2,0:0:0:0:
192,192,47740,1,0,0:0:0:40:scratches kick.wav
320,192,47790,1,0,0:0:0:40:scratches kick.wav
64,192,47840,1,0,0:0:0:40:scratches kick.wav
192,192,47890,1,0,0:0:0:40:scratches kick.wav
320,192,47940,1,0,0:0:0:40:scratches kick.wav
64,192,47990,1,2,0:0:0:0:
192,192,47990,1,4,0:0:0:0:
448,192,47990,1,0,0:0:0:30:snare_strong.wav
320,192,48065,1,0,0:0:0:0:
192,192,48140,1,0,0:0:0:0:
448,192,48140,1,0,0:0:0:0:
64,192,48215,1,0,0:0:0:0:
192,192,48290,1,2,0:0:0:0:
320,192,48290,1,0,0:0:0:30:snare_strong.wav
448,192,48290,1,0,0:0:0:0:
64,192,48365,1,0,0:0:0:0:
320,192,48440,1,0,0:0:0:0:
448,192,48440,1,0,0:0:0:0:
192,192,48515,1,0,0:0:0:0:
64,192,48590,1,2,0:0:0:0:
320,192,48590,1,0,0:0:0:30:snare_strong.wav
448,192,48590,1,0,0:0:0:0:
192,192,48665,1,0,0:0:0:0:
64,192,48740,1,0,0:0:0:0:
448,192,48740,1,0,0:0:0:0:
320,192,48815,1,0,0:0:0:0:
64,192,48890,1,2,0:0:0:0:
192,192,48890,1,0,0:0:0:30:snare_strong.wav
448,192,48890,1,0,0:0:0:0:
320,192,48965,1,0,0:0:0:0:
64,192,49040,1,2,0:0:0:0:
192,192,49040,1,0,0:0:0:30:snare_strong.wav
320,192,49115,1,2,0:0:0:0:
448,192,49115,1,0,0:0:0:30:snare_strong.wav
64,192,49190,1,2,0:0:0:0:
192,192,49190,1,0,0:0:0:30:snare_strong.wav
320,192,49265,1,0,0:0:0:0:
64,192,49340,1,0,0:0:0:0:
448,192,49340,1,0,0:0:0:0:
192,192,49415,1,0,0:0:0:0:
64,192,49490,1,2,0:0:0:0:
320,192,49490,1,0,0:0:0:30:snare_strong.wav
448,192,49490,1,0,0:0:0:0:
192,192,49565,1,0,0:0:0:0:
320,192,49640,1,0,0:0:0:0:
448,192,49640,1,0,0:0:0:0:
64,192,49715,1,0,0:0:0:0:
192,192,49790,1,2,0:0:0:0:
320,192,49790,1,0,0:0:0:30:snare_strong.wav
448,192,49790,1,0,0:0:0:0:
64,192,49865,1,0,0:0:0:0:
192,192,49940,1,2,0:0:0:0:
320,192,49940,1,0,0:0:0:30:snare_strong.wav
448,192,49940,1,0,0:0:0:0:
64,192,50015,1,0,0:0:0:0:
448,192,50090,1,0,0:0:0:0:
192,192,50165,1,0,0:0:0:0:
320,192,50240,128,0,50390:0:0:0:0:
64,192,50390,1,2,0:0:0:0:
192,192,50390,1,4,0:0:0:0:
448,192,50390,1,0,0:0:0:30:snare_strong.wav
320,192,50465,1,0,0:0:0:0:
64,192,50540,1,2,0:0:0:0:
192,192,50540,1,0,0:0:0:30:snare_strong.wav
320,192,50615,1,0,0:0:0:0:
64,192,50690,1,2,0:0:0:0:
192,192,50690,1,0,0:0:0:30:snare_strong.wav
448,192,50690,1,0,0:0:0:0:
320,192,50765,1,0,0:0:0:0:
64,192,50840,1,2,0:0:0:0:
448,192,50840,1,0,0:0:0:30:snare_strong.wav
192,192,50915,1,0,0:0:0:0:
64,192,50990,1,2,0:0:0:0:
320,192,50990,1,0,0:0:0:30:snare_strong.wav
448,192,50990,1,0,0:0:0:0:
192,192,51065,1,0,0:0:0:0:
320,192,51140,1,2,0:0:0:0:
448,192,51140,1,0,0:0:0:30:snare_strong.wav
192,192,51215,1,0,0:0:0:0:
64,192,51290,1,2,0:0:0:0:
320,192,51290,1,0,0:0:0:30:snare_strong.wav
448,192,51290,1,0,0:0:0:0:
192,192,51365,1,0,0:0:0:0:
320,192,51440,1,2,0:0:0:0:
448,192,51440,1,0,0:0:0:30:snare_strong.wav
64,192,51515,1,2,0:0:0:0:
192,192,51515,1,0,0:0:0:30:snare_strong.wav
320,192,51590,1,2,0:0:0:0:
448,192,51590,1,0,0:0:0:30:snare_strong.wav
64,192,51665,1,2,0:0:0:0:
192,192,51665,1,0,0:0:0:30:snare_strong.wav
448,192,51740,1,0,0:0:0:40:scratches kick.wav
320,192,51777,1,0,0:0:0:40:scratches kick.wav
64,192,51815,1,0,0:0:0:40:scratches kick.wav
192,192,51852,1,0,0:0:0:40:scratches kick.wav
320,192,51890,1,2,0:0:0:0:
448,192,51890,1,0,0:0:0:30:snare_strong.wav
64,192,51965,1,2,0:0:0:0:
192,192,51965,1,0,0:0:0:30:snare_strong.wav
448,192,52040,1,0,0:0:0:40:scratches kick.wav
320,192,52077,1,0,0:0:0:40:scratches kick.wav
64,192,52115,1,0,0:0:0:40:scratches kick.wav
192,192,52152,1,0,0:0:0:40:scratches kick.wav
320,192,52190,1,2,0:0:0:0:
448,192,52190,1,0,0:0:0:30:snare_strong.wav
320,192,52265,1,2,0:0:0:0:
448,192,52265,1,0,0:0:0:30:snare_strong.wav
64,192,52340,1,2,0:0:0:0:
192,192,52340,1,0,0:0:0:30:snare_strong.wav
64,192,52415,1,2,0:0:0:0:
192,192,52415,1,0,0:0:0:30:snare_strong.wav
320,192,52490,1,2,0:0:0:0:
448,192,52490,1,0,0:0:0:30:snare_strong.wav
320,192,52565,1,2,0:0:0:0:
448,192,52565,1,0,0:0:0:30:snare_strong.wav
64,192,52640,1,2,0:0:0:0:
192,192,52640,1,0,0:0:0:30:snare_strong.wav
320,192,52715,1,2,0:0:0:0:
64,192,52790,1,2,0:0:0:0:
192,192,52790,1,4,0:0:0:0:
448,192,52790,1,0,0:0:0:30:snare_strong.wav
320,192,52940,1,0,0:0:0:0:
192,192,53090,1,0,0:0:0:0:
448,192,53165,1,0,0:0:0:0:
64,192,53240,128,0,53315:0:0:0:0:
320,192,53240,1,0,0:0:0:0:
192,192,53315,1,0,0:0:0:0:
64,192,53390,1,0,0:0:0:0:
320,192,53390,128,0,53465:0:0:0:0:
448,192,53465,1,0,0:0:0:0:
192,192,53540,1,0,0:0:0:0:
448,192,53615,128,0,53690:0:0:0:0:
64,192,53690,1,0,0:0:0:0:
320,192,53765,1,0,0:0:0:0:
192,192,53840,128,0,53915:0:0:0:0:
448,192,53840,1,0,0:0:0:0:
64,192,53915,1,0,0:0:0:0:
192,192,53990,1,0,0:0:0:0:
320,192,53990,128,0,54065:0:0:0:0:
64,192,54065,1,0,0:0:0:0:
448,192,54140,1,0,0:0:0:0:
64,192,54215,128,0,54290:0:0:0:0:
320,192,54215,1,0,0:0:0:0:
192,192,54290,1,0,0:0:0:0:
320,192,54365,1,0,0:0:0:0:
64,192,54440,128,0,54515:0:0:0:0:
448,192,54440,1,0,0:0:0:0:
192,192,54590,1,0,0:0:0:0:
320,192,54665,1,0,0:0:0:0:
64,192,54740,1,0,0:0:0:0:
448,192,54890,1,0,0:0:0:0:
320,192,54965,1,0,0:0:0:0:
64,192,55040,128,0,55115:0:0:0:0:
192,192,55040,1,0,0:0:0:0:
448,192,55115,128,0,55190:0:0:0:0:
64,192,55190,1,0,0:0:0:0:
320,192,55190,128,0,55265:0:0:0:0:
448,192,55340,1,0,0:0:0:0:
64,192,55415,1,0,0:0:0:0:
192,192,55415,128,0,55490:0:0:0:0:
320,192,55490,1,0,0:0:0:0:
448,192,55565,1,0,0:0:0:0:
64,192,55640,128,0,55715:0:0:0:0:
192,192,55640,1,0,0:0:0:0:
320,192,55715,1,0,0:0:0:0:
64,192,55790,1,0,0:0:0:0:
448,192,55790,128,0,56315:0:0:0:0:
192,192,55865,1,0,0:0:0:0:
64,192,55940,1,0,0:0:0:0:
192,192,56090,1,0,0:0:0:0:
64,192,56165,1,0,0:0:0:0:
320,192,56240,1,0,0:0:0:0:
64,192,56390,128,0,56915:0:0:0:0:
320,192,56390,1,0,0:0:0:0:
448,192,56465,1,0,0:0:0:0:
192,192,56540,1,0,0:0:0:0:
320,192,56615,1,0,0:0:0:0:
192,192,56690,1,0,0:0:0:0:
448,192,56765,1,0,0:0:0:0:
320,192,56840,1,0,0:0:0:0:
64,192,56990,1,0,0:0:0:0:
320,192,56990,128,0,57515:0:0:0:0:
192,192,57065,1,0,0:0:0:0:
64,192,57140,1,0,0:0:0:0:
448,192,57290,1,0,0:0:0:0:
192,192,57365,1,0,0:0:0:0:
448,192,57440,1,0,0:0:0:0:
64,192,57590,128,2,57665:0:0:0:0:
320,192,57590,1,0,0:0:0:0:
448,192,57590,1,0,0:0:0:0:
192,192,57665,128,0,57740:0:0:0:0:
320,192,57740,128,0,57815:0:0:0:0:
448,192,57815,128,0,57890:0:0:0:0:
192,192,57890,128,0,57965:0:0:0:0:
64,192,57965,128,0,58040:0:0:0:0:
320,192,58040,128,0,58115:0:0:0:0:
192,192,58115,128,0,58190:0:0:0:0:
448,192,58190,128,0,58265:0:0:0:0:
320,192,58265,128,0,58340:0:0:0:0:
192,192,58340,128,0,58415:0:0:0:0:
64,192,58415,128,0,58490:0:0:0:0:
320,192,58490,128,0,58565:0:0:0:0:
448,192,58565,128,0,58640:0:0:0:0:
192,192,58640,128,0,58715:0:0:0:0:
320,192,58715,128,0,58790:0:0:0:0:
64,192,58790,1,0,0:0:0:0:
192,192,58840,1,0,0:0:0:0:
64,192,58890,1,0,0:0:0:0:
320,192,58940,1,0,0:0:0:0:
192,192,59015,1,0,0:0:0:0:
448,192,59090,1,0,0:0:0:0:
64,192,59140,1,0,0:0:0:0:
192,192,59190,1,0,0:0:0:0:
448,192,59240,1,0,0:0:0:0:
320,192,59290,1,0,0:0:0:0:
192,192,59340,1,0,0:0:0:0:
64,192,59390,1,0,0:0:0:0:
192,192,59465,1,0,0:0:0:0:
320,192,59540,1,0,0:0:0:0:
448,192,59615,1,0,0:0:0:0:
64,192,59690,128,0,59765:0:0:0:0:
192,192,59765,1,0,0:0:0:0:
448,192,59840,128,0,59915:0:0:0:0:
192,192,59915,128,0,59990:0:0:0:0:
320,192,59990,128,0,60065:0:0:0:0:
64,192,60065,128,0,60140:0:0:0:0:
320,192,60140,128,0,60215:0:0:0:0:
448,192,60215,1,0,0:0:0:0:
192,192,60290,128,0,60365:0:0:0:0:
320,192,60365,128,0,60440:0:0:0:0:
64,192,60440,128,0,60515:0:0:0:0:
192,192,60515,1,0,0:0:0:0:
448,192,60590,128,0,60665:0:0:0:0:
64,192,60665,128,0,60740:0:0:0:0:
192,192,60740,128,0,60815:0:0:0:0:
320,192,60815,128,0,60890:0:0:0:0:
448,192,60890,128,0,60965:0:0:0:0:
64,192,60965,128,0,61040:0:0:0:0:
192,192,61040,128,0,61115:0:0:0:0:
320,192,61115,128,0,61190:0:0:0:0:
64,192,61190,1,4,0:0:0:0:
192,192,61190,1,8,0:0:0:0:
448,192,61190,1,0,0:0:0:0:
320,192,61340,1,2,0:0:0:0:
448,192,61340,1,0,0:0:0:0:
64,192,61490,1,0,0:0:0:0:
320,192,61490,1,0,0:0:0:0:
64,192,61640,1,0,0:0:0:0:
192,192,61640,1,0,0:0:0:0:
320,192,61715,1,0,0:0:0:0:
64,192,61790,1,2,0:0:0:0:
192,192,61790,1,8,0:0:0:0:
448,192,61790,1,0,0:0:0:0:
64,192,62015,1,2,0:0:0:0:
320,192,62015,1,8,0:0:0:0:
448,192,62015,1,0,0:0:0:0:
64,192,62240,1,0,0:0:0:40:LR_Snare Normal.wav
192,192,62240,1,0,0:0:0:0:
192,192,62315,1,0,0:0:0:40:LR_Snare Normal.wav
448,192,62315,1,0,0:0:0:0:
64,192,62390,1,4,0:0:0:0:
320,192,62390,1,0,0:0:0:40:LR_Snare Normal.wav
448,192,62390,1,0,0:0:0:0:
64,192,62690,1,0,0:0:0:30:snare_strong.wav
192,192,62690,1,0,0:0:0:0:
448,192,62690,1,0,0:0:0:0:
320,192,62840,1,2,0:0:0:0:
448,192,62840,1,0,0:0:0:0:
192,192,62915,1,0,0:0:0:0:
64,192,62990,1,2,0:0:0:0:
320,192,62990,1,0,0:0:0:30:snare_strong.wav
448,192,62990,1,0,0:0:0:0:
192,192,63140,1,0,0:0:0:0:
320,192,63215,1,0,0:0:0:0:
64,192,63290,1,0,0:0:0:30:snare_strong.wav
192,192,63290,1,0,0:0:0:0:
448,192,63290,1,0,0:0:0:0:
64,192,63440,1,2,0:0:0:0:
320,192,63440,1,0,0:0:0:0:
64,192,63590,1,2,0:0:0:0:
320,192,63590,1,0,0:0:0:30:snare_strong.wav
448,192,63590,1,0,0:0:0:0:
320,192,63740,1,0,0:0:0:0:
192,192,63815,1,0,0:0:0:0:
64,192,63890,1,0,0:0:0:30:snare_strong.wav
320,192,63890,1,0,0:0:0:0:
448,192,63890,1,0,0:0:0:0:
192,192,64040,1,2,0:0:0:0:
448,192,64040,1,0,0:0:0:0:
64,192,64190,1,2,0:0:0:0:
192,192,64190,1,0,0:0:0:30:snare_strong.wav
448,192,64190,1,0,0:0:0:0:
320,192,64340,1,0,0:0:0:0:
64,192,64415,1,2,0:0:0:0:
192,192,64415,1,0,0:0:0:0:
320,192,64490,1,0,0:0:0:30:snare_strong.wav
448,192,64490,1,0,0:0:0:0:
64,192,64640,1,2,0:0:0:0:
192,192,64640,1,0,0:0:0:0:
320,192,64715,1,2,0:0:0:0:
64,192,64790,1,2,0:0:0:0:
192,192,64790,1,0,0:0:0:30:snare_strong.wav
448,192,64790,1,0,0:0:0:0:
320,192,64940,1,0,0:0:0:0:
64,192,65015,1,0,0:0:0:0:
192,192,65090,1,0,0:0:0:30:snare_strong.wav
320,192,65090,1,0,0:0:0:0:
448,192,65090,1,0,0:0:0:0:
64,192,65240,1,2,0:0:0:0:
192,192,65240,1,0,0:0:0:0:
320,192,65315,1,0,0:0:0:0:
64,192,65390,1,2,0:0:0:0:
192,192,65390,1,0,0:0:0:30:snare_strong.wav
448,192,65390,1,0,0:0:0:0:
192,192,65540,1,0,0:0:0:0:
448,192,65615,1,0,0:0:0:0:
64,192,65690,1,0,0:0:0:30:snare_strong.wav
192,192,65690,1,0,0:0:0:0:
320,192,65690,1,0,0:0:0:0:
320,192,65840,1,2,0:0:0:0:
448,192,65840,1,0,0:0:0:0:
192,192,65915,1,0,0:0:0:0:
64,192,65990,1,2,0:0:0:0:
320,192,65990,1,0,0:0:0:30:snare_strong.wav
448,192,65990,1,0,0:0:0:0:
64,192,66140,1,0,0:0:0:30:snare_strong.wav
192,192,66140,1,0,0:0:0:0:
320,192,66215,1,2,0:0:0:0:
448,192,66215,1,0,0:0:0:30:snare_strong.wav
320,192,66365,1,0,0:0:0:30:snare_strong.wav
448,192,66365,1,0,0:0:0:0:
64,192,66440,1,2,0:0:0:0:
192,192,66440,1,0,0:0:0:30:snare_strong.wav
64,192,66590,1,0,0:0:0:30:snare_strong.wav
448,192,66590,1,0,0:0:0:0:
192,192,66665,1,2,0:0:0:0:
320,192,66665,1,0,0:0:0:30:snare_strong.wav
192,192,66815,1,0,0:0:0:30:snare_strong.wav
320,192,66815,1,0,0:0:0:0:
64,192,66890,1,2,0:0:0:0:
448,192,66890,1,0,0:0:0:30:snare_strong.wav
320,192,66965,1,0,0:0:0:30:snare_strong.wav
64,192,67040,1,2,0:0:0:0:
192,192,67040,1,0,0:0:0:30:snare_strong.wav
320,192,67115,1,0,0:0:0:30:snare_strong.wav
64,192,67190,1,2,0:0:0:0:
192,192,67190,1,4,0:0:0:0:
448,192,67190,1,0,0:0:0:30:snare_strong.wav
320,192,67265,1,0,0:0:0:0:
64,192,67340,1,2,0:0:0:0:
192,192,67340,1,0,0:0:0:30:snare_strong.wav
320,192,67415,1,0,0:0:0:0:
64,192,67490,1,2,0:0:0:0:
448,192,67490,1,0,0:0:0:30:snare_strong.wav
192,192,67565,1,0,0:0:0:0:
320,192,67640,1,2,0:0:0:0:
448,192,67640,1,0,0:0:0:30:snare_strong.wav
64,192,67715,1,0,0:0:0:0:
320,192,67790,1,2,0:0:0:0:
448,192,67790,1,0,0:0:0:30:snare_strong.wav
192,192,67865,1,0,0:0:0:0:
64,192,67940,1,2,0:0:0:0:
448,192,67940,1,0,0:0:0:30:snare_strong.wav
320,192,68015,1,0,0:0:0:0:
64,192,68090,1,2,0:0:0:0:
192,192,68090,1,0,0:0:0:30:snare_strong.wav
448,192,68165,1,0,0:0:0:0:
64,192,68240,1,2,0:0:0:0:
320,192,68240,1,0,0:0:0:30:snare_strong.wav
448,192,68315,1,0,0:0:0:0:
64,192,68390,1,2,0:0:0:0:
192,192,68390,1,0,0:0:0:30:snare_strong.wav
320,192,68465,1,0,0:0:0:0:
64,192,68540,1,2,0:0:0:0:
448,192,68540,1,0,0:0:0:30:snare_strong.wav
192,192,68615,1,0,0:0:0:0:
320,192,68690,1,2,0:0:0:0:
448,192,68690,1,0,0:0:0:30:snare_strong.wav
64,192,68765,1,0,0:0:0:0:
192,192,68840,1,2,0:0:0:0:
448,192,68840,1,0,0:0:0:30:snare_strong.wav
64,192,68915,1,0,0:0:0:0:
320,192,68990,1,2,0:0:0:0:
448,192,68990,1,0,0:0:0:30:snare_strong.wav
192,192,69065,1,0,0:0:0:0:
64,192,69140,1,2,0:0:0:0:
448,192,69140,1,0,0:0:0:30:snare_strong.wav
320,192,69215,1,0,0:0:0:0:
64,192,69290,1,2,0:0:0:0:
192,192,69290,1,0,0:0:0:30:snare_strong.wav
320,192,69365,1,0,0:0:0:0:
64,192,69440,1,2,0:0:0:0:
448,192,69440,1,0,0:0:0:30:snare_strong.wav
192,192,69515,1,0,0:0:0:0:
320,192,69590,1,2,0:0:0:0:
448,192,69590,1,0,0:0:0:30:snare_strong.wav
64,192,69665,1,0,0:0:0:30:snare_strong.wav
192,192,69665,1,0,0:0:0:0:
320,192,69740,1,2,0:0:0:0:
448,192,69740,1,0,0:0:0:30:snare_strong.wav
64,192,69815,1,0,0:0:0:30:snare_strong.wav
192,192,69815,1,0,0:0:0:0:
320,192,69890,1,2,0:0:0:0:
448,192,69890,1,0,0:0:0:30:snare_strong.wav
64,192,69965,1,0,0:0:0:30:snare_strong.wav
192,192,69965,1,0,0:0:0:0:
320,192,70040,1,2,0:0:0:0:
448,192,70040,1,0,0:0:0:30:snare_strong.wav
64,192,70115,1,0,0:0:0:30:snare_strong.wav
192,192,70115,1,0,0:0:0:0:
320,192,70190,1,2,0:0:0:0:
448,192,70190,1,0,0:0:0:30:snare_strong.wav
64,192,70265,1,0,0:0:0:30:snare_strong.wav
192,192,70265,1,0,0:0:0:0:
320,192,70340,1,2,0:0:0:0:
448,192,70340,1,0,0:0:0:30:snare_strong.wav
64,192,70415,1,0,0:0:0:30:snare_strong.wav
192,192,70415,1,0,0:0:0:0:
320,192,70490,1,2,0:0:0:0:
448,192,70490,1,0,0:0:0:30:snare_strong.wav
64,192,70565,1,0,0:0:0:30:snare_strong.wav
192,192,70565,1,0,0:0:0:40:scratches kick.wav
320,192,70640,1,0,0:0:0:30:snare_strong.wav
448,192,70640,1,0,0:0:0:40:scratches kick.wav
64,192,70715,1,0,0:0:0:30:snare_strong.wav
192,192,70715,1,0,0:0:0:40:scratches kick.wav
448,192,70790,128,2,70940:0:0:0:0:
64,192,70890,128,0,70990:0:0:0:0:
192,192,70940,128,0,71040:0:0:0:0:
320,192,70990,128,0,71090:0:0:0:0:
64,192,71040,128,0,71140:0:0:0:0:
448,192,71090,1,0,0:0:0:0:
192,192,71140,128,0,71240:0:0:0:0:
320,192,71190,128,0,71290:0:0:0:0:
448,192,71240,128,0,71340:0:0:0:0:
64,192,71290,128,0,71390:0:0:0:0:
192,192,71340,128,0,71390:0:0:0:0:
320,192,71390,1,0,0:0:0:0:
192,192,71465,1,0,0:0:0:0:
448,192,71540,1,0,0:0:0:0:
192,192,71615,1,0,0:0:0:0:
64,192,71690,1,2,0:0:0:0:
320,192,71690,128,0,71840:0:0:0:0:
448,192,71690,128,0,71765:0:0:0:0:
192,192,71765,128,0,71915:0:0:0:0:
64,192,71840,128,0,71915:0:0:0:0:
448,192,71915,128,0,71990:0:0:0:0:
64,192,71990,1,2,0:0:0:0:
192,192,71990,1,4,0:0:0:0:
320,192,71990,1,0,0:0:0:70:LR2_ClapRRvLE.wav
448,192,72140,1,0,0:0:0:0:
320,192,72290,1,0,0:0:0:0:
64,192,72365,1,0,0:0:0:0:
320,192,72440,1,0,0:0:0:0:
192,192,72515,1,0,0:0:0:0:
448,192,72590,1,0,0:0:0:0:
64,192,72665,1,0,0:0:0:0:
448,192,72740,1,0,0:0:0:0:
320,192,72815,1,0,0:0:0:0:
64,192,72890,1,0,0:0:0:0:
448,192,72965,1,0,0:0:0:0:
192,192,73040,1,0,0:0:0:0:
320,192,73115,1,0,0:0:0:0:
64,192,73190,128,2,73415:0:0:0:0:
192,192,73190,1,0,0:0:0:0:
448,192,73265,1,0,0:0:0:0:
320,192,73340,1,0,0:0:0:0:
192,192,73415,1,0,0:0:0:0:
64,192,73490,1,8,0:0:0:0:
448,192,73490,1,0,0:0:0:0:
192,192,73565,1,0,0:0:0:0:
64,192,73640,1,8,0:0:0:0:
448,192,73640,1,0,0:0:0:0:
320,192,73715,1,0,0:0:0:0:
64,192,73790,1,2,0:0:0:0:
192,192,73790,1,0,0:0:0:0:
320,192,73865,1,2,0:0:0:0:
448,192,73865,1,0,0:0:0:0:
64,192,73940,1,2,0:0:0:0:
192,192,73940,1,0,0:0:0:0:
320,192,74015,1,2,0:0:0:0:
64,192,74090,128,4,74315:0:0:0:0:
192,192,74090,1,2,0:0:0:0:
448,192,74090,128,0,74315:0:0:0:70:LR2_ClapRRvLE.wav
64,192,74390,1,2,0:0:0:0:
192,192,74390,128,4,74540:0:0:0:0:
320,192,74390,1,0,0:0:0:70:LR_Snare Pop.wav
448,192,74390,128,0,74615:0:0:0:0:
320,192,74540,1,0,0:0:0:0:
192,192,74615,128,0,74840:0:0:0:0:
64,192,74690,128,8,74840:0:0:0:0:
448,192,74690,1,0,0:0:0:0:
320,192,74840,1,0,0:0:0:0:
448,192,74840,128,0,75290:0:0:0:0:
64,192,74915,1,0,0:0:0:0:
192,192,74990,1,2,0:0:0:0:
320,192,74990,1,0,0:0:0:0:
192,192,75140,1,0,0:0:0:0:
64,192,75290,128,8,75340:0:0:0:0:
320,192,75290,1,0,0:0:0:0:
192,192,75340,128,0,75390:0:0:0:0:
448,192,75390,128,0,75440:0:0:0:0:
320,192,75440,128,0,75490:0:0:0:0:
64,192,75490,128,0,75540:0:0:0:0:
192,192,75540,128,0,75590:0:0:0:0:
320,192,75590,128,2,75740:0:0:0:0:
448,192,75590,128,0,75815:0:0:0:0:
192,192,75740,1,0,0:0:0:0:
64,192,75815,128,0,76040:0:0:0:0:
320,192,75815,1,0,0:0:0:0:
192,192,75890,128,8,76040:0:0:0:0:
448,192,75890,1,0,0:0:0:0:
320,192,76040,1,0,0:0:0:0:
448,192,76040,128,0,76490:0:0:0:0:
192,192,76115,1,0,0:0:0:0:
64,192,76190,1,2,0:0:0:0:
320,192,76190,1,0,0:0:0:0:
192,192,76340,1,0,0:0:0:0:
64,192,76490,1,8,0:0:0:0:
320,192,76490,1,0,0:0:0:0:
192,192,76565,1,0,0:0:0:0:
320,192,76640,128,0,76715:0:0:0:0:
448,192,76640,1,0,0:0:0:0:
192,192,76715,128,0,76790:0:0:0:0:
64,192,76790,128,2,76940:0:0:0:0:
448,192,76790,1,0,0:0:0:0:
320,192,76865,1,0,0:0:0:0:
192,192,76940,1,0,0:0:0:0:
320,192,77015,128,0,77165:0:0:0:0:
448,192,77015,1,0,0:0:0:0:
64,192,77090,1,8,0:0:0:0:
192,192,77090,1,0,0:0:0:0:
448,192,77165,1,0,0:0:0:0:
64,192,77240,1,0,0:0:0:0:
192,192,77240,128,0,77390:0:0:0:0:
320,192,77315,1,0,0:0:0:0:
64,192,77390,1,2,0:0:0:0:
448,192,77390,128,0,77540:0:0:0:0:
192,192,77465,1,0,0:0:0:0:
320,192,77540,1,0,0:0:0:0:
64,192,77615,1,0,0:0:0:0:
192,192,77615,128,0,77765:0:0:0:0:
320,192,77690,1,8,0:0:0:0:
448,192,77690,1,0,0:0:0:0:
64,192,77765,1,0,0:0:0:0:
192,192,77840,1,0,0:0:0:0:
320,192,77840,128,0,77990:0:0:0:0:
64,192,77915,1,0,0:0:0:0:
192,192,77990,128,2,78140:0:0:0:0:
448,192,77990,1,0,0:0:0:0:
320,192,78065,1,0,0:0:0:0:
448,192,78140,1,0,0:0:0:0:
64,192,78215,128,0,78365:0:0:0:0:
192,192,78215,1,0,0:0:0:0:
320,192,78290,1,8,0:0:0:0:
448,192,78290,1,0,0:0:0:0:
192,192,78365,1,0,0:0:0:0:
320,192,78440,1,0,0:0:0:0:
448,192,78440,128,0,78515:0:0:0:0:
64,192,78515,1,0,0:0:0:0:
320,192,78590,1,2,0:0:0:0:
448,192,78590,128,0,78890:0:0:0:0:
192,192,78665,1,0,0:0:0:0:
64,192,78740,1,0,0:0:0:0:
320,192,78815,1,0,0:0:0:0:
64,192,78890,1,8,0:0:0:0:
192,192,78890,128,0,78990:0:0:0:0:
320,192,78940,128,0,79040:0:0:0:0:
448,192,78990,128,0,79090:0:0:0:0:
64,192,79040,1,0,0:0:0:0:
192,192,79090,1,0,0:0:0:0:
320,192,79140,1,0,0:0:0:0:
64,192,79190,1,2,0:0:0:0:
192,192,79190,1,4,0:0:0:0:
448,192,79190,1,0,0:0:0:0:
192,192,79340,1,2,0:0:0:0:
320,192,79340,1,0,0:0:0:0:
448,192,79340,1,0,0:0:0:0:
64,192,79490,1,8,0:0:0:0:
320,192,79490,1,0,0:0:0:0:
448,192,79490,1,0,0:0:0:0:
64,192,79640,128,0,80090:0:0:0:0:
192,192,79640,1,0,0:0:0:0:
320,192,79715,1,0,0:0:0:0:
192,192,79790,1,2,0:0:0:0:
448,192,79790,1,0,0:0:0:0:
320,192,79940,1,0,0:0:0:0:
192,192,80090,1,8,0:0:0:0:
448,192,80090,128,0,80140:0:0:0:0:
320,192,80140,128,0,80190:0:0:0:0:
64,192,80190,128,0,80240:0:0:0:0:
192,192,80240,128,0,80290:0:0:0:0:
448,192,80290,128,0,80340:0:0:0:0:
320,192,80340,128,0,80390:0:0:0:0:
64,192,80390,128,2,80615:0:0:0:0:
192,192,80390,128,0,80540:0:0:0:0:
320,192,80540,1,0,0:0:0:0:
192,192,80615,1,0,0:0:0:0:
448,192,80615,128,0,80840:0:0:0:0:
64,192,80690,1,8,0:0:0:0:
320,192,80690,128,0,80840:0:0:0:0:
64,192,80840,128,0,81215:0:0:0:0:
192,192,80840,1,0,0:0:0:0:
320,192,80915,1,0,0:0:0:0:
192,192,80990,1,2,0:0:0:0:
448,192,80990,128,0,81215:0:0:0:0:
192,192,81215,1,2,0:0:0:0:
320,192,81215,1,0,0:0:0:0:
64,192,81290,1,8,0:0:0:0:
320,192,81290,1,0,0:0:0:0:
448,192,81290,1,0,0:0:0:0:
64,192,81440,1,2,0:0:0:0:
192,192,81440,1,0,0:0:0:0:
320,192,81515,1,0,0:0:0:0:
64,192,81590,1,2,0:0:0:0:
192,192,81590,1,4,0:0:0:40:soft-hitfinish.wav
448,192,81590,1,0,0:0:0:0:
64,192,81740,1,2,0:0:0:0:
320,192,81740,1,0,0:0:0:0:
448,192,81740,1,0,0:0:0:0:
192,192,81890,1,8,0:0:0:0:
320,192,81890,1,0,0:0:0:0:
448,192,81890,1,0,0:0:0:0:
64,192,81965,1,2,0:0:0:0:
192,192,81965,1,0,0:0:0:0:
448,192,82040,1,0,0:0:0:0:
320,192,82115,1,0,0:0:0:0:
64,192,82190,1,2,0:0:0:0:
192,192,82190,1,4,0:0:0:40:soft-hitfinish.wav
448,192,82190,128,0,82415:0:0:0:0:
64,192,82415,1,2,0:0:0:0:
192,192,82415,1,0,0:0:0:0:
64,192,82490,1,8,0:0:0:0:
320,192,82490,1,0,0:0:0:0:
448,192,82490,1,0,0:0:0:0:
192,192,82640,1,2,0:0:0:0:
448,192,82640,1,0,0:0:0:0:
320,192,82715,1,0,0:0:0:0:
64,192,82790,1,2,0:0:0:0:
192,192,82790,1,4,0:0:0:40:soft-hitfinish.wav
448,192,82790,1,0,0:0:0:0:
320,192,83015,128,0,83090:0:0:0:45:tom01.wav
64,192,83090,1,0,0:0:0:45:tom01.wav
448,192,83165,1,0,0:0:0:45:tom01.wav
64,192,83240,1,0,0:0:0:45:tom01.wav
192,192,83240,128,0,83315:0:0:0:0:
320,192,83315,1,0,0:0:0:45:tom01.wav
64,192,83390,128,0,83615:0:0:0:45:tom01.wav
192,192,83390,1,0,0:0:0:0:
448,192,83390,128,0,83615:0:0:0:0:
320,192,83465,1,0,0:0:0:45:tom01.wav
192,192,83540,1,0,0:0:0:45:tom01.wav
320,192,83615,1,0,0:0:0:45:tom01.wav
64,192,83690,1,2,0:0:0:0:
192,192,83690,1,0,0:0:0:0:
320,192,83765,1,2,0:0:0:0:
448,192,83765,1,0,0:0:0:0:
64,192,83840,1,2,0:0:0:0:
192,192,83840,1,0,0:0:0:0:
320,192,83915,1,2,0:0:0:0:
448,192,83915,1,0,0:0:0:0:
64,192,83990,128,0,84140:0:0:0:0:
192,192,83990,1,0,0:0:0:0:
448,192,84140,1,0,0:0:0:0:
64,192,84215,128,0,84440:0:0:0:0:
320,192,84215,1,0,0:0:0:0:
192,192,84290,128,4,84440:0:0:0:0:
448,192,84290,1,8,0:0:0:0:
320,192,84440,1,0,0:0:0:0:
448,192,84440,128,0,84890:0:0:0:0:
192,192,84515,1,0,0:0:0:0:
64,192,84590,1,2,0:0:0:0:
320,192,84590,1,0,0:0:0:0:
192,192,84740,1,0,0:0:0:0:
64,192,84890,128,8,84940:0:0:0:0:
320,192,84890,1,0,0:0:0:0:
192,192,84940,128,0,84990:0:0:0:0:
448,192,84990,128,0,85040:0:0:0:0:
320,192,85040,128,0,85090:0:0:0:0:
64,192,85090,128,0,85140:0:0:0:0:
192,192,85140,128,0,85190:0:0:0:0:
320,192,85190,128,2,85340:0:0:0:0:
448,192,85190,128,0,85415:0:0:0:0:
192,192,85340,1,0,0:0:0:0:
64,192,85415,128,0,85640:0:0:0:0:
320,192,85415,1,0,0:0:0:0:
192,192,85490,128,8,85640:0:0:0:0:
448,192,85490,1,0,0:0:0:0:
320,192,85640,1,0,0:0:0:0:
448,192,85640,128,0,86090:0:0:0:0:
192,192,85715,1,0,0:0:0:0:
64,192,85790,1,2,0:0:0:0:
320,192,85790,1,0,0:0:0:0:
192,192,85940,1,0,0:0:0:0:
64,192,86090,1,8,0:0:0:0:
320,192,86090,1,0,0:0:0:0:
448,192,86165,1,0,0:0:0:0:
64,192,86240,1,0,0:0:0:0:
192,192,86240,128,0,86315:0:0:0:0:
320,192,86315,128,0,86390:0:0:0:0:
64,192,86390,1,2,0:0:0:0:
448,192,86390,128,4,86540:0:0:0:0:
192,192,86465,1,0,0:0:0:0:
320,192,86540,1,0,0:0:0:0:
64,192,86615,1,0,0:0:0:0:
192,192,86615,128,0,86765:0:0:0:0:
320,192,86690,1,8,0:0:0:0:
448,192,86690,1,0,0:0:0:0:
64,192,86765,1,0,0:0:0:0:
320,192,86840,128,0,86990:0:0:0:0:
448,192,86840,1,0,0:0:0:0:
192,192,86915,1,0,0:0:0:0:
64,192,86990,128,2,87140:0:0:0:0:
448,192,86990,1,0,0:0:0:0:
320,192,87065,1,0,0:0:0:0:
192,192,87140,1,0,0:0:0:0:
320,192,87215,128,0,87365:0:0:0:0:
448,192,87215,1,0,0:0:0:0:
64,192,87290,1,8,0:0:0:0:
192,192,87290,1,0,0:0:0:0:
448,192,87365,1,0,0:0:0:0:
192,192,87440,128,0,87590:0:0:0:0:
320,192,87440,1,0,0:0:0:0:
448,192,87515,1,0,0:0:0:0:
64,192,87590,1,2,0:0:0:0:
320,192,87590,128,4,87740:0:0:0:0:
192,192,87665,1,0,0:0:0:0:
64,192,87740,1,0,0:0:0:0:
320,192,87815,1,0,0:0:0:0:
448,192,87815,128,0,87965:0:0:0:0:
64,192,87890,1,8,0:0:0:0:
192,192,87890,1,0,0:0:0:0:
320,192,87965,1,0,0:0:0:0:
64,192,88040,128,0,88115:0:0:0:0:
192,192,88040,1,0,0:0:0:0:
448,192,88115,1,0,0:0:0:0:
64,192,88190,128,2,88490:0:0:0:0:
192,192,88190,1,0,0:0:0:0:
320,192,88190,1,0,0:0:0:0:
320,192,88340,1,2,0:0:0:0:
448,192,88340,1,0,0:0:0:0:
320,192,88490,128,2,88590:0:0:0:0:
448,192,88490,1,0,0:0:0:40:cymbal_short.wav
192,192,88540,128,0,88640:0:0:0:0:
64,192,88590,128,0,88690:0:0:0:0:
448,192,88640,1,2,0:0:0:0:
320,192,88690,1,0,0:0:0:0:
192,192,88740,1,0,0:0:0:0:
64,192,88790,128,2,88940:0:0:0:0:
320,192,88790,128,4,88865:0:0:0:40:cymbal_short.wav
448,192,88790,128,0,88940:0:0:0:0:
192,192,88865,128,0,88940:0:0:0:0:
320,192,88940,128,0,89015:0:0:0:0:
64,192,89015,128,2,89165:0:0:0:0:
192,192,89015,128,0,89090:0:0:0:0:
448,192,89015,128,0,89165:0:0:0:0:
320,192,89090,128,0,89240:0:0:0:0:
192,192,89165,128,0,89315:0:0:0:0:
64,192,89240,128,8,89315:0:0:0:45:LR_Snare Normal.wav
448,192,89240,128,0,89315:0:0:0:0:
320,192,89315,128,2,89390:0:0:0:0:
64,192,89390,128,2,89540:0:0:0:0:
192,192,89390,128,8,89465:0:0:0:45:LR_Snare Normal.wav
448,192,89390,128,0,89540:0:0:0:40:cymbal_short.wav
320,192,89465,128,0,89540:0:0:0:0:
192,192,89540,128,8,89615:0:0:0:45:LR_Snare Normal.wav
64,192,89615,128,2,89765:0:0:0:0:
320,192,89615,128,0,89690:0:0:0:0:
448,192,89615,128,0,89765:0:0:0:0:
192,192,89690,128,0,89840:0:0:0:0:
320,192,89765,128,0,89915:0:0:0:0:
64,192,89840,128,8,89915:0:0:0:45:LR_Snare Normal.wav
448,192,89840,128,0,89915:0:0:0:0:
192,192,89915,128,2,89990:0:0:0:0:
64,192,89990,128,2,90140:0:0:0:0:
320,192,89990,128,8,90065:0:0:0:45:LR_Snare Normal.wav
448,192,89990,128,0,90140:0:0:0:40:cymbal_short.wav
192,192,90065,128,0,90140:0:0:0:0:
320,192,90140,128,8,90215:0:0:0:45:LR_Snare Normal.wav
64,192,90215,128,0,90365:0:0:0:0:
192,192,90215,128,0,90290:0:0:0:0:
448,192,90215,128,0,90365:0:0:0:0:
320,192,90290,128,2,90440:0:0:0:0:
192,192,90365,128,0,90515:0:0:0:0:
64,192,90440,128,8,90515:0:0:0:45:LR_Snare Normal.wav
448,192,90440,128,0,90515:0:0:0:0:
320,192,90515,128,2,90590:0:0:0:0:
64,192,90590,128,2,90665:0:0:0:0:
192,192,90590,128,8,90740:0:0:0:45:LR_Snare Normal.wav
448,192,90590,128,0,90665:0:0:0:40:cymbal_short.wav
320,192,90665,128,0,90815:0:0:0:0:
64,192,90740,128,2,90890:0:0:0:0:
448,192,90740,128,8,90815:0:0:0:45:LR_Snare Normal.wav
192,192,90815,128,0,90890:0:0:0:0:
320,192,90890,128,8,90965:0:0:0:45:LR_Snare Normal.wav
448,192,90890,128,0,90965:0:0:0:0:
192,192,90965,128,8,91490:0:0:0:45:LR_Snare Normal.wav
64,192,91040,128,2,91490:0:0:0:0:
320,192,91040,128,4,91340:0:0:0:0:
448,192,91040,128,0,91340:0:0:0:0:
320,192,91490,1,2,0:0:0:0:
448,192,91490,1,0,0:0:0:40:LR_Drum Rim Fast.wav
64,192,91565,1,0,0:0:0:40:LR_Drum Rim Fast.wav
320,192,91640,1,2,0:0:0:0:
448,192,91640,1,0,0:0:0:40:LR_Drum Rim Fast.wav
192,192,91715,1,0,0:0:0:40:LR_Drum Rim Fast.wav
64,192,91790,1,2,0:0:0:0:
448,192,91790,1,0,0:0:0:40:LR_Drum Rim Fast.wav
320,192,91865,1,0,0:0:0:40:LR_Drum Rim Fast.wav
64,192,91940,1,2,0:0:0:0:
192,192,91940,1,0,0:0:0:40:LR_Drum Rim Fast.wav
320,192,92015,1,0,0:0:0:40:LR_Drum Rim Fast.wav
192,192,92090,1,2,0:0:0:0:
448,192,92090,1,0,0:0:0:40:LR_Drum Rim Fast.wav
64,192,92165,1,0,0:0:0:40:LR_Drum Rim Fast.wav
192,192,92240,1,2,0:0:0:0:
448,192,92240,1,0,0:0:0:40:LR_Drum Rim Fast.wav
320,192,92315,1,0,0:0:0:40:LR_Drum Rim Fast.wav
64,192,92390,1,2,0:0:0:0:
192,192,92390,1,0,0:0:0:40:LR_Drum Rim Fast.wav
320,192,92465,1,2,0:0:0:0:
448,192,92465,1,0,0:0:0:40:LR_Drum Rim Fast.wav
64,192,92540,1,2,0:0:0:0:
192,192,92540,1,0,0:0:0:40:LR_Drum Rim Fast.wav
320,192,92615,1,2,0:0:0:0:
448,192,92615,1,0,0:0:0:40:LR_Drum Rim Fast.wav
64,192,92690,1,2,0:0:0:0:
192,192,92690,1,0,0:0:0:40:LR_Drum Rim Fast.wav
320,192,92765,1,2,0:0:0:0:
448,192,92765,1,0,0:0:0:40:LR_Drum Rim Fast.wav
64,192,92840,1,2,0:0:0:0:
192,192,92840,1,0,0:0:0:40:LR_Drum Rim Fast.wav
320,192,92915,1,2,0:0:0:0:
448,192,92915,1,0,0:0:0:40:LR_Drum Rim Fast.wav
64,192,92990,1,2,0:0:0:0:
192,192,92990,1,0,0:0:0:0:
448,192,93040,1,2,0:0:0:40:scratches kick.wav
320,192,93090,1,2,0:0:0:40:scratches kick.wav
64,192,93140,1,2,0:0:0:40:scratches kick.wav
192,192,93140,1,0,0:0:0:0:
448,192,93190,1,2,0:0:0:40:scratches kick.wav
320,192,93240,1,2,0:0:0:40:scratches kick.wav
64,192,93290,1,8,0:0:0:0:
192,192,93290,1,0,0:0:0:0:
448,192,93290,1,0,0:0:0:0:
64,192,93440,1,0,0:0:0:0:
192,192,93477,1,0,0:0:0:0:
320,192,93515,1,0,0:0:0:0:
448,192,93552,1,0,0:0:0:0:
64,192,93590,128,2,93665:0:0:0:0:
192,192,93590,128,0,93890:0:0:0:0:
64,192,93740,128,2,93890:0:0:0:0:
320,192,93740,128,0,93815:0:0:0:0:
448,192,93740,128,0,93815:0:0:0:0:
320,192,93890,1,8,0:0:0:45:LR_Snare Normal.wav
448,192,93890,1,0,0:0:0:0:
192,192,93965,1,8,0:0:0:40:LR_Snare Normal.wav
64,192,94040,128,2,94115:0:0:0:0:
320,192,94040,128,0,94340:0:0:0:0:
448,192,94040,128,0,94115:0:0:0:0:
64,192,94190,128,2,94265:0:0:0:0:
192,192,94190,128,0,94265:0:0:0:0:
448,192,94190,128,0,94340:0:0:0:0:
64,192,94340,1,8,0:0:0:40:LR_Snare Normal.wav
192,192,94340,1,0,0:0:0:0:
320,192,94415,1,8,0:0:0:40:LR_Snare Normal.wav
64,192,94490,128,2,94565:0:0:0:0:
192,192,94490,128,0,94790:0:0:0:0:
448,192,94490,128,0,94565:0:0:0:0:
64,192,94640,128,2,94790:0:0:0:0:
320,192,94640,128,0,94715:0:0:0:0:
448,192,94640,128,0,94715:0:0:0:0:
320,192,94790,1,8,0:0:0:40:LR_Snare Normal.wav
448,192,94790,1,0,0:0:0:0:
192,192,94865,1,8,0:0:0:40:LR_Snare Normal.wav
64,192,94940,128,2,95015:0:0:0:0:
320,192,94940,128,0,95240:0:0:0:0:
448,192,94940,128,0,95015:0:0:0:0:
64,192,95090,128,2,95165:0:0:0:0:
192,192,95090,128,0,95165:0:0:0:0:
448,192,95090,128,0,95240:0:0:0:0:
64,192,95240,1,8,0:0:0:40:LR_Snare Normal.wav
192,192,95240,1,0,0:0:0:0:
320,192,95315,1,8,0:0:0:40:LR_Snare Normal.wav
64,192,95390,128,2,95615:0:0:0:0:
192,192,95390,1,0,0:0:0:0:
448,192,95390,1,0,0:0:0:0:
192,192,95540,1,0,0:0:0:40:LR_Drum Rim Fast.wav
320,192,95615,1,2,0:0:0:0:
64,192,95690,1,0,0:0:0:40:LR_Drum Rim Fast.wav
448,192,95690,128,0,95915:0:0:0:0:
192,192,95765,1,0,0:0:0:40:LR_Drum Rim Fast.wav
320,192,95840,1,0,0:0:0:40:LR_Drum Rim Fast.wav
192,192,95915,1,0,0:0:0:40:LR_Drum Rim Fast.wav
64,192,95990,1,2,0:0:0:0:
320,192,95990,128,4,96290:0:0:0:0:
448,192,95990,1,0,0:0:0:70:LR_Snare Pop.wav
192,192,96140,1,0,0:0:0:0:
64,192,96290,1,8,0:0:0:0:
448,192,96290,1,0,0:0:0:0:
192,192,96365,1,0,0:0:0:0:
64,192,96440,1,0,0:0:0:0:
448,192,96440,1,0,0:0:0:0:
320,192,96515,1,0,0:0:0:0:
192,192,96590,128,2,96815:0:0:0:0:
448,192,96590,1,0,0:0:0:0:
64,192,96740,128,0,96815:0:0:0:0:
320,192,96740,128,0,96965:0:0:0:0:
64,192,96890,128,8,96965:0:0:0:0:
192,192,96890,128,0,97190:0:0:0:0:
448,192,96890,128,0,96965:0:0:0:0:
64,192,97040,128,8,97115:0:0:0:0:
320,192,97040,128,2,97265:0:0:0:0:
448,192,97040,128,4,97265:0:0:0:0:
64,192,97190,1,0,0:0:0:0:
192,192,97265,1,0,0:0:0:0:
320,192,97340,1,2,0:0:0:0:
448,192,97340,1,0,0:0:0:0:
192,192,97415,1,0,0:0:0:0:
64,192,97490,1,8,0:0:0:0:
320,192,97490,1,0,0:0:0:0:
448,192,97490,1,0,0:0:0:0:
64,192,97640,1,0,0:0:0:0:
192,192,97640,1,0,0:0:0:0:
320,192,97715,1,2,0:0:0:0:
64,192,97790,1,2,0:0:0:0:
448,192,97790,1,0,0:0:0:0:
192,192,97865,1,0,0:0:0:0:
64,192,97940,1,2,0:0:0:0:
448,192,97940,1,0,0:0:0:0:
320,192,98015,1,0,0:0:0:0:
64,192,98090,1,8,0:0:0:0:
192,192,98090,1,0,0:0:0:0:
448,192,98165,1,0,0:0:0:0:
64,192,98240,1,2,0:0:0:0:
192,192,98240,1,0,0:0:0:0:
320,192,98315,1,2,0:0:0:0:
64,192,98390,1,2,0:0:0:0:
192,192,98390,1,4,0:0:0:0:
448,192,98390,1,8,0:0:0:0:
320,192,98540,1,0,0:0:0:0:
448,192,98540,1,0,0:0:0:0:
64,192,98615,1,0,0:0:0:0:
192,192,98690,1,8,0:0:0:0:
448,192,98690,1,0,0:0:0:0:
320,192,98765,1,0,0:0:0:0:
64,192,98840,1,0,0:0:0:0:
192,192,98840,1,0,0:0:0:0:
64,192,98990,1,2,0:0:0:0:
320,192,98990,128,0,99215:0:0:0:0:
192,192,99140,128,0,99365:0:0:0:0:
448,192,99140,128,0,99215:0:0:0:0:
64,192,99290,128,8,99365:0:0:0:0:
320,192,99290,128,0,99740:0:0:0:0:
448,192,99290,128,0,99365:0:0:0:0:
64,192,99440,128,8,99665:0:0:0:0:
192,192,99440,128,2,99665:0:0:0:0:
448,192,99440,128,4,99815:0:0:0:0:
64,192,99740,1,2,0:0:0:0:
192,192,99740,1,0,0:0:0:0:
320,192,99815,1,2,0:0:0:0:
64,192,99890,1,8,0:0:0:0:
192,192,99890,1,0,0:0:0:0:
448,192,99890,1,0,0:0:0:0:
192,192,100040,1,2,0:0:0:0:
320,192,100040,1,0,0:0:0:0:
448,192,100040,1,0,0:0:0:0:
64,192,100190,1,2,0:0:0:0:
320,192,100190,1,0,0:0:0:0:
192,192,100265,1,2,0:0:0:0:
448,192,100265,1,0,0:0:0:0:
64,192,100340,1,2,0:0:0:0:
320,192,100340,1,0,0:0:0:0:
192,192,100415,1,0,0:0:0:0:
64,192,100490,1,8,0:0:0:0:
320,192,100490,1,0,0:0:0:0:
448,192,100490,1,0,0:0:0:0:
192,192,100565,1,0,0:0:0:0:
64,192,100640,1,2,0:0:0:0:
448,192,100640,1,0,0:0:0:0:
320,192,100715,1,0,0:0:0:0:
64,192,100790,128,2,101015:0:0:0:0:
192,192,100790,128,4,100940:0:0:0:0:
448,192,100790,1,8,0:0:0:0:
320,192,100940,128,0,101240:0:0:0:0:
448,192,100940,128,0,101015:0:0:0:0:
192,192,101015,128,0,101090:0:0:0:0:
64,192,101090,128,8,101165:0:0:0:0:
448,192,101090,128,0,101240:0:0:0:0:
192,192,101240,128,0,101390:0:0:0:0:
64,192,101390,128,2,101615:0:0:0:0:
448,192,101390,128,0,101615:0:0:0:0:
192,192,101465,128,0,101540:0:0:0:0:
320,192,101540,128,0,101615:0:0:0:0:
192,192,101615,128,0,101690:0:0:0:0:
64,192,101690,128,8,101765:0:0:0:0:
320,192,101690,1,0,0:0:0:0:
448,192,101690,128,0,101765:0:0:0:0:
192,192,101765,1,0,0:0:0:0:
64,192,101840,128,8,101915:0:0:0:0:
320,192,101840,1,2,0:0:0:0:
448,192,101840,128,4,101915:0:0:0:0:
192,192,101915,1,0,0:0:0:0:
64,192,101990,1,0,0:0:0:0:
320,192,101990,128,0,102140:0:0:0:0:
448,192,101990,1,0,0:0:0:0:
64,192,102140,1,2,0:0:0:0:
192,192,102140,1,0,0:0:0:0:
64,192,102290,1,8,0:0:0:0:
320,192,102290,1,0,0:0:0:0:
448,192,102290,128,0,102440:0:0:0:0:
64,192,102440,1,0,0:0:0:40:scratches kick.wav
192,192,102477,1,0,0:0:0:40:scratches kick.wav
320,192,102515,1,0,0:0:0:40:scratches kick.wav
448,192,102552,1,0,0:0:0:40:scratches kick.wav
64,192,102590,1,2,0:0:0:0:
192,192,102590,1,0,0:0:0:0:
320,192,102665,1,2,0:0:0:0:
64,192,102740,1,2,0:0:0:0:
448,192,102740,1,0,0:0:0:0:
192,192,102815,1,2,0:0:0:0:
320,192,102890,1,8,0:0:0:0:
448,192,102890,1,0,0:0:0:0:
192,192,102965,1,2,0:0:0:0:
64,192,103040,1,2,0:0:0:0:
448,192,103040,1,0,0:0:0:0:
320,192,103115,1,2,0:0:0:0:
64,192,103190,128,2,103340:0:0:0:0:
448,192,103190,128,4,103390:0:0:0:0:
320,192,103340,128,0,103440:0:0:0:0:
192,192,103390,128,0,103490:0:0:0:0:
64,192,103440,128,0,103540:0:0:0:0:
448,192,103490,128,8,103590:0:0:0:0:
192,192,103540,128,0,103640:0:0:0:0:
320,192,103590,128,0,103690:0:0:0:0:
64,192,103640,128,2,103840:0:0:0:0:
448,192,103640,128,4,103790:0:0:0:0:
192,192,103790,128,0,103890:0:0:0:0:
320,192,103840,128,0,103940:0:0:0:0:
448,192,103890,128,0,103990:0:0:0:0:
64,192,103940,128,8,104040:0:0:0:0:
320,192,103990,128,0,104090:0:0:0:0:
192,192,104040,128,0,104140:0:0:0:0:
64,192,104090,128,2,104540:0:0:0:0:
448,192,104090,128,4,104540:0:0:0:0:
192,192,104540,1,2,0:0:0:0:
320,192,104540,1,0,0:0:0:0:
64,192,104615,1,0,0:0:0:0:
320,192,104690,1,8,0:0:0:0:
448,192,104690,1,0,0:0:0:0:
192,192,104765,1,0,0:0:0:0:
64,192,104840,1,2,0:0:0:0:
448,192,104840,1,0,0:0:0:0:
320,192,104915,1,0,0:0:0:0:
64,192,104990,1,8,0:0:0:0:
192,192,104990,1,2,0:0:0:0:
320,192,105065,1,8,0:0:0:0:
448,192,105065,1,0,0:0:0:0:
64,192,105140,1,8,0:0:0:0:
192,192,105177,1,0,0:0:0:0:
448,192,105215,1,8,0:0:0:0:
320,192,105252,1,0,0:0:0:0:
64,192,105290,1,8,0:0:0:0:
192,192,105290,1,2,0:0:0:0:
320,192,105365,1,0,0:0:0:0:
448,192,105365,1,0,0:0:0:0:
64,192,105440,1,2,0:0:0:0:
192,192,105440,1,0,0:0:0:0:
320,192,105515,1,0,0:0:0:0:
64,192,105590,128,4,105790:0:0:0:0:
192,192,105590,1,2,0:0:0:0:
448,192,105590,128,0,105690:0:0:0:70:LR_Snare Pop.wav
192,192,105690,128,0,105790:0:0:0:0:
320,192,105790,128,0,105890:0:0:0:0:
64,192,105890,128,0,105990:0:0:0:40:LR_Snare Normal.wav
448,192,105890,1,0,0:0:0:0:
192,192,105990,1,0,0:0:0:40:LR_Snare Normal.wav
448,192,105990,128,0,106090:0:0:0:0:
64,192,106090,128,0,106190:0:0:0:40:LR_Snare Normal.wav
320,192,106090,1,0,0:0:0:0:
192,192,106190,1,2,0:0:0:0:
320,192,106190,128,4,106290:0:0:0:0:
448,192,106190,128,0,106390:0:0:0:0:
64,192,106290,128,0,106390:0:0:0:0:
192,192,106390,128,0,106490:0:0:0:0:
320,192,106490,128,0,106590:0:0:0:40:LR_Snare Normal.wav
448,192,106490,1,0,0:0:0:0:
64,192,106590,1,0,0:0:0:40:LR_Snare Normal.wav
448,192,106590,128,0,106690:0:0:0:0:
192,192,106690,128,0,106790:0:0:0:40:LR_Snare Normal.wav
320,192,106690,1,0,0:0:0:0:
64,192,106790,128,2,106890:0:0:0:0:
320,192,106790,128,4,106990:0:0:0:0:
448,192,106790,1,0,0:0:0:0:
192,192,106890,128,0,106990:0:0:0:0:
448,192,106990,128,0,107090:0:0:0:0:
64,192,107090,1,0,0:0:0:40:LR_Snare Normal.wav
320,192,107090,128,0,107190:0:0:0:0:
64,192,107190,128,0,107290:0:0:0:40:LR_Snare Normal.wav
448,192,107190,1,0,0:0:0:0:
192,192,107290,1,0,0:0:0:40:LR_Snare Normal.wav
448,192,107290,128,0,107390:0:0:0:0:
64,192,107390,1,2,0:0:0:0:
192,192,107390,1,0,0:0:0:0:
320,192,107440,1,2,0:0:0:0:
64,192,107490,1,2,0:0:0:0:
448,192,107490,1,0,0:0:0:0:
192,192,107590,1,2,0:0:0:0:
320,192,107590,1,0,0:0:0:0:
64,192,107690,1,4,0:0:0:0:
320,192,107690,1,2,0:0:0:0:
448,192,107690,1,0,0:0:0:0:
192,192,107790,1,0,0:0:0:0:
64,192,107890,1,0,0:0:0:0:
320,192,107890,1,0,0:0:0:0:
448,192,107890,1,0,0:0:0:0:
64,192,107990,1,2,0:0:0:0:
192,192,107990,128,4,108090:0:0:0:0:
448,192,107990,128,0,108190:0:0:0:0:
320,192,108090,128,0,108190:0:0:0:0:
64,192,108190,128,0,108290:0:0:0:0:
192,192,108290,1,0,0:0:0:40:LR_Snare Normal.wav
448,192,108290,128,0,108390:0:0:0:0:
64,192,108390,1,0,0:0:0:40:LR_Snare Normal.wav
192,192,108390,128,0,108490:0:0:0:0:
320,192,108490,128,0,108590:0:0:0:40:LR_Snare Normal.wav
448,192,108490,1,0,0:0:0:0:
64,192,108590,128,2,108790:0:0:0:0:
192,192,108590,1,4,0:0:0:0:
448,192,108590,128,0,108690:0:0:0:0:
320,192,108690,128,0,108790:0:0:0:0:
448,192,108790,128,0,108890:0:0:0:0:
192,192,108890,128,0,108990:0:0:0:40:LR_Snare Normal.wav
320,192,108890,1,0,0:0:0:0:
64,192,108990,1,0,0:0:0:40:LR_Snare Normal.wav
320,192,108990,128,0,109090:0:0:0:0:
64,192,109090,128,0,109190:0:0:0:40:LR_Snare Normal.wav
448,192,109090,1,0,0:0:0:0:
192,192,109190,1,2,0:0:0:0:
320,192,109190,128,4,109390:0:0:0:0:
448,192,109190,128,0,109290:0:0:0:0:
64,192,109290,128,0,109390:0:0:0:0:
192,192,109390,128,0,109490:0:0:0:0:
320,192,109490,128,0,109590:0:0:0:40:LR_Snare Normal.wav
448,192,109490,1,0,0:0:0:0:
64,192,109590,1,0,0:0:0:40:LR_Snare Normal.wav
448,192,109590,128,0,109690:0:0:0:0:
64,192,109690,128,0,109790:0:0:0:40:LR_Snare Normal.wav
320,192,109690,1,0,0:0:0:0:
192,192,109790,128,0,109890:0:0:0:40:scratches kick.wav
448,192,109790,128,0,109890:0:0:0:0:
64,192,109890,128,0,109990:0:0:0:0:
320,192,109890,128,0,109990:0:0:0:0:
192,192,109990,128,0,110090:0:0:0:0:
448,192,109990,128,0,110090:0:0:0:0:
64,192,110090,1,4,0:0:0:0:
320,192,110090,128,0,110390:0:0:0:40:LR_Snare Normal.wav
64,192,110390,1,2,0:0:0:0:
192,192,110390,1,4,0:0:0:0:
448,192,110390,1,0,0:0:0:0:
320,192,110465,1,0,0:0:0:0:
64,192,110540,1,2,0:0:0:0:
192,192,110540,1,0,0:0:0:40:cymbal_short.wav
320,192,110615,1,0,0:0:0:40:LR_Snare Normal.wav
448,192,110615,1,0,0:0:0:0:
64,192,110690,1,2,0:0:0:0:
192,192,110690,1,0,0:0:0:40:cymbal_short.wav
320,192,110765,1,0,0:0:0:0:
64,192,110840,1,2,0:0:0:0:
448,192,110840,1,0,0:0:0:40:cymbal_short.wav
192,192,110915,1,0,0:0:0:0:
320,192,110990,1,2,0:0:0:0:
448,192,110990,1,4,0:0:0:0:
192,192,111065,1,0,0:0:0:0:
64,192,111140,1,2,0:0:0:0:
448,192,111140,1,0,0:0:0:40:cymbal_short.wav
192,192,111215,1,0,0:0:0:40:LR_Snare Normal.wav
320,192,111215,1,0,0:0:0:0:
64,192,111290,1,2,0:0:0:0:
448,192,111290,1,0,0:0:0:40:cymbal_short.wav
320,192,111365,1,0,0:0:0:0:
64,192,111440,1,2,0:0:0:0:
192,192,111440,1,0,0:0:0:40:cymbal_short.wav
320,192,111515,1,0,0:0:0:0:
448,192,111515,1,0,0:0:0:0:
64,192,111590,1,2,0:0:0:0:
192,192,111590,1,4,0:0:0:0:
320,192,111665,1,0,0:0:0:0:
64,192,111740,1,2,0:0:0:0:
448,192,111740,1,0,0:0:0:40:cymbal_short.wav
192,192,111815,1,0,0:0:0:40:LR_Snare Normal.wav
320,192,111815,1,0,0:0:0:0:
64,192,111890,1,2,0:0:0:0:
448,192,111890,1,0,0:0:0:40:cymbal_short.wav
320,192,111965,1,0,0:0:0:0:
64,192,112040,1,0,0:0:0:40:LR_Snare Normal.wav
448,192,112040,1,0,0:0:0:0:
192,192,112077,1,0,0:0:0:40:scratches kick.wav
320,192,112115,1,0,0:0:0:40:scratches kick.wav
448,192,112152,1,0,0:0:0:40:scratches kick.wav
64,192,112190,1,2,0:0:0:0:
192,192,112190,1,0,0:0:0:0:
320,192,112265,1,2,0:0:0:0:
448,192,112265,1,0,0:0:0:0:
64,192,112340,1,0,0:0:0:40:LR_Snare Normal.wav
192,192,112340,1,0,0:0:0:0:
448,192,112377,1,0,0:0:0:40:scratches kick.wav
320,192,112415,1,0,0:0:0:40:scratches kick.wav
192,192,112452,1,0,0:0:0:40:scratches kick.wav
64,192,112490,1,2,0:0:0:0:
448,192,112490,1,0,0:0:0:0:
192,192,112565,1,2,0:0:0:0:
320,192,112565,1,0,0:0:0:40:LR_Snare Normal.wav
64,192,112640,1,2,0:0:0:0:
448,192,112640,1,0,0:0:0:0:
320,192,112715,1,2,0:0:0:0:
64,192,112790,128,4,113015:0:0:0:0:
192,192,112790,128,2,112865:0:0:0:0:
448,192,112790,128,0,113015:0:0:0:0:
320,192,112940,128,0,113165:0:0:0:0:
64,192,113090,128,0,113315:0:0:0:40:LR_Snare Normal.wav
192,192,113090,1,0,0:0:0:0:
448,192,113090,128,0,113165:0:0:0:0:
192,192,113240,128,2,113465:0:0:0:0:
448,192,113240,128,0,113390:0:0:0:0:
64,192,113390,128,0,113465:0:0:0:0:
320,192,113465,1,2,0:0:0:0:
448,192,113465,1,0,0:0:0:0:
64,192,113540,1,2,0:0:0:0:
192,192,113540,1,0,0:0:0:0:
64,192,113690,128,0,113915:0:0:0:40:LR_Snare Normal.wav
320,192,113690,128,0,113840:0:0:0:0:
448,192,113690,1,0,0:0:0:0:
192,192,113840,128,2,114065:0:0:0:0:
448,192,113840,1,0,0:0:0:0:
64,192,113990,128,0,114065:0:0:0:0:
448,192,113990,128,0,114215:0:0:0:0:
192,192,114140,1,2,0:0:0:0:
320,192,114140,128,0,114215:0:0:0:0:
320,192,114290,1,0,0:0:0:40:LR_Snare Normal.wav
448,192,114290,1,0,0:0:0:0:
64,192,114365,1,2,0:0:0:0:
192,192,114365,1,0,0:0:0:0:
320,192,114440,1,2,0:0:0:0:
448,192,114440,1,0,0:0:0:0:
64,192,114515,1,2,0:0:0:0:
192,192,114515,1,0,0:0:0:0:
320,192,114590,128,2,114740:0:0:0:0:
448,192,114590,128,0,114665:0:0:0:0:
64,192,114665,128,0,114815:0:0:0:0:
192,192,114740,128,2,114815:0:0:0:0:
448,192,114740,128,0,114965:0:0:0:0:
320,192,114815,128,0,114890:0:0:0:0:
64,192,114890,128,0,114965:0:0:0:40:LR_Snare Normal.wav
192,192,114890,128,0,114965:0:0:0:0:
320,192,114965,128,0,115040:0:0:0:40:LR_Snare Normal.wav
64,192,115040,1,2,0:0:0:0:
192,192,115040,1,4,0:0:0:0:
448,192,115040,128,0,117627:0:0:0:0:
64,192,115490,1,0,0:0:0:0:
320,192,115640,1,0,0:0:0:0:
192,192,115715,1,0,0:0:0:0:
320,192,115790,1,0,0:0:0:0:
64,192,115940,1,0,0:0:0:0:
64,192,116090,1,0,0:0:0:0:
192,192,116240,1,0,0:0:0:0:
320,192,116540,1,0,0:0:0:0:
192,192,116690,1,0,0:0:0:0:
64,192,116840,1,0,0:0:0:0:
192,192,116990,1,0,0:0:0:0:
320,192,117140,1,0,0:0:0:0:
64,192,117290,1,0,0:0:0:0:
64,192,117440,128,0,117740:0:0:0:0:
192,192,117440,128,0,117702:0:0:0:0:
320,192,117440,128,0,117665:0:0:0:0:
