osu file format v14

[General]
AudioFilename: audio.mp3
AudioLeadIn: 0
PreviewTime: 95694
Countdown: 0
SampleSet: Soft
StackLeniency: 0.7
Mode: 3
LetterboxInBreaks: 0
SpecialStyle: 0
WidescreenStoryboard: 1

[Editor]
DistanceSpacing: 0.8
BeatDivisor: 2
GridSize: 32
TimelineZoom: 0.6999989

[Metadata]
Title:Nostalgic Lost Logic
TitleUnicode:ノスタルジック・ロストロジック
Artist:Tonari no Niwa wa Aoi (NIWASHI + Aoi)
ArtistUnicode:隣の庭は青い (庭師 + Aoi)
Creator:Maiiy
Version:Normal
Source:
Tags:mg mappers' guild featured artist fa drum n bass アートコアのお庭 Garden of Artcore Artcore no Oniwa Hybrid hb dnb d&b instrumental electronic gozena
BeatmapID:4403892
BeatmapSetID:2095978

[Difficulty]
HPDrainRate:7.2
CircleSize:4
OverallDifficulty:7.2
ApproachRate:5
SliderMultiplier:1.4
SliderTickRate:1

[Events]
//Background and Video events
0,0,"BG.jpg",0,0
//Break Periods
//Storyboard Layer 0 (Background)
//Storyboard Layer 1 (Fail)
//Storyboard Layer 2 (Pass)
//Storyboard Layer 3 (Foreground)
//Storyboard Layer 4 (Overlay)
//Storyboard Sound Samples

[TimingPoints]
3696,307.692307692308,4,2,1,50,1,0
27080,-100,4,2,1,50,0,1
46772,-100,4,2,1,50,0,0
96003,-100,4,2,1,50,0,1
105849,-100,4,2,1,50,0,0

[HitObjects]
64,192,3695,128,0,3849:0:0:0:0:
320,192,4003,128,0,4157:0:0:0:0:
192,192,4311,128,0,4465:0:0:0:0:
448,192,4619,128,0,4772:0:0:0:0:
64,192,4926,1,0,0:0:0:0:
192,192,4926,128,0,5426:0:0:0:0:
448,192,5426,1,0,0:0:0:0:
320,192,5849,1,0,0:0:0:0:
64,192,6157,128,0,6657:0:0:0:0:
448,192,6657,1,0,0:0:0:0:
192,192,7080,1,0,0:0:0:0:
448,192,7388,1,0,0:0:0:0:
320,192,7388,128,0,7888:0:0:0:0:
64,192,7888,1,0,0:0:0:0:
192,192,8311,1,0,0:0:0:0:
320,192,8619,128,0,9119:0:0:0:0:
448,192,9119,1,0,0:0:0:0:
192,192,9542,128,0,9849:0:0:0:0:
320,192,9696,1,0,0:0:0:0:
64,192,9849,1,0,0:0:0:0:
448,192,9849,128,0,10465:0:0:0:0:
64,192,10465,128,0,11080:0:0:0:0:
320,192,11080,128,0,11849:0:0:0:0:
64,192,12311,1,0,0:0:0:0:
192,192,12311,1,0,0:0:0:0:
320,192,12465,1,0,0:0:0:0:
64,192,12619,1,0,0:0:0:0:
448,192,12772,1,0,0:0:0:0:
192,192,12772,1,0,0:0:0:0:
320,192,12926,1,0,0:0:0:0:
64,192,13080,1,0,0:0:0:0:
448,192,13234,128,0,13542:0:0:0:0:
320,192,13542,1,0,0:0:0:0:
64,192,13772,1,0,0:0:0:0:
192,192,13772,1,0,0:0:0:0:
448,192,14003,1,0,0:0:0:0:
320,192,14003,1,0,0:0:0:0:
64,192,14157,1,0,0:0:0:0:
448,192,14465,1,0,0:0:0:0:
192,192,14465,1,0,0:0:0:0:
64,192,14772,1,0,0:0:0:0:
320,192,14772,1,0,0:0:0:0:
448,192,15080,1,0,0:0:0:0:
320,192,15234,1,0,0:0:0:0:
192,192,15388,1,0,0:0:0:0:
64,192,15388,1,0,0:0:0:0:
448,192,15696,1,0,0:0:0:0:
64,192,16003,1,0,0:0:0:0:
192,192,16311,1,0,0:0:0:0:
448,192,16465,1,0,0:0:0:0:
320,192,16619,1,0,0:0:0:0:
64,192,16619,1,0,0:0:0:0:
192,192,16926,1,0,0:0:0:0:
448,192,17234,1,0,0:0:0:0:
64,192,17542,1,0,0:0:0:0:
192,192,17696,1,0,0:0:0:0:
320,192,17849,1,0,0:0:0:0:
448,192,17849,1,0,0:0:0:0:
192,192,18157,1,0,0:0:0:0:
448,192,18465,1,0,0:0:0:0:
64,192,18772,1,0,0:0:0:0:
320,192,18926,1,0,0:0:0:0:
448,192,19080,1,0,0:0:0:0:
64,192,19080,1,0,0:0:0:0:
192,192,19388,1,0,0:0:0:0:
448,192,19542,1,0,0:0:0:0:
320,192,19619,1,0,0:0:0:0:
192,192,19696,1,0,0:0:0:0:
64,192,19696,128,0,20311:0:0:0:0:
192,192,20003,1,0,0:0:0:0:
320,192,20311,128,0,20926:0:0:0:0:
448,192,20311,1,0,0:0:0:0:
64,192,20619,1,0,0:0:0:0:
448,192,20926,128,0,21849:0:0:0:0:
192,192,20926,1,0,0:0:0:0:
64,192,21234,1,0,0:0:0:0:
192,192,21542,1,0,0:0:0:0:
320,192,21542,1,0,0:0:0:0:
64,192,21849,1,0,0:0:0:0:
320,192,22157,1,0,0:0:0:0:
192,192,22311,1,0,0:0:0:0:
448,192,22465,1,0,0:0:0:0:
320,192,22619,1,0,0:0:0:0:
64,192,22772,1,0,0:0:0:0:
192,192,22772,1,0,0:0:0:0:
448,192,22926,1,0,0:0:0:0:
64,192,23080,1,0,0:0:0:0:
192,192,23234,1,0,0:0:0:0:
320,192,23388,1,0,0:0:0:0:
448,192,23542,1,0,0:0:0:0:
192,192,23696,1,0,0:0:0:0:
64,192,23849,1,0,0:0:0:0:
192,192,24003,1,0,0:0:0:0:
448,192,24003,1,0,0:0:0:0:
320,192,24157,1,0,0:0:0:0:
64,192,24311,1,0,0:0:0:0:
192,192,24465,1,0,0:0:0:0:
448,192,24619,128,0,25234:0:0:0:0:
64,192,24772,1,0,0:0:0:0:
192,192,24926,1,0,0:0:0:0:
320,192,25080,1,0,0:0:0:0:
192,192,25234,1,0,0:0:0:0:
64,192,25234,128,0,25849:0:0:0:0:
320,192,25388,1,0,0:0:0:0:
448,192,25542,1,0,0:0:0:0:
192,192,25696,1,0,0:0:0:0:
320,192,25849,1,0,0:0:0:0:
192,192,26003,1,0,0:0:0:0:
448,192,26157,1,0,0:0:0:0:
320,192,26157,1,0,0:0:0:0:
64,192,26311,1,0,0:0:0:0:
320,192,26465,1,0,0:0:0:0:
192,192,26619,1,0,0:0:0:0:
448,192,26772,128,0,27080:0:0:0:0:
64,192,27080,1,0,0:0:0:0:
192,192,27080,1,0,0:0:0:0:
320,192,27234,1,0,0:0:0:0:
64,192,27388,1,0,0:0:0:0:
448,192,27388,1,0,0:0:0:0:
192,192,27542,1,0,0:0:0:0:
64,192,27849,1,0,0:0:0:0:
448,192,28003,1,0,0:0:0:0:
320,192,28003,1,0,0:0:0:0:
192,192,28157,1,0,0:0:0:0:
64,192,28311,1,0,0:0:0:0:
448,192,28311,1,0,0:0:0:0:
320,192,28619,1,0,0:0:0:0:
448,192,28619,1,0,0:0:0:0:
64,192,28772,1,0,0:0:0:0:
192,192,29080,1,0,0:0:0:0:
320,192,29234,1,0,0:0:0:0:
448,192,29234,1,0,0:0:0:0:
64,192,29388,1,0,0:0:0:0:
320,192,29542,1,0,0:0:0:0:
64,192,29696,128,0,29849:0:0:0:0:
192,192,29849,1,0,0:0:0:0:
320,192,30003,128,0,30157:0:0:0:0:
448,192,30157,1,0,0:0:0:0:
64,192,30311,1,0,0:0:0:0:
192,192,30465,1,0,0:0:0:0:
448,192,30465,1,0,0:0:0:0:
320,192,30619,1,0,0:0:0:0:
64,192,30772,1,0,0:0:0:0:
192,192,30772,1,0,0:0:0:0:
448,192,30926,128,0,31080:0:0:0:0:
320,192,31080,1,0,0:0:0:0:
192,192,31234,128,0,31388:0:0:0:0:
64,192,31388,1,0,0:0:0:0:
320,192,31542,1,0,0:0:0:0:
192,192,31696,1,0,0:0:0:0:
448,192,31696,1,0,0:0:0:0:
64,192,31849,1,0,0:0:0:0:
320,192,32003,1,0,0:0:0:0:
448,192,32003,1,0,0:0:0:0:
64,192,32157,1,0,0:0:0:0:
192,192,32311,1,0,0:0:0:0:
448,192,32311,1,0,0:0:0:0:
320,192,32465,1,0,0:0:0:0:
448,192,32772,1,0,0:0:0:0:
320,192,32926,1,0,0:0:0:0:
64,192,32926,1,0,0:0:0:0:
448,192,33080,1,0,0:0:0:0:
192,192,33234,1,0,0:0:0:0:
64,192,33234,1,0,0:0:0:0:
64,192,33542,1,0,0:0:0:0:
320,192,33542,1,0,0:0:0:0:
192,192,33696,1,0,0:0:0:0:
64,192,34003,1,0,0:0:0:0:
448,192,34157,1,0,0:0:0:0:
192,192,34157,1,0,0:0:0:0:
320,192,34311,1,0,0:0:0:0:
64,192,34465,1,0,0:0:0:0:
192,192,34465,1,0,0:0:0:0:
320,192,34619,128,0,34772:0:0:0:0:
192,192,34772,1,0,0:0:0:0:
448,192,34926,128,0,35080:0:0:0:0:
320,192,35080,1,0,0:0:0:0:
192,192,35234,1,0,0:0:0:0:
64,192,35388,1,0,0:0:0:0:
448,192,35388,1,0,0:0:0:0:
64,192,35542,1,0,0:0:0:0:
320,192,35696,1,0,0:0:0:0:
448,192,35849,128,0,36003:0:0:0:0:
192,192,36003,1,0,0:0:0:0:
64,192,36157,128,0,36311:0:0:0:0:
320,192,36311,1,0,0:0:0:0:
448,192,36465,1,0,0:0:0:0:
192,192,36619,1,0,0:0:0:0:
64,192,36619,1,0,0:0:0:0:
192,192,36926,1,0,0:0:0:0:
448,192,36926,1,0,0:0:0:0:
320,192,37080,1,0,0:0:0:0:
64,192,37234,1,0,0:0:0:0:
192,192,37234,1,0,0:0:0:0:
448,192,37388,1,0,0:0:0:0:
64,192,37696,1,0,0:0:0:0:
192,192,37849,1,0,0:0:0:0:
448,192,37849,1,0,0:0:0:0:
320,192,38003,1,0,0:0:0:0:
64,192,38157,1,0,0:0:0:0:
192,192,38157,1,0,0:0:0:0:
448,192,38465,1,0,0:0:0:0:
64,192,38465,1,0,0:0:0:0:
192,192,38619,1,0,0:0:0:0:
320,192,38926,1,0,0:0:0:0:
192,192,39080,1,0,0:0:0:0:
448,192,39080,1,0,0:0:0:0:
64,192,39234,1,0,0:0:0:0:
192,192,39388,1,0,0:0:0:0:
320,192,39542,128,0,39696:0:0:0:0:
448,192,39696,1,0,0:0:0:0:
192,192,39849,128,0,40003:0:0:0:0:
64,192,40003,1,0,0:0:0:0:
320,192,40157,1,0,0:0:0:0:
448,192,40311,1,0,0:0:0:0:
192,192,40311,1,0,0:0:0:0:
64,192,40465,1,0,0:0:0:0:
320,192,40619,1,0,0:0:0:0:
192,192,40772,128,0,40926:0:0:0:0:
64,192,40926,1,0,0:0:0:0:
320,192,41080,128,0,41234:0:0:0:0:
448,192,41234,1,0,0:0:0:0:
64,192,41388,1,0,0:0:0:0:
192,192,41542,1,0,0:0:0:0:
448,192,41542,1,0,0:0:0:0:
320,192,41696,128,0,42003:0:0:0:0:
64,192,41849,1,0,0:0:0:0:
192,192,41849,1,0,0:0:0:0:
320,192,42157,1,0,0:0:0:0:
64,192,42157,1,0,0:0:0:0:
192,192,42311,1,0,0:0:0:0:
448,192,42465,1,0,0:0:0:0:
320,192,42619,1,0,0:0:0:0:
64,192,42772,1,0,0:0:0:0:
192,192,42772,1,0,0:0:0:0:
448,192,42926,1,0,0:0:0:0:
320,192,43080,1,0,0:0:0:0:
64,192,43080,1,0,0:0:0:0:
192,192,43234,1,0,0:0:0:0:
320,192,43388,1,0,0:0:0:0:
448,192,43388,1,0,0:0:0:0:
64,192,43542,1,0,0:0:0:0:
192,192,43849,1,0,0:0:0:0:
448,192,44003,1,0,0:0:0:0:
64,192,44003,1,0,0:0:0:0:
320,192,44157,1,0,0:0:0:0:
448,192,44311,1,0,0:0:0:0:
192,192,44311,1,0,0:0:0:0:
64,192,44465,1,0,0:0:0:0:
448,192,44619,1,0,0:0:0:0:
320,192,44619,1,0,0:0:0:0:
192,192,44772,1,0,0:0:0:0:
64,192,45080,1,0,0:0:0:0:
320,192,45234,1,0,0:0:0:0:
448,192,45234,1,0,0:0:0:0:
192,192,45388,1,0,0:0:0:0:
320,192,45542,1,0,0:0:0:0:
448,192,45542,1,0,0:0:0:0:
64,192,45696,1,0,0:0:0:0:
192,192,45696,1,0,0:0:0:0:
320,192,45849,1,0,0:0:0:0:
448,192,45849,1,0,0:0:0:0:
64,192,46003,1,0,0:0:0:0:
192,192,46003,1,0,0:0:0:0:
448,192,46157,1,0,0:0:0:0:
320,192,46157,1,0,0:0:0:0:
64,192,46311,1,0,0:0:0:0:
192,192,46465,128,0,46619:0:0:0:0:
320,192,46772,128,0,47003:0:0:0:0:
64,192,47003,128,0,47234:0:0:0:0:
448,192,47234,128,0,47465:0:0:0:0:
192,192,47465,128,0,47696:0:0:0:0:
320,192,47696,128,0,47926:0:0:0:0:
64,192,47926,128,0,48157:0:0:0:0:
448,192,48157,128,0,48388:0:0:0:0:
192,192,48388,128,0,48619:0:0:0:0:
64,192,48619,1,0,0:0:0:0:
448,192,48772,1,0,0:0:0:0:
192,192,48926,1,0,0:0:0:0:
320,192,49080,1,0,0:0:0:0:
192,192,49234,128,0,49465:0:0:0:0:
448,192,49465,128,0,49696:0:0:0:0:
64,192,49696,128,0,49926:0:0:0:0:
448,192,49926,128,0,50157:0:0:0:0:
320,192,50157,128,0,50388:0:0:0:0:
64,192,50388,128,0,50619:0:0:0:0:
192,192,50619,128,0,50849:0:0:0:0:
448,192,50849,128,0,51080:0:0:0:0:
192,192,51080,128,0,51388:0:0:0:0:
64,192,51080,128,0,51388:0:0:0:0:
320,192,51388,1,0,0:0:0:0:
448,192,51388,1,0,0:0:0:0:
64,192,51696,128,0,51926:0:0:0:0:
320,192,51926,128,0,52157:0:0:0:0:
448,192,52157,128,0,52388:0:0:0:0:
64,192,52388,128,0,52619:0:0:0:0:
192,192,52619,128,0,52849:0:0:0:0:
448,192,52849,128,0,53080:0:0:0:0:
64,192,53080,128,0,53311:0:0:0:0:
448,192,53311,128,0,53542:0:0:0:0:
64,192,53542,128,0,54157:0:0:0:0:
448,192,54157,1,0,0:0:0:0:
192,192,54157,1,0,0:0:0:0:
64,192,54388,1,0,0:0:0:0:
320,192,54388,1,0,0:0:0:0:
192,192,54619,1,0,0:0:0:0:
320,192,54772,1,0,0:0:0:0:
448,192,54772,1,0,0:0:0:0:
64,192,55003,1,0,0:0:0:0:
192,192,55003,1,0,0:0:0:0:
448,192,55234,1,0,0:0:0:0:
64,192,55388,1,0,0:0:0:0:
192,192,55388,1,0,0:0:0:0:
448,192,55542,1,0,0:0:0:0:
320,192,55696,1,0,0:0:0:0:
64,192,55696,1,0,0:0:0:0:
192,192,55849,1,0,0:0:0:0:
320,192,56003,1,0,0:0:0:0:
448,192,56003,1,0,0:0:0:0:
64,192,56157,1,0,0:0:0:0:
192,192,56311,1,0,0:0:0:0:
448,192,56311,1,0,0:0:0:0:
320,192,56465,1,0,0:0:0:0:
192,192,56619,1,0,0:0:0:0:
64,192,56619,1,0,0:0:0:0:
448,192,56772,1,0,0:0:0:0:
320,192,56926,1,0,0:0:0:0:
64,192,56926,1,0,0:0:0:0:
192,192,57080,1,0,0:0:0:0:
320,192,57388,1,0,0:0:0:0:
448,192,57542,1,0,0:0:0:0:
64,192,57542,1,0,0:0:0:0:
192,192,57696,1,0,0:0:0:0:
320,192,57849,1,0,0:0:0:0:
192,192,58003,1,0,0:0:0:0:
448,192,58157,1,0,0:0:0:0:
64,192,58157,1,0,0:0:0:0:
320,192,58311,1,0,0:0:0:0:
320,192,58619,1,0,0:0:0:0:
64,192,58772,1,0,0:0:0:0:
192,192,58772,1,0,0:0:0:0:
448,192,58926,1,0,0:0:0:0:
192,192,59080,1,0,0:0:0:0:
320,192,59234,1,0,0:0:0:0:
448,192,59388,1,0,0:0:0:0:
64,192,59388,1,0,0:0:0:0:
192,192,59542,1,0,0:0:0:0:
448,192,59696,1,0,0:0:0:0:
64,192,59849,1,0,0:0:0:0:
192,192,60003,1,0,0:0:0:0:
320,192,60003,1,0,0:0:0:0:
64,192,60157,1,0,0:0:0:0:
320,192,60311,1,0,0:0:0:0:
448,192,60465,1,0,0:0:0:0:
64,192,60619,1,0,0:0:0:0:
192,192,60619,1,0,0:0:0:0:
320,192,60772,128,0,60926:0:0:0:0:
448,192,60926,128,0,61080:0:0:0:0:
192,192,61080,1,0,0:0:0:0:
448,192,61234,1,0,0:0:0:0:
64,192,61234,1,0,0:0:0:0:
320,192,61388,1,0,0:0:0:0:
64,192,61542,128,0,61696:0:0:0:0:
192,192,61696,128,0,61849:0:0:0:0:
448,192,61849,128,0,62003:0:0:0:0:
320,192,62003,128,0,62157:0:0:0:0:
192,192,62157,128,0,62311:0:0:0:0:
448,192,62311,1,0,0:0:0:0:
192,192,62465,1,0,0:0:0:0:
64,192,62465,1,0,0:0:0:0:
320,192,62619,1,0,0:0:0:0:
192,192,62772,128,0,62926:0:0:0:0:
320,192,62926,128,0,63080:0:0:0:0:
448,192,63080,128,0,63234:0:0:0:0:
64,192,63234,128,0,63388:0:0:0:0:
192,192,63388,128,0,63542:0:0:0:0:
320,192,63542,128,0,63696:0:0:0:0:
64,192,63696,128,0,63849:0:0:0:0:
448,192,63849,128,0,64003:0:0:0:0:
192,192,64003,1,0,0:0:0:0:
320,192,64157,1,0,0:0:0:0:
64,192,64311,1,0,0:0:0:0:
448,192,64311,1,0,0:0:0:0:
320,192,64465,1,0,0:0:0:0:
64,192,64619,1,0,0:0:0:0:
192,192,64772,1,0,0:0:0:0:
320,192,64926,1,0,0:0:0:0:
448,192,64926,1,0,0:0:0:0:
64,192,65080,1,0,0:0:0:0:
320,192,65234,1,0,0:0:0:0:
192,192,65388,1,0,0:0:0:0:
64,192,65542,1,0,0:0:0:0:
448,192,65542,1,0,0:0:0:0:
320,192,65696,1,0,0:0:0:0:
448,192,65849,1,0,0:0:0:0:
192,192,66003,1,0,0:0:0:0:
64,192,66157,1,0,0:0:0:0:
320,192,66157,1,0,0:0:0:0:
192,192,66311,1,0,0:0:0:0:
448,192,66465,128,0,66772:0:0:0:0:
192,192,66619,1,0,0:0:0:0:
64,192,66772,1,0,0:0:0:0:
320,192,66772,1,0,0:0:0:0:
192,192,66926,128,0,67080:0:0:0:0:
64,192,67234,1,0,0:0:0:0:
192,192,67388,1,0,0:0:0:0:
320,192,67388,1,0,0:0:0:0:
448,192,67542,1,0,0:0:0:0:
64,192,67696,128,0,68003:0:0:0:0:
320,192,67849,1,0,0:0:0:0:
448,192,68003,1,0,0:0:0:0:
192,192,68003,1,0,0:0:0:0:
320,192,68157,1,0,0:0:0:0:
448,192,68311,128,0,68619:0:0:0:0:
64,192,68465,1,0,0:0:0:0:
320,192,68619,1,0,0:0:0:0:
192,192,68619,1,0,0:0:0:0:
64,192,68772,128,0,68926:0:0:0:0:
192,192,68926,1,0,0:0:0:0:
320,192,69080,1,0,0:0:0:0:
64,192,69234,1,0,0:0:0:0:
192,192,69234,1,0,0:0:0:0:
448,192,69388,1,0,0:0:0:0:
192,192,69542,1,0,0:0:0:0:
320,192,69696,1,0,0:0:0:0:
448,192,69849,1,0,0:0:0:0:
192,192,69849,1,0,0:0:0:0:
64,192,70003,1,0,0:0:0:0:
320,192,70157,1,0,0:0:0:0:
64,192,70311,1,0,0:0:0:0:
448,192,70465,1,0,0:0:0:0:
192,192,70465,1,0,0:0:0:0:
320,192,70619,1,0,0:0:0:0:
192,192,70926,1,0,0:0:0:0:
320,192,71080,1,0,0:0:0:0:
64,192,71080,1,0,0:0:0:0:
448,192,71234,1,0,0:0:0:0:
192,192,71388,1,0,0:0:0:0:
448,192,71542,1,0,0:0:0:0:
320,192,71696,1,0,0:0:0:0:
64,192,71696,1,0,0:0:0:0:
192,192,71849,1,0,0:0:0:0:
448,192,72003,1,0,0:0:0:0:
64,192,72157,1,0,0:0:0:0:
192,192,72311,1,0,0:0:0:0:
448,192,72311,1,0,0:0:0:0:
320,192,72465,128,0,72619:0:0:0:0:
64,192,72619,1,0,0:0:0:0:
448,192,72772,1,0,0:0:0:0:
64,192,72926,1,0,0:0:0:0:
192,192,72926,1,0,0:0:0:0:
320,192,73080,1,0,0:0:0:0:
448,192,73234,1,0,0:0:0:0:
192,192,73388,1,0,0:0:0:0:
448,192,73542,1,0,0:0:0:0:
64,192,73542,1,0,0:0:0:0:
320,192,73696,1,0,0:0:0:0:
192,192,73849,1,0,0:0:0:0:
64,192,73849,1,0,0:0:0:0:
448,192,74003,1,0,0:0:0:0:
64,192,74157,1,0,0:0:0:0:
320,192,74311,1,0,0:0:0:0:
448,192,74311,1,0,0:0:0:0:
320,192,74619,1,0,0:0:0:0:
448,192,74619,1,0,0:0:0:0:
64,192,74772,1,0,0:0:0:0:
192,192,74772,1,0,0:0:0:0:
320,192,74926,1,0,0:0:0:0:
448,192,75080,128,0,75696:0:0:0:0:
64,192,75388,1,0,0:0:0:0:
192,192,75388,1,0,0:0:0:0:
64,192,75696,128,0,76311:0:0:0:0:
320,192,76003,128,0,76311:0:0:0:0:
448,192,76311,128,0,77542:0:0:0:0:
64,192,77542,1,0,0:0:0:0:
192,192,77849,1,0,0:0:0:0:
320,192,78157,128,0,78772:0:0:0:0:
64,192,78772,1,0,0:0:0:0:
448,192,78772,1,0,0:0:0:0:
192,192,79080,1,0,0:0:0:0:
320,192,79388,1,0,0:0:0:0:
448,192,79388,1,0,0:0:0:0:
64,192,80003,1,0,0:0:0:0:
320,192,80311,1,0,0:0:0:0:
192,192,80465,1,0,0:0:0:0:
320,192,80619,1,0,0:0:0:0:
448,192,80619,1,0,0:0:0:0:
320,192,81080,1,0,0:0:0:0:
192,192,81234,1,0,0:0:0:0:
64,192,81234,1,0,0:0:0:0:
320,192,81849,1,0,0:0:0:0:
448,192,81849,1,0,0:0:0:0:
448,192,82772,1,0,0:0:0:0:
192,192,82772,128,0,83080:0:0:0:0:
64,192,83080,1,0,0:0:0:0:
320,192,83388,1,0,0:0:0:0:
448,192,83388,1,0,0:0:0:0:
320,192,83696,1,0,0:0:0:0:
64,192,83696,1,0,0:0:0:0:
192,192,83849,1,0,0:0:0:0:
448,192,84311,1,0,0:0:0:0:
320,192,84311,1,0,0:0:0:0:
192,192,85234,1,0,0:0:0:0:
64,192,85234,1,0,0:0:0:0:
320,192,85388,1,0,0:0:0:0:
448,192,85542,1,0,0:0:0:0:
64,192,85542,1,0,0:0:0:0:
320,192,85696,1,0,0:0:0:0:
64,192,85849,128,0,86157:0:0:0:0:
192,192,86157,1,0,0:0:0:0:
448,192,86157,1,0,0:0:0:0:
320,192,86465,1,0,0:0:0:0:
64,192,86619,1,0,0:0:0:0:
448,192,86772,1,0,0:0:0:0:
320,192,87080,1,0,0:0:0:0:
192,192,87080,1,0,0:0:0:0:
320,192,87388,1,0,0:0:0:0:
448,192,87388,1,0,0:0:0:0:
192,192,87696,1,0,0:0:0:0:
448,192,87849,1,0,0:0:0:0:
64,192,88003,1,0,0:0:0:0:
448,192,88311,1,0,0:0:0:0:
320,192,88311,1,0,0:0:0:0:
64,192,88619,1,0,0:0:0:0:
192,192,88619,1,0,0:0:0:0:
448,192,88926,1,0,0:0:0:0:
64,192,89080,1,0,0:0:0:0:
320,192,89234,1,0,0:0:0:0:
320,192,89542,1,0,0:0:0:0:
192,192,89542,1,0,0:0:0:0:
64,192,89849,1,0,0:0:0:0:
192,192,89849,1,0,0:0:0:0:
320,192,90157,1,0,0:0:0:0:
64,192,90311,1,0,0:0:0:0:
448,192,90465,1,0,0:0:0:0:
64,192,90772,1,0,0:0:0:0:
192,192,90772,1,0,0:0:0:0:
320,192,91080,1,0,0:0:0:0:
448,192,91080,1,0,0:0:0:0:
64,192,91234,1,0,0:0:0:0:
320,192,91388,1,0,0:0:0:0:
64,192,91542,1,0,0:0:0:0:
320,192,91696,1,0,0:0:0:0:
448,192,91696,1,0,0:0:0:0:
192,192,91849,1,0,0:0:0:0:
448,192,92003,1,0,0:0:0:0:
64,192,92157,1,0,0:0:0:0:
192,192,92311,1,0,0:0:0:0:
320,192,92311,1,0,0:0:0:0:
448,192,92465,5,0,0:0:0:0:
64,192,92619,1,0,0:0:0:0:
320,192,92772,1,0,0:0:0:0:
192,192,92926,1,0,0:0:0:0:
64,192,92926,1,0,0:0:0:0:
448,192,93080,1,0,0:0:0:0:
192,192,93234,1,0,0:0:0:0:
448,192,93388,1,0,0:0:0:0:
192,192,93542,5,0,0:0:0:0:
64,192,93542,128,0,94157:0:0:0:0:
320,192,93849,1,0,0:0:0:0:
192,192,94157,1,0,0:0:0:0:
448,192,94157,128,0,94772:0:0:0:0:
64,192,94465,1,0,0:0:0:0:
64,192,94772,128,0,95465:0:0:0:0:
320,192,94772,1,0,0:0:0:0:
448,192,95696,1,0,0:0:0:0:
320,192,95696,128,0,96003:0:0:0:0:
64,192,96003,1,0,0:0:0:0:
192,192,96003,1,0,0:0:0:0:
320,192,96157,1,0,0:0:0:0:
64,192,96311,1,0,0:0:0:0:
448,192,96311,1,0,0:0:0:0:
320,192,96465,1,0,0:0:0:0:
320,192,96772,1,0,0:0:0:0:
448,192,96926,1,0,0:0:0:0:
192,192,96926,1,0,0:0:0:0:
64,192,97080,1,0,0:0:0:0:
320,192,97234,1,0,0:0:0:0:
448,192,97234,1,0,0:0:0:0:
64,192,97388,1,0,0:0:0:0:
448,192,97542,1,0,0:0:0:0:
192,192,97542,1,0,0:0:0:0:
320,192,97696,1,0,0:0:0:0:
448,192,98003,1,0,0:0:0:0:
64,192,98157,1,0,0:0:0:0:
192,192,98157,1,0,0:0:0:0:
320,192,98311,1,0,0:0:0:0:
64,192,98465,1,0,0:0:0:0:
448,192,98619,128,0,98772:0:0:0:0:
320,192,98772,128,0,98926:0:0:0:0:
192,192,98926,128,0,99080:0:0:0:0:
64,192,99080,128,0,99234:0:0:0:0:
448,192,99234,1,0,0:0:0:0:
320,192,99388,1,0,0:0:0:0:
64,192,99388,1,0,0:0:0:0:
192,192,99542,1,0,0:0:0:0:
448,192,99696,1,0,0:0:0:0:
64,192,99849,128,0,100003:0:0:0:0:
192,192,100003,128,0,100157:0:0:0:0:
320,192,100157,128,0,100311:0:0:0:0:
448,192,100311,128,0,100465:0:0:0:0:
192,192,100465,1,0,0:0:0:0:
320,192,100619,1,0,0:0:0:0:
448,192,100619,1,0,0:0:0:0:
64,192,100772,1,0,0:0:0:0:
192,192,100926,1,0,0:0:0:0:
448,192,100926,1,0,0:0:0:0:
64,192,101080,1,0,0:0:0:0:
192,192,101234,1,0,0:0:0:0:
320,192,101234,1,0,0:0:0:0:
448,192,101388,1,0,0:0:0:0:
320,192,101696,1,0,0:0:0:0:
64,192,101849,1,0,0:0:0:0:
448,192,101849,1,0,0:0:0:0:
192,192,102003,1,0,0:0:0:0:
320,192,102157,1,0,0:0:0:0:
448,192,102157,1,0,0:0:0:0:
64,192,102311,1,0,0:0:0:0:
192,192,102465,1,0,0:0:0:0:
448,192,102465,1,0,0:0:0:0:
320,192,102619,1,0,0:0:0:0:
448,192,102926,1,0,0:0:0:0:
320,192,103080,1,0,0:0:0:0:
64,192,103080,1,0,0:0:0:0:
192,192,103234,1,0,0:0:0:0:
448,192,103388,1,0,0:0:0:0:
192,192,103542,128,0,103696:0:0:0:0:
64,192,103696,128,0,103849:0:0:0:0:
320,192,103849,128,0,104003:0:0:0:0:
448,192,104003,128,0,104157:0:0:0:0:
64,192,104157,1,0,0:0:0:0:
192,192,104311,1,0,0:0:0:0:
448,192,104311,1,0,0:0:0:0:
448,192,104465,1,0,0:0:0:0:
192,192,104619,1,0,0:0:0:0:
448,192,104772,128,0,104926:0:0:0:0:
320,192,104926,128,0,105080:0:0:0:0:
64,192,105080,128,0,105234:0:0:0:0:
192,192,105234,128,0,105388:0:0:0:0:
448,192,105388,1,0,0:0:0:0:
320,192,105542,1,0,0:0:0:0:
64,192,105542,1,0,0:0:0:0:
192,192,105696,1,0,0:0:0:0:
448,192,105849,1,0,0:0:0:0:
192,192,106003,1,0,0:0:0:0:
448,192,106157,1,0,0:0:0:0:
320,192,106157,1,0,0:0:0:0:
64,192,106311,1,0,0:0:0:0:
192,192,106311,1,0,0:0:0:0:
320,192,106619,1,0,0:0:0:0:
448,192,106619,1,0,0:0:0:0:
64,192,106926,1,0,0:0:0:0:
192,192,106926,1,0,0:0:0:0:
320,192,107080,1,0,0:0:0:0:
64,192,107234,1,0,0:0:0:0:
448,192,107388,1,0,0:0:0:0:
320,192,107388,1,0,0:0:0:0:
192,192,107542,128,0,107696:0:0:0:0:
64,192,107696,1,0,0:0:0:0:
320,192,107849,1,0,0:0:0:0:
192,192,108003,1,0,0:0:0:0:
64,192,108003,1,0,0:0:0:0:
320,192,108157,128,0,108311:0:0:0:0:
192,192,108311,1,0,0:0:0:0:
448,192,108465,1,0,0:0:0:0:
64,192,108619,1,0,0:0:0:0:
192,192,108619,1,0,0:0:0:0:
448,192,108772,1,0,0:0:0:0:
320,192,108772,1,0,0:0:0:0:
192,192,109080,1,0,0:0:0:0:
64,192,109080,1,0,0:0:0:0:
320,192,109388,1,0,0:0:0:0:
448,192,109388,1,0,0:0:0:0:
64,192,109542,1,0,0:0:0:0:
320,192,109696,1,0,0:0:0:0:
192,192,109849,1,0,0:0:0:0:
64,192,109849,1,0,0:0:0:0:
448,192,110003,128,0,110157:0:0:0:0:
64,192,110157,1,0,0:0:0:0:
192,192,110157,128,0,110311:0:0:0:0:
448,192,110311,1,0,0:0:0:0:
320,192,110465,1,0,0:0:0:0:
192,192,110465,1,0,0:0:0:0:
64,192,110619,128,0,110772:0:0:0:0:
192,192,110772,1,0,0:0:0:0:
448,192,110772,1,0,0:0:0:0:
320,192,110926,1,0,0:0:0:0:
64,192,111080,1,0,0:0:0:0:
448,192,111080,1,0,0:0:0:0:
320,192,111234,1,0,0:0:0:0:
192,192,111388,1,0,0:0:0:0:
448,192,111542,1,0,0:0:0:0:
64,192,111696,1,0,0:0:0:0:
192,192,111696,1,0,0:0:0:0:
320,192,111849,1,0,0:0:0:0:
64,192,112003,1,0,0:0:0:0:
448,192,112003,1,0,0:0:0:0:
320,192,112157,128,0,112388:0:0:0:0:
192,192,112388,128,0,112619:0:0:0:0:
64,192,112619,128,0,112849:0:0:0:0:
320,192,112849,128,0,113080:0:0:0:0:
448,192,113080,128,0,113234:0:0:0:0:
64,192,113234,1,0,0:0:0:0:
320,192,113234,1,0,0:0:0:0:
192,192,113388,1,0,0:0:0:0:
320,192,113542,1,0,0:0:0:0:
448,192,113542,1,0,0:0:0:0:
64,192,113696,1,0,0:0:0:0:
192,192,113849,1,0,0:0:0:0:
448,192,113849,1,0,0:0:0:0:
320,192,114003,1,0,0:0:0:0:
192,192,114157,1,0,0:0:0:0:
64,192,114157,1,0,0:0:0:0:
448,192,114311,1,0,0:0:0:0:
320,192,114465,1,0,0:0:0:0:
64,192,114465,128,0,114772:0:0:0:0:
448,192,114772,128,0,115080:0:0:0:0:
192,192,114772,1,0,0:0:0:0:
192,192,115080,128,0,115388:0:0:0:0:
64,192,115080,1,0,0:0:0:0:
320,192,115388,1,0,0:0:0:0:
448,192,115388,1,0,0:0:0:0:
64,192,115696,1,0,0:0:0:0:
192,192,115696,128,0,115926:0:0:0:0:
448,192,115926,1,0,0:0:0:0:
320,192,115926,1,0,0:0:0:0:
448,192,116157,1,0,0:0:0:0:
320,192,116157,128,0,116388:0:0:0:0:
192,192,116388,1,0,0:0:0:0:
64,192,116388,1,0,0:0:0:0:
320,192,116619,1,0,0:0:0:0:
448,192,116619,128,0,116849:0:0:0:0:
192,192,116849,1,0,0:0:0:0:
64,192,116849,1,0,0:0:0:0:
192,192,117080,1,0,0:0:0:0:
64,192,117080,128,0,117311:0:0:0:0:
320,192,117311,1,0,0:0:0:0:
448,192,117311,1,0,0:0:0:0:
448,192,117542,1,0,0:0:0:0:
192,192,117542,1,0,0:0:0:0:
320,192,117696,1,0,0:0:0:0:
64,192,117849,1,0,0:0:0:0:
192,192,117849,1,0,0:0:0:0:
448,192,118003,1,0,0:0:0:0:
64,192,118157,128,0,118388:0:0:0:0:
320,192,118157,1,0,0:0:0:0:
448,192,118388,1,0,0:0:0:0:
192,192,118388,1,0,0:0:0:0:
448,192,118619,128,0,118849:0:0:0:0:
192,192,118619,1,0,0:0:0:0:
320,192,118849,1,0,0:0:0:0:
64,192,118849,1,0,0:0:0:0:
64,192,119080,1,0,0:0:0:0:
192,192,119080,128,0,119311:0:0:0:0:
448,192,119311,1,0,0:0:0:0:
320,192,119311,1,0,0:0:0:0:
448,192,119542,1,0,0:0:0:0:
320,192,119542,128,0,119772:0:0:0:0:
192,192,119772,1,0,0:0:0:0:
64,192,119772,1,0,0:0:0:0:
192,192,120003,1,0,0:0:0:0:
64,192,120080,1,0,0:0:0:0:
320,192,120157,1,0,0:0:0:0:
448,192,120234,1,0,0:0:0:0:
192,192,120311,1,0,0:0:0:0:
64,192,120311,1,0,0:0:0:0:
64,192,120619,128,0,120849:0:0:0:0:
320,192,120619,1,0,0:0:0:0:
448,192,120849,1,0,0:0:0:0:
192,192,120849,1,0,0:0:0:0:
448,192,121080,128,0,121311:0:0:0:0:
192,192,121080,1,0,0:0:0:0:
64,192,121311,1,0,0:0:0:0:
320,192,121311,1,0,0:0:0:0:
448,192,121542,1,0,0:0:0:0:
192,192,121542,128,0,121772:0:0:0:0:
64,192,121772,1,0,0:0:0:0:
320,192,121772,1,0,0:0:0:0:
64,192,122003,1,0,0:0:0:0:
320,192,122003,128,0,122234:0:0:0:0:
448,192,122234,1,0,0:0:0:0:
192,192,122234,1,0,0:0:0:0:
448,192,122465,1,0,0:0:0:0:
64,192,122465,1,0,0:0:0:0:
320,192,122619,1,0,0:0:0:0:
64,192,122772,1,0,0:0:0:0:
448,192,122772,1,0,0:0:0:0:
192,192,122926,1,0,0:0:0:0:
320,192,123080,1,0,0:0:0:0:
448,192,123080,1,0,0:0:0:0:
64,192,123311,1,0,0:0:0:0:
192,192,123311,1,0,0:0:0:0:
448,192,123542,1,0,0:0:0:0:
320,192,123696,1,0,0:0:0:0:
64,192,123696,1,0,0:0:0:0:
192,192,123926,1,0,0:0:0:0:
448,192,123926,1,0,0:0:0:0:
320,192,124157,1,0,0:0:0:0:
64,192,124311,1,0,0:0:0:0:
192,192,124388,1,0,0:0:0:0:
320,192,124465,1,0,0:0:0:0:
448,192,124619,1,0,0:0:0:0:
320,192,124696,1,0,0:0:0:0:
192,192,124772,1,0,0:0:0:0:
64,192,124926,1,0,0:0:0:0:
448,192,124926,1,0,0:0:0:0:
320,192,125080,1,0,0:0:0:0:
192,192,125234,1,0,0:0:0:0:
64,192,125311,1,0,0:0:0:0:
448,192,125388,1,0,0:0:0:0:
320,192,125465,1,0,0:0:0:0:
