osu file format v14

[General]
AudioFilename: audio.mp3
AudioLeadIn: 0
PreviewTime: 95694
Countdown: 0
SampleSet: Soft
StackLeniency: 0.7
Mode: 3
LetterboxInBreaks: 0
SpecialStyle: 0
WidescreenStoryboard: 1

[Editor]
DistanceSpacing: 0.8
BeatDivisor: 4
GridSize: 32
TimelineZoom: 1.5

[Metadata]
Title:Nostalgic Lost Logic
TitleUnicode:ノスタルジック・ロストロジック
Artist:Tonari no Niwa wa Aoi (NIWASHI + Aoi)
ArtistUnicode:隣の庭は青い (庭師 + Aoi)
Creator:Maiiy
Version:Insane
Source:
Tags:mg mappers' guild featured artist fa drum n bass アートコアのお庭 Garden of Artcore Artcore no Oniwa Hybrid hb dnb d&b instrumental electronic gozena
BeatmapID:4403283
BeatmapSetID:2095978

[Difficulty]
HPDrainRate:7.8
CircleSize:4
OverallDifficulty:7.8
ApproachRate:5
SliderMultiplier:1.4
SliderTickRate:1

[Events]
//Background and Video events
0,0,"BG.jpg",0,0
//Break Periods
//Storyboard Layer 0 (Background)
//Storyboard Layer 1 (Fail)
//Storyboard Layer 2 (Pass)
//Storyboard Layer 3 (Foreground)
//Storyboard Layer 4 (Overlay)
//Storyboard Sound Samples

[TimingPoints]
3696,307.692307692308,4,2,1,50,1,0
27080,-100,4,2,1,50,0,1
46772,-100,4,2,1,50,0,0
96003,-100,4,2,1,50,0,1
105849,-100,4,2,1,50,0,0

[HitObjects]
448,192,3695,5,0,0:0:0:0:
320,192,3695,128,0,4003:0:0:0:0:
64,192,4003,128,0,4311:0:0:0:0:
192,192,4311,128,0,4619:0:0:0:0:
320,192,4311,1,0,0:0:0:0:
448,192,4619,128,0,4926:0:0:0:0:
192,192,4926,128,0,5849:0:0:0:0:
64,192,4926,1,0,0:0:0:0:
448,192,5426,128,0,5849:0:0:0:0:
320,192,5849,128,0,6157:0:0:0:0:
64,192,6157,128,0,7080:0:0:0:0:
320,192,6657,128,0,7080:0:0:0:0:
448,192,7080,128,0,7388:0:0:0:0:
64,192,7388,1,0,0:0:0:0:
192,192,7388,128,0,8311:0:0:0:0:
448,192,7888,128,0,8311:0:0:0:0:
64,192,8311,128,0,8619:0:0:0:0:
320,192,8619,128,0,9080:0:0:0:0:
64,192,9119,128,0,9542:0:0:0:0:
192,192,9542,128,0,9849:0:0:0:0:
448,192,9696,1,0,0:0:0:0:
320,192,9696,1,0,0:0:0:0:
448,192,9849,128,0,10465:0:0:0:0:
64,192,9849,128,0,9926:0:0:0:0:
192,192,10003,128,0,10080:0:0:0:0:
320,192,10157,128,0,10234:0:0:0:0:
64,192,10311,128,0,10388:0:0:0:0:
320,192,10465,128,0,10542:0:0:0:0:
192,192,10619,128,0,10696:0:0:0:0:
448,192,10772,128,0,10849:0:0:0:0:
64,192,10926,128,0,11003:0:0:0:0:
448,192,11080,128,0,11157:0:0:0:0:
192,192,11234,128,0,11311:0:0:0:0:
64,192,11388,128,0,11465:0:0:0:0:
320,192,11542,128,0,11849:0:0:0:0:
64,192,12311,1,0,0:0:0:0:
192,192,12311,1,0,0:0:0:0:
448,192,12311,1,0,0:0:0:0:
320,192,12465,1,0,0:0:0:0:
64,192,12619,1,0,0:0:0:0:
192,192,12772,1,0,0:0:0:0:
448,192,12772,1,0,0:0:0:0:
320,192,12926,1,0,0:0:0:0:
64,192,13080,1,0,0:0:0:0:
448,192,13234,1,0,0:0:0:0:
320,192,13311,1,0,0:0:0:0:
64,192,13388,1,0,0:0:0:0:
192,192,13465,1,0,0:0:0:0:
320,192,13542,1,0,0:0:0:0:
448,192,13542,1,0,0:0:0:0:
64,192,13696,1,0,0:0:0:0:
192,192,13772,1,0,0:0:0:0:
448,192,13772,1,0,0:0:0:0:
320,192,13926,1,0,0:0:0:0:
64,192,14003,1,0,0:0:0:0:
192,192,14003,1,0,0:0:0:0:
320,192,14157,1,0,0:0:0:0:
448,192,14157,1,0,0:0:0:0:
64,192,14234,1,0,0:0:0:0:
192,192,14311,1,0,0:0:0:0:
64,192,14465,1,0,0:0:0:0:
448,192,14465,1,0,0:0:0:0:
320,192,14619,1,0,0:0:0:0:
448,192,14696,1,0,0:0:0:0:
192,192,14772,1,0,0:0:0:0:
64,192,14772,1,0,0:0:0:0:
64,192,15080,128,0,15388:0:0:0:0:
192,192,15080,1,0,0:0:0:0:
448,192,15234,1,0,0:0:0:0:
320,192,15388,1,0,0:0:0:0:
192,192,15388,1,0,0:0:0:0:
320,192,15696,1,0,0:0:0:0:
448,192,15696,1,0,0:0:0:0:
192,192,16003,1,0,0:0:0:0:
64,192,16003,1,0,0:0:0:0:
320,192,16311,128,0,16619:0:0:0:0:
448,192,16311,1,0,0:0:0:0:
64,192,16465,1,0,0:0:0:0:
192,192,16619,1,0,0:0:0:0:
448,192,16619,1,0,0:0:0:0:
64,192,16926,1,0,0:0:0:0:
320,192,16926,1,0,0:0:0:0:
320,192,17234,1,0,0:0:0:0:
448,192,17234,1,0,0:0:0:0:
320,192,17542,1,0,0:0:0:0:
192,192,17542,128,0,17849:0:0:0:0:
64,192,17696,1,0,0:0:0:0:
448,192,17849,1,0,0:0:0:0:
320,192,17849,1,0,0:0:0:0:
64,192,18157,1,0,0:0:0:0:
448,192,18157,1,0,0:0:0:0:
192,192,18465,1,0,0:0:0:0:
320,192,18465,1,0,0:0:0:0:
448,192,18772,128,0,19080:0:0:0:0:
192,192,18772,1,0,0:0:0:0:
320,192,18926,1,0,0:0:0:0:
192,192,19080,1,0,0:0:0:0:
64,192,19080,1,0,0:0:0:0:
448,192,19388,1,0,0:0:0:0:
192,192,19388,1,0,0:0:0:0:
320,192,19542,1,0,0:0:0:0:
192,192,19619,1,0,0:0:0:0:
64,192,19696,1,0,0:0:0:0:
448,192,19696,1,0,0:0:0:0:
320,192,19849,1,0,0:0:0:0:
64,192,20003,1,0,0:0:0:0:
192,192,20003,1,0,0:0:0:0:
320,192,20157,1,0,0:0:0:0:
192,192,20311,1,0,0:0:0:0:
64,192,20311,1,0,0:0:0:0:
448,192,20311,1,0,0:0:0:0:
320,192,20465,1,0,0:0:0:0:
448,192,20619,1,0,0:0:0:0:
192,192,20619,1,0,0:0:0:0:
64,192,20772,1,0,0:0:0:0:
320,192,20926,1,0,0:0:0:0:
448,192,20926,1,0,0:0:0:0:
192,192,21080,1,0,0:0:0:0:
64,192,21234,1,0,0:0:0:0:
448,192,21234,1,0,0:0:0:0:
320,192,21388,1,0,0:0:0:0:
192,192,21542,1,0,0:0:0:0:
64,192,21542,1,0,0:0:0:0:
448,192,21542,1,0,0:0:0:0:
320,192,21696,1,0,0:0:0:0:
64,192,21849,1,0,0:0:0:0:
192,192,21849,1,0,0:0:0:0:
320,192,22003,1,0,0:0:0:0:
64,192,22157,1,0,0:0:0:0:
448,192,22157,1,0,0:0:0:0:
64,192,22311,1,0,0:0:0:0:
192,192,22311,1,0,0:0:0:0:
320,192,22465,1,0,0:0:0:0:
448,192,22465,1,0,0:0:0:0:
320,192,22619,1,0,0:0:0:0:
192,192,22619,1,0,0:0:0:0:
64,192,22772,1,0,0:0:0:0:
192,192,22772,1,0,0:0:0:0:
320,192,22926,1,0,0:0:0:0:
448,192,22926,1,0,0:0:0:0:
64,192,23080,1,0,0:0:0:0:
192,192,23080,1,0,0:0:0:0:
320,192,23234,1,0,0:0:0:0:
448,192,23234,1,0,0:0:0:0:
64,192,23388,1,0,0:0:0:0:
448,192,23388,1,0,0:0:0:0:
64,192,23542,1,0,0:0:0:0:
192,192,23542,1,0,0:0:0:0:
448,192,23696,1,0,0:0:0:0:
320,192,23696,1,0,0:0:0:0:
64,192,23849,1,0,0:0:0:0:
192,192,23849,1,0,0:0:0:0:
320,192,24003,1,0,0:0:0:0:
192,192,24003,1,0,0:0:0:0:
320,192,24157,1,0,0:0:0:0:
448,192,24157,1,0,0:0:0:0:
192,192,24311,1,0,0:0:0:0:
64,192,24311,1,0,0:0:0:0:
320,192,24465,1,0,0:0:0:0:
448,192,24465,1,0,0:0:0:0:
64,192,24619,1,0,0:0:0:0:
448,192,24619,1,0,0:0:0:0:
320,192,24696,1,0,0:0:0:0:
192,192,24772,1,0,0:0:0:0:
320,192,24849,1,0,0:0:0:0:
448,192,24926,1,0,0:0:0:0:
64,192,24926,1,0,0:0:0:0:
192,192,25003,1,0,0:0:0:0:
320,192,25080,1,0,0:0:0:0:
192,192,25157,1,0,0:0:0:0:
64,192,25234,1,0,0:0:0:0:
448,192,25234,1,0,0:0:0:0:
320,192,25311,1,0,0:0:0:0:
192,192,25388,1,0,0:0:0:0:
320,192,25465,1,0,0:0:0:0:
448,192,25542,1,0,0:0:0:0:
64,192,25542,1,0,0:0:0:0:
192,192,25619,1,0,0:0:0:0:
320,192,25696,1,0,0:0:0:0:
192,192,25772,1,0,0:0:0:0:
64,192,25849,1,0,0:0:0:0:
448,192,25849,1,0,0:0:0:0:
320,192,26003,1,0,0:0:0:0:
64,192,26157,1,0,0:0:0:0:
448,192,26157,1,0,0:0:0:0:
192,192,26311,1,0,0:0:0:0:
320,192,26388,1,0,0:0:0:0:
64,192,26465,1,0,0:0:0:0:
192,192,26542,1,0,0:0:0:0:
448,192,26619,1,0,0:0:0:0:
192,192,26772,128,0,27080:0:0:0:0:
64,192,26772,128,0,26926:0:0:0:0:
448,192,27080,1,0,0:0:0:0:
320,192,27080,1,0,0:0:0:0:
64,192,27080,1,0,0:0:0:0:
320,192,27234,1,0,0:0:0:0:
192,192,27388,1,0,0:0:0:0:
448,192,27388,1,0,0:0:0:0:
64,192,27388,1,0,0:0:0:0:
320,192,27542,1,0,0:0:0:0:
192,192,27619,1,0,0:0:0:0:
448,192,27696,1,0,0:0:0:0:
320,192,27772,1,0,0:0:0:0:
192,192,27849,128,0,28003:0:0:0:0:
448,192,28003,1,0,0:0:0:0:
64,192,28003,1,0,0:0:0:0:
320,192,28003,1,0,0:0:0:0:
64,192,28157,1,0,0:0:0:0:
448,192,28311,1,0,0:0:0:0:
320,192,28311,1,0,0:0:0:0:
192,192,28465,1,0,0:0:0:0:
64,192,28619,1,0,0:0:0:0:
448,192,28619,1,0,0:0:0:0:
320,192,28619,1,0,0:0:0:0:
192,192,28772,1,0,0:0:0:0:
320,192,28849,1,0,0:0:0:0:
448,192,28926,1,0,0:0:0:0:
64,192,29003,1,0,0:0:0:0:
448,192,29080,128,0,29234:0:0:0:0:
192,192,29080,1,0,0:0:0:0:
64,192,29234,1,0,0:0:0:0:
320,192,29234,1,0,0:0:0:0:
192,192,29234,128,0,29388:0:0:0:0:
320,192,29388,1,0,0:0:0:0:
448,192,29388,128,0,29542:0:0:0:0:
64,192,29542,1,0,0:0:0:0:
192,192,29542,1,0,0:0:0:0:
448,192,29696,128,0,29772:0:0:0:0:
320,192,29696,128,0,29772:0:0:0:0:
320,192,29849,128,0,29926:0:0:0:0:
64,192,29849,128,0,29926:0:0:0:0:
64,192,30003,128,0,30080:0:0:0:0:
192,192,30003,128,0,30080:0:0:0:0:
192,192,30157,128,0,30234:0:0:0:0:
448,192,30157,128,0,30234:0:0:0:0:
320,192,30311,1,0,0:0:0:0:
448,192,30311,1,0,0:0:0:0:
192,192,30465,1,0,0:0:0:0:
64,192,30465,1,0,0:0:0:0:
448,192,30465,1,0,0:0:0:0:
192,192,30619,1,0,0:0:0:0:
320,192,30619,1,0,0:0:0:0:
448,192,30772,1,0,0:0:0:0:
64,192,30772,1,0,0:0:0:0:
192,192,30926,128,0,31003:0:0:0:0:
320,192,30926,128,0,31003:0:0:0:0:
64,192,31080,128,0,31157:0:0:0:0:
320,192,31080,128,0,31157:0:0:0:0:
192,192,31234,128,0,31311:0:0:0:0:
448,192,31234,128,0,31311:0:0:0:0:
64,192,31388,128,0,31465:0:0:0:0:
192,192,31388,128,0,31465:0:0:0:0:
320,192,31542,1,0,0:0:0:0:
448,192,31542,1,0,0:0:0:0:
64,192,31696,1,0,0:0:0:0:
448,192,31696,1,0,0:0:0:0:
320,192,31696,1,0,0:0:0:0:
192,192,31849,1,0,0:0:0:0:
64,192,31849,1,0,0:0:0:0:
320,192,32003,1,0,0:0:0:0:
448,192,32003,1,0,0:0:0:0:
64,192,32157,1,0,0:0:0:0:
320,192,32311,1,0,0:0:0:0:
448,192,32311,1,0,0:0:0:0:
192,192,32311,1,0,0:0:0:0:
64,192,32465,1,0,0:0:0:0:
192,192,32542,1,0,0:0:0:0:
448,192,32619,1,0,0:0:0:0:
320,192,32696,1,0,0:0:0:0:
192,192,32772,128,0,32926:0:0:0:0:
64,192,32926,1,0,0:0:0:0:
320,192,32926,1,0,0:0:0:0:
448,192,32926,1,0,0:0:0:0:
192,192,33080,1,0,0:0:0:0:
448,192,33234,1,0,0:0:0:0:
320,192,33234,1,0,0:0:0:0:
192,192,33388,1,0,0:0:0:0:
448,192,33542,1,0,0:0:0:0:
64,192,33542,1,0,0:0:0:0:
320,192,33542,1,0,0:0:0:0:
192,192,33696,1,0,0:0:0:0:
320,192,33772,1,0,0:0:0:0:
64,192,33849,1,0,0:0:0:0:
192,192,33926,1,0,0:0:0:0:
320,192,34003,128,0,34157:0:0:0:0:
448,192,34003,1,0,0:0:0:0:
64,192,34157,128,0,34311:0:0:0:0:
192,192,34157,1,0,0:0:0:0:
448,192,34157,1,0,0:0:0:0:
320,192,34311,128,0,34465:0:0:0:0:
192,192,34311,1,0,0:0:0:0:
64,192,34465,1,0,0:0:0:0:
448,192,34465,1,0,0:0:0:0:
64,192,34619,128,0,34696:0:0:0:0:
192,192,34619,128,0,34696:0:0:0:0:
192,192,34772,128,0,34849:0:0:0:0:
448,192,34772,128,0,34849:0:0:0:0:
320,192,34926,128,0,35003:0:0:0:0:
448,192,34926,128,0,35003:0:0:0:0:
320,192,35080,128,0,35157:0:0:0:0:
64,192,35080,128,0,35157:0:0:0:0:
64,192,35234,1,0,0:0:0:0:
192,192,35234,1,0,0:0:0:0:
64,192,35388,1,0,0:0:0:0:
320,192,35388,1,0,0:0:0:0:
448,192,35388,1,0,0:0:0:0:
320,192,35542,128,0,35619:0:0:0:0:
448,192,35542,128,0,35619:0:0:0:0:
64,192,35696,1,0,0:0:0:0:
192,192,35696,1,0,0:0:0:0:
320,192,35849,128,0,35926:0:0:0:0:
448,192,35849,128,0,35926:0:0:0:0:
192,192,36003,128,0,36080:0:0:0:0:
448,192,36003,128,0,36080:0:0:0:0:
64,192,36157,128,0,36234:0:0:0:0:
320,192,36157,128,0,36234:0:0:0:0:
192,192,36311,128,0,36388:0:0:0:0:
64,192,36311,128,0,36388:0:0:0:0:
320,192,36465,1,0,0:0:0:0:
448,192,36465,1,0,0:0:0:0:
64,192,36619,1,0,0:0:0:0:
192,192,36619,1,0,0:0:0:0:
448,192,36619,1,0,0:0:0:0:
320,192,36926,1,0,0:0:0:0:
448,192,36926,1,0,0:0:0:0:
192,192,37080,1,0,0:0:0:0:
448,192,37234,1,0,0:0:0:0:
64,192,37234,1,0,0:0:0:0:
320,192,37234,1,0,0:0:0:0:
192,192,37388,1,0,0:0:0:0:
64,192,37465,1,0,0:0:0:0:
448,192,37542,1,0,0:0:0:0:
320,192,37619,1,0,0:0:0:0:
192,192,37696,128,0,37849:0:0:0:0:
64,192,37849,1,0,0:0:0:0:
448,192,37849,1,0,0:0:0:0:
320,192,37849,1,0,0:0:0:0:
320,192,38003,1,0,0:0:0:0:
64,192,38157,1,0,0:0:0:0:
192,192,38157,1,0,0:0:0:0:
448,192,38311,1,0,0:0:0:0:
64,192,38465,1,0,0:0:0:0:
320,192,38465,1,0,0:0:0:0:
448,192,38465,1,0,0:0:0:0:
192,192,38619,1,0,0:0:0:0:
64,192,38696,1,0,0:0:0:0:
448,192,38772,1,0,0:0:0:0:
320,192,38849,1,0,0:0:0:0:
448,192,38926,128,0,39080:0:0:0:0:
64,192,38926,1,0,0:0:0:0:
64,192,39080,128,0,39234:0:0:0:0:
320,192,39080,1,0,0:0:0:0:
192,192,39080,1,0,0:0:0:0:
192,192,39234,128,0,39388:0:0:0:0:
448,192,39234,1,0,0:0:0:0:
320,192,39388,1,0,0:0:0:0:
64,192,39388,1,0,0:0:0:0:
192,192,39542,128,0,39619:0:0:0:0:
448,192,39542,128,0,39619:0:0:0:0:
64,192,39696,128,0,39772:0:0:0:0:
192,192,39696,128,0,39772:0:0:0:0:
320,192,39849,128,0,39926:0:0:0:0:
448,192,39849,128,0,39926:0:0:0:0:
64,192,40003,128,0,40080:0:0:0:0:
320,192,40003,128,0,40080:0:0:0:0:
448,192,40157,1,0,0:0:0:0:
192,192,40157,1,0,0:0:0:0:
64,192,40311,1,0,0:0:0:0:
320,192,40311,1,0,0:0:0:0:
448,192,40311,1,0,0:0:0:0:
192,192,40465,1,0,0:0:0:0:
320,192,40465,1,0,0:0:0:0:
64,192,40619,1,0,0:0:0:0:
192,192,40619,1,0,0:0:0:0:
64,192,40772,128,0,40849:0:0:0:0:
320,192,40772,128,0,40849:0:0:0:0:
320,192,40926,128,0,41003:0:0:0:0:
448,192,40926,128,0,41003:0:0:0:0:
64,192,41080,128,0,41157:0:0:0:0:
192,192,41080,128,0,41157:0:0:0:0:
64,192,41234,128,0,41311:0:0:0:0:
320,192,41234,128,0,41311:0:0:0:0:
192,192,41388,1,0,0:0:0:0:
448,192,41388,1,0,0:0:0:0:
448,192,41542,1,0,0:0:0:0:
320,192,41542,1,0,0:0:0:0:
64,192,41542,1,0,0:0:0:0:
64,192,41696,128,0,42003:0:0:0:0:
448,192,41849,1,0,0:0:0:0:
192,192,41849,1,0,0:0:0:0:
320,192,42003,128,0,42157:0:0:0:0:
64,192,42157,1,0,0:0:0:0:
192,192,42157,1,0,0:0:0:0:
448,192,42157,128,0,42311:0:0:0:0:
64,192,42311,128,0,42465:0:0:0:0:
192,192,42388,1,0,0:0:0:0:
448,192,42465,128,0,42619:0:0:0:0:
320,192,42542,1,0,0:0:0:0:
192,192,42619,128,0,42772:0:0:0:0:
448,192,42772,1,0,0:0:0:0:
320,192,42772,1,0,0:0:0:0:
64,192,42772,128,0,42926:0:0:0:0:
320,192,42926,1,0,0:0:0:0:
64,192,43080,1,0,0:0:0:0:
192,192,43080,1,0,0:0:0:0:
320,192,43234,1,0,0:0:0:0:
64,192,43388,1,0,0:0:0:0:
448,192,43388,1,0,0:0:0:0:
192,192,43388,1,0,0:0:0:0:
448,192,43542,1,0,0:0:0:0:
320,192,43619,1,0,0:0:0:0:
64,192,43696,1,0,0:0:0:0:
192,192,43772,1,0,0:0:0:0:
320,192,43849,1,0,0:0:0:0:
64,192,44003,1,0,0:0:0:0:
448,192,44003,1,0,0:0:0:0:
192,192,44003,1,0,0:0:0:0:
320,192,44157,1,0,0:0:0:0:
192,192,44311,128,0,44619:0:0:0:0:
64,192,44311,1,0,0:0:0:0:
448,192,44465,1,0,0:0:0:0:
64,192,44619,1,0,0:0:0:0:
448,192,44619,1,0,0:0:0:0:
320,192,44619,1,0,0:0:0:0:
320,192,44772,128,0,45080:0:0:0:0:
192,192,44849,1,0,0:0:0:0:
64,192,44926,1,0,0:0:0:0:
448,192,45003,1,0,0:0:0:0:
192,192,45080,1,0,0:0:0:0:
320,192,45234,1,0,0:0:0:0:
448,192,45234,1,0,0:0:0:0:
64,192,45234,1,0,0:0:0:0:
320,192,45388,1,0,0:0:0:0:
192,192,45388,1,0,0:0:0:0:
64,192,45542,1,0,0:0:0:0:
448,192,45542,1,0,0:0:0:0:
192,192,45542,1,0,0:0:0:0:
64,192,45696,1,0,0:0:0:0:
192,192,45772,1,0,0:0:0:0:
320,192,45849,1,0,0:0:0:0:
448,192,45849,1,0,0:0:0:0:
64,192,46003,1,0,0:0:0:0:
192,192,46003,1,0,0:0:0:0:
448,192,46080,1,0,0:0:0:0:
192,192,46157,1,0,0:0:0:0:
64,192,46157,1,0,0:0:0:0:
320,192,46234,1,0,0:0:0:0:
448,192,46311,1,0,0:0:0:0:
192,192,46465,128,0,46619:0:0:0:0:
320,192,46465,128,0,46619:0:0:0:0:
320,192,46772,128,0,46926:0:0:0:0:
448,192,46772,128,0,46926:0:0:0:0:
192,192,46849,128,0,46926:0:0:0:0:
64,192,47003,128,0,47157:0:0:0:0:
192,192,47003,128,0,47157:0:0:0:0:
320,192,47080,128,0,47157:0:0:0:0:
448,192,47234,128,0,47388:0:0:0:0:
64,192,47234,128,0,47388:0:0:0:0:
192,192,47311,128,0,47388:0:0:0:0:
64,192,47465,128,0,47619:0:0:0:0:
448,192,47465,128,0,47619:0:0:0:0:
320,192,47542,128,0,47619:0:0:0:0:
192,192,47696,128,0,47849:0:0:0:0:
320,192,47696,128,0,47849:0:0:0:0:
64,192,47772,128,0,47849:0:0:0:0:
192,192,47926,128,0,48080:0:0:0:0:
448,192,47926,128,0,48080:0:0:0:0:
320,192,48003,128,0,48080:0:0:0:0:
64,192,48157,128,0,48311:0:0:0:0:
320,192,48157,128,0,48311:0:0:0:0:
192,192,48234,128,0,48311:0:0:0:0:
192,192,48388,128,0,48542:0:0:0:0:
320,192,48388,128,0,48542:0:0:0:0:
448,192,48465,128,0,48542:0:0:0:0:
64,192,48619,1,0,0:0:0:0:
448,192,48619,1,0,0:0:0:0:
320,192,48696,1,0,0:0:0:0:
192,192,48772,1,0,0:0:0:0:
320,192,48849,1,0,0:0:0:0:
448,192,48926,1,0,0:0:0:0:
64,192,48926,1,0,0:0:0:0:
192,192,49003,1,0,0:0:0:0:
320,192,49080,1,0,0:0:0:0:
192,192,49157,1,0,0:0:0:0:
64,192,49234,128,0,49388:0:0:0:0:
448,192,49234,128,0,49388:0:0:0:0:
320,192,49311,128,0,49388:0:0:0:0:
64,192,49465,128,0,49619:0:0:0:0:
448,192,49465,128,0,49619:0:0:0:0:
192,192,49542,128,0,49619:0:0:0:0:
320,192,49696,128,0,49849:0:0:0:0:
192,192,49696,128,0,49849:0:0:0:0:
448,192,49772,128,0,49849:0:0:0:0:
64,192,49926,128,0,50080:0:0:0:0:
320,192,49926,128,0,50080:0:0:0:0:
192,192,50003,128,0,50080:0:0:0:0:
192,192,50157,128,0,50311:0:0:0:0:
448,192,50157,128,0,50311:0:0:0:0:
320,192,50234,128,0,50311:0:0:0:0:
192,192,50388,128,0,50542:0:0:0:0:
320,192,50388,128,0,50542:0:0:0:0:
64,192,50465,128,0,50542:0:0:0:0:
448,192,50619,128,0,50772:0:0:0:0:
320,192,50619,128,0,50772:0:0:0:0:
192,192,50696,128,0,50772:0:0:0:0:
64,192,50849,128,0,51003:0:0:0:0:
192,192,50849,128,0,51003:0:0:0:0:
320,192,50926,128,0,51003:0:0:0:0:
64,192,51080,1,0,0:0:0:0:
192,192,51080,1,0,0:0:0:0:
320,192,51157,1,0,0:0:0:0:
448,192,51157,1,0,0:0:0:0:
64,192,51234,1,0,0:0:0:0:
192,192,51311,1,0,0:0:0:0:
448,192,51388,1,0,0:0:0:0:
64,192,51388,1,0,0:0:0:0:
320,192,51388,1,0,0:0:0:0:
320,192,51696,128,0,51849:0:0:0:0:
448,192,51696,128,0,51849:0:0:0:0:
64,192,51772,128,0,51849:0:0:0:0:
192,192,51926,128,0,52080:0:0:0:0:
64,192,51926,128,0,52080:0:0:0:0:
448,192,52003,128,0,52080:0:0:0:0:
320,192,52157,128,0,52311:0:0:0:0:
448,192,52157,128,0,52311:0:0:0:0:
192,192,52234,128,0,52311:0:0:0:0:
192,192,52388,128,0,52542:0:0:0:0:
64,192,52388,128,0,52542:0:0:0:0:
320,192,52465,128,0,52542:0:0:0:0:
448,192,52619,128,0,52772:0:0:0:0:
64,192,52619,128,0,52772:0:0:0:0:
320,192,52696,128,0,52772:0:0:0:0:
192,192,52849,128,0,53003:0:0:0:0:
448,192,52849,128,0,53003:0:0:0:0:
320,192,52926,128,0,53003:0:0:0:0:
448,192,53080,128,0,53234:0:0:0:0:
64,192,53080,128,0,53234:0:0:0:0:
192,192,53157,128,0,53234:0:0:0:0:
64,192,53311,128,0,53465:0:0:0:0:
320,192,53311,128,0,53465:0:0:0:0:
192,192,53388,128,0,53465:0:0:0:0:
448,192,53542,128,0,53747:0:0:0:0:
320,192,53644,128,0,53849:0:0:0:0:
192,192,53747,128,0,53952:0:0:0:0:
64,192,53849,128,0,54157:0:0:0:0:
448,192,53849,128,0,53952:0:0:0:0:
320,192,53952,128,0,54054:0:0:0:0:
192,192,54054,128,0,54157:0:0:0:0:
320,192,54157,1,0,0:0:0:0:
448,192,54157,1,0,0:0:0:0:
64,192,54234,1,0,0:0:0:0:
192,192,54234,1,0,0:0:0:0:
320,192,54388,1,0,0:0:0:0:
448,192,54388,1,0,0:0:0:0:
192,192,54465,1,0,0:0:0:0:
64,192,54465,1,0,0:0:0:0:
192,192,54619,1,0,0:0:0:0:
320,192,54619,1,0,0:0:0:0:
64,192,54772,1,0,0:0:0:0:
192,192,54772,1,0,0:0:0:0:
320,192,54849,1,0,0:0:0:0:
448,192,54849,1,0,0:0:0:0:
64,192,55003,1,0,0:0:0:0:
192,192,55003,1,0,0:0:0:0:
320,192,55080,1,0,0:0:0:0:
448,192,55080,1,0,0:0:0:0:
192,192,55234,1,0,0:0:0:0:
320,192,55234,1,0,0:0:0:0:
64,192,55388,1,0,0:0:0:0:
192,192,55388,1,0,0:0:0:0:
320,192,55465,1,0,0:0:0:0:
192,192,55542,1,0,0:0:0:0:
448,192,55542,1,0,0:0:0:0:
64,192,55619,1,0,0:0:0:0:
320,192,55696,1,0,0:0:0:0:
448,192,55696,1,0,0:0:0:0:
192,192,55772,1,0,0:0:0:0:
64,192,55849,1,0,0:0:0:0:
320,192,55849,1,0,0:0:0:0:
448,192,55926,1,0,0:0:0:0:
320,192,56003,1,0,0:0:0:0:
192,192,56003,1,0,0:0:0:0:
64,192,56080,1,0,0:0:0:0:
448,192,56157,1,0,0:0:0:0:
192,192,56234,1,0,0:0:0:0:
448,192,56311,1,0,0:0:0:0:
64,192,56311,1,0,0:0:0:0:
320,192,56388,1,0,0:0:0:0:
192,192,56465,1,0,0:0:0:0:
320,192,56542,1,0,0:0:0:0:
64,192,56619,128,0,56772:0:0:0:0:
192,192,56619,128,0,56926:0:0:0:0:
448,192,56619,1,0,0:0:0:0:
64,192,56926,1,0,0:0:0:0:
448,192,56926,1,0,0:0:0:0:
320,192,56926,1,0,0:0:0:0:
192,192,57003,1,0,0:0:0:0:
448,192,57080,1,0,0:0:0:0:
64,192,57157,1,0,0:0:0:0:
320,192,57234,128,0,57388:0:0:0:0:
64,192,57388,128,0,57542:0:0:0:0:
192,192,57388,1,0,0:0:0:0:
448,192,57542,128,0,57696:0:0:0:0:
320,192,57542,1,0,0:0:0:0:
64,192,57696,128,0,58003:0:0:0:0:
192,192,57696,1,0,0:0:0:0:
320,192,57849,1,0,0:0:0:0:
448,192,57849,1,0,0:0:0:0:
192,192,58003,1,0,0:0:0:0:
64,192,58157,1,0,0:0:0:0:
320,192,58157,1,0,0:0:0:0:
448,192,58157,1,0,0:0:0:0:
192,192,58311,1,0,0:0:0:0:
320,192,58388,1,0,0:0:0:0:
64,192,58465,1,0,0:0:0:0:
192,192,58542,1,0,0:0:0:0:
448,192,58619,128,0,58772:0:0:0:0:
320,192,58619,1,0,0:0:0:0:
192,192,58772,128,0,58926:0:0:0:0:
64,192,58772,1,0,0:0:0:0:
320,192,58772,1,0,0:0:0:0:
64,192,58926,128,0,59080:0:0:0:0:
320,192,59080,128,0,59388:0:0:0:0:
448,192,59234,128,0,59388:0:0:0:0:
192,192,59388,128,0,59542:0:0:0:0:
64,192,59388,1,0,0:0:0:0:
448,192,59542,128,0,59849:0:0:0:0:
320,192,59696,128,0,59849:0:0:0:0:
192,192,59849,1,0,0:0:0:0:
64,192,59849,1,0,0:0:0:0:
64,192,60003,1,0,0:0:0:0:
192,192,60003,128,0,60157:0:0:0:0:
448,192,60003,1,0,0:0:0:0:
448,192,60157,128,0,60311:0:0:0:0:
320,192,60157,1,0,0:0:0:0:
64,192,60311,1,0,0:0:0:0:
192,192,60311,1,0,0:0:0:0:
192,192,60465,128,0,60619:0:0:0:0:
64,192,60619,1,0,0:0:0:0:
320,192,60619,1,0,0:0:0:0:
448,192,60619,1,0,0:0:0:0:
192,192,60772,128,0,60926:0:0:0:0:
320,192,60849,128,0,61003:0:0:0:0:
448,192,60926,128,0,61003:0:0:0:0:
64,192,60926,128,0,61080:0:0:0:0:
192,192,61003,128,0,61080:0:0:0:0:
448,192,61080,128,0,61157:0:0:0:0:
320,192,61157,128,0,61234:0:0:0:0:
448,192,61234,128,0,61311:0:0:0:0:
192,192,61234,128,0,61311:0:0:0:0:
64,192,61234,128,0,61311:0:0:0:0:
320,192,61388,1,0,0:0:0:0:
64,192,61542,128,0,61696:0:0:0:0:
192,192,61542,1,0,0:0:0:0:
320,192,61696,128,0,61849:0:0:0:0:
448,192,61696,1,0,0:0:0:0:
192,192,61849,128,0,62003:0:0:0:0:
64,192,61849,1,0,0:0:0:0:
448,192,62003,128,0,62157:0:0:0:0:
320,192,62003,1,0,0:0:0:0:
64,192,62157,128,0,62388:0:0:0:0:
192,192,62157,1,0,0:0:0:0:
320,192,62311,1,0,0:0:0:0:
192,192,62465,1,0,0:0:0:0:
448,192,62465,1,0,0:0:0:0:
64,192,62465,1,0,0:0:0:0:
448,192,62619,1,0,0:0:0:0:
64,192,62772,1,0,0:0:0:0:
320,192,62772,128,0,62926:0:0:0:0:
192,192,62926,1,0,0:0:0:0:
64,192,62926,128,0,63080:0:0:0:0:
448,192,63080,1,0,0:0:0:0:
320,192,63080,128,0,63234:0:0:0:0:
192,192,63080,1,0,0:0:0:0:
448,192,63234,128,0,63388:0:0:0:0:
64,192,63234,1,0,0:0:0:0:
64,192,63388,128,0,63542:0:0:0:0:
320,192,63388,1,0,0:0:0:0:
192,192,63542,128,0,63696:0:0:0:0:
320,192,63619,128,0,63772:0:0:0:0:
448,192,63696,128,0,63772:0:0:0:0:
64,192,63696,128,0,63849:0:0:0:0:
192,192,63772,128,0,63849:0:0:0:0:
448,192,63849,128,0,64003:0:0:0:0:
320,192,63926,128,0,64003:0:0:0:0:
64,192,64003,128,0,64157:0:0:0:0:
192,192,64003,128,0,64157:0:0:0:0:
448,192,64157,1,0,0:0:0:0:
320,192,64157,128,0,64311:0:0:0:0:
448,192,64311,128,0,64465:0:0:0:0:
64,192,64311,128,0,64465:0:0:0:0:
192,192,64311,1,0,0:0:0:0:
192,192,64465,128,0,64619:0:0:0:0:
448,192,64619,128,0,64772:0:0:0:0:
64,192,64772,128,0,64926:0:0:0:0:
320,192,64772,1,0,0:0:0:0:
192,192,64926,1,0,0:0:0:0:
320,192,64926,128,0,65080:0:0:0:0:
448,192,64926,1,0,0:0:0:0:
64,192,65080,128,0,65234:0:0:0:0:
192,192,65234,1,0,0:0:0:0:
448,192,65234,1,0,0:0:0:0:
320,192,65388,128,0,65542:0:0:0:0:
448,192,65542,128,0,65696:0:0:0:0:
192,192,65542,1,0,0:0:0:0:
64,192,65542,1,0,0:0:0:0:
64,192,65696,128,0,65849:0:0:0:0:
192,192,65696,1,0,0:0:0:0:
320,192,65849,128,0,66003:0:0:0:0:
192,192,66003,128,0,66157:0:0:0:0:
64,192,66003,1,0,0:0:0:0:
64,192,66157,128,0,66311:0:0:0:0:
448,192,66157,1,0,0:0:0:0:
320,192,66157,1,0,0:0:0:0:
448,192,66311,128,0,66465:0:0:0:0:
192,192,66465,128,0,66619:0:0:0:0:
64,192,66465,128,0,66619:0:0:0:0:
320,192,66619,128,0,66696:0:0:0:0:
448,192,66619,128,0,66696:0:0:0:0:
192,192,66696,128,0,66772:0:0:0:0:
64,192,66696,128,0,66772:0:0:0:0:
320,192,66772,128,0,66926:0:0:0:0:
448,192,66772,128,0,67080:0:0:0:0:
64,192,66926,128,0,67080:0:0:0:0:
192,192,66926,128,0,67080:0:0:0:0:
320,192,67234,128,0,67465:0:0:0:0:
448,192,67388,128,0,67696:0:0:0:0:
64,192,67388,128,0,67619:0:0:0:0:
192,192,67388,128,0,67465:0:0:0:0:
192,192,67542,128,0,67619:0:0:0:0:
320,192,67619,128,0,67696:0:0:0:0:
64,192,67696,128,0,67772:0:0:0:0:
192,192,67696,128,0,67849:0:0:0:0:
320,192,67849,128,0,68003:0:0:0:0:
64,192,68003,1,0,0:0:0:0:
192,192,68003,1,0,0:0:0:0:
448,192,68003,128,0,68465:0:0:0:0:
192,192,68157,128,0,68465:0:0:0:0:
64,192,68311,128,0,68465:0:0:0:0:
320,192,68465,1,0,0:0:0:0:
64,192,68619,1,0,0:0:0:0:
192,192,68619,1,0,0:0:0:0:
448,192,68619,1,0,0:0:0:0:
320,192,68772,1,0,0:0:0:0:
448,192,68849,1,0,0:0:0:0:
64,192,68926,1,0,0:0:0:0:
192,192,68926,1,0,0:0:0:0:
448,192,69003,1,0,0:0:0:0:
64,192,69080,1,0,0:0:0:0:
192,192,69080,1,0,0:0:0:0:
320,192,69157,1,0,0:0:0:0:
448,192,69157,1,0,0:0:0:0:
64,192,69311,1,0,0:0:0:0:
320,192,69311,1,0,0:0:0:0:
192,192,69388,1,0,0:0:0:0:
448,192,69388,1,0,0:0:0:0:
320,192,69542,1,0,0:0:0:0:
448,192,69542,1,0,0:0:0:0:
64,192,69619,1,0,0:0:0:0:
192,192,69619,1,0,0:0:0:0:
320,192,69696,1,0,0:0:0:0:
448,192,69696,1,0,0:0:0:0:
64,192,69849,1,0,0:0:0:0:
320,192,69849,1,0,0:0:0:0:
192,192,69926,1,0,0:0:0:0:
448,192,70003,1,0,0:0:0:0:
320,192,70080,1,0,0:0:0:0:
192,192,70157,128,0,70311:0:0:0:0:
64,192,70157,1,0,0:0:0:0:
64,192,70311,128,0,70465:0:0:0:0:
320,192,70311,1,0,0:0:0:0:
320,192,70465,128,0,70772:0:0:0:0:
448,192,70465,1,0,0:0:0:0:
192,192,70465,1,0,0:0:0:0:
448,192,70619,128,0,70772:0:0:0:0:
64,192,70619,128,0,70772:0:0:0:0:
320,192,70926,128,0,71234:0:0:0:0:
192,192,70926,128,0,71080:0:0:0:0:
64,192,71080,128,0,71388:0:0:0:0:
448,192,71080,1,0,0:0:0:0:
192,192,71234,128,0,71388:0:0:0:0:
448,192,71388,128,0,71542:0:0:0:0:
320,192,71388,1,0,0:0:0:0:
192,192,71542,128,0,71696:0:0:0:0:
64,192,71542,1,0,0:0:0:0:
320,192,71696,1,0,0:0:0:0:
448,192,71696,128,0,71849:0:0:0:0:
64,192,71849,128,0,72003:0:0:0:0:
192,192,71849,1,0,0:0:0:0:
448,192,72003,1,0,0:0:0:0:
320,192,72003,128,0,72157:0:0:0:0:
64,192,72157,128,0,72311:0:0:0:0:
192,192,72157,1,0,0:0:0:0:
320,192,72311,1,0,0:0:0:0:
448,192,72311,128,0,72465:0:0:0:0:
64,192,72465,128,0,72542:0:0:0:0:
192,192,72465,128,0,72619:0:0:0:0:
320,192,72542,128,0,72619:0:0:0:0:
448,192,72619,1,0,0:0:0:0:
64,192,72619,128,0,72926:0:0:0:0:
192,192,72772,128,0,72926:0:0:0:0:
448,192,72926,128,0,73080:0:0:0:0:
320,192,72926,1,0,0:0:0:0:
64,192,73080,128,0,73234:0:0:0:0:
192,192,73080,1,0,0:0:0:0:
448,192,73234,128,0,73542:0:0:0:0:
320,192,73234,1,0,0:0:0:0:
320,192,73388,128,0,73696:0:0:0:0:
192,192,73542,128,0,73849:0:0:0:0:
64,192,73696,128,0,73849:0:0:0:0:
448,192,73849,128,0,74003:0:0:0:0:
320,192,73849,1,0,0:0:0:0:
64,192,74003,128,0,74157:0:0:0:0:
192,192,74003,1,0,0:0:0:0:
448,192,74157,128,0,74311:0:0:0:0:
320,192,74157,1,0,0:0:0:0:
64,192,74311,1,0,0:0:0:0:
192,192,74311,128,0,74542:0:0:0:0:
320,192,74465,128,0,74542:0:0:0:0:
64,192,74619,1,0,0:0:0:0:
192,192,74619,1,0,0:0:0:0:
64,192,74772,1,0,0:0:0:0:
448,192,74772,1,0,0:0:0:0:
320,192,74772,1,0,0:0:0:0:
192,192,74926,1,0,0:0:0:0:
320,192,75003,1,0,0:0:0:0:
64,192,75080,1,0,0:0:0:0:
192,192,75080,1,0,0:0:0:0:
448,192,75157,1,0,0:0:0:0:
320,192,75234,1,0,0:0:0:0:
64,192,75311,1,0,0:0:0:0:
192,192,75388,1,0,0:0:0:0:
448,192,75388,1,0,0:0:0:0:
320,192,75465,1,0,0:0:0:0:
64,192,75542,1,0,0:0:0:0:
192,192,75619,1,0,0:0:0:0:
320,192,75696,1,0,0:0:0:0:
448,192,75696,1,0,0:0:0:0:
192,192,75772,1,0,0:0:0:0:
64,192,75849,1,0,0:0:0:0:
448,192,75926,1,0,0:0:0:0:
64,192,76003,128,0,76080:0:0:0:0:
320,192,76080,128,0,76157:0:0:0:0:
192,192,76157,128,0,76234:0:0:0:0:
448,192,76234,128,0,76311:0:0:0:0:
64,192,76311,128,0,77542:0:0:0:0:
192,192,76311,128,0,77542:0:0:0:0:
448,192,76926,1,0,0:0:0:0:
320,192,76926,1,0,0:0:0:0:
448,192,77542,128,0,77849:0:0:0:0:
320,192,77542,128,0,78157:0:0:0:0:
192,192,77849,128,0,78772:0:0:0:0:
64,192,78157,128,0,78772:0:0:0:0:
448,192,78772,1,0,0:0:0:0:
320,192,78926,1,0,0:0:0:0:
64,192,79080,1,0,0:0:0:0:
192,192,79080,1,0,0:0:0:0:
320,192,79388,1,0,0:0:0:0:
448,192,79388,1,0,0:0:0:0:
192,192,79388,1,0,0:0:0:0:
64,192,80003,1,0,0:0:0:0:
320,192,80003,1,0,0:0:0:0:
192,192,80311,1,0,0:0:0:0:
448,192,80311,1,0,0:0:0:0:
64,192,80465,1,0,0:0:0:0:
192,192,80542,1,0,0:0:0:0:
64,192,80619,1,0,0:0:0:0:
320,192,80619,1,0,0:0:0:0:
448,192,80619,1,0,0:0:0:0:
192,192,80926,1,0,0:0:0:0:
448,192,81080,1,0,0:0:0:0:
320,192,81157,1,0,0:0:0:0:
64,192,81234,1,0,0:0:0:0:
192,192,81234,1,0,0:0:0:0:
448,192,81234,128,0,81311:0:0:0:0:
320,192,81388,128,0,81465:0:0:0:0:
64,192,81542,128,0,81619:0:0:0:0:
192,192,81696,128,0,81772:0:0:0:0:
448,192,81849,128,0,81926:0:0:0:0:
320,192,82003,128,0,82080:0:0:0:0:
192,192,82157,128,0,82234:0:0:0:0:
64,192,82311,128,0,82388:0:0:0:0:
320,192,82465,128,0,82542:0:0:0:0:
64,192,82619,128,0,82696:0:0:0:0:
192,192,82772,128,0,82849:0:0:0:0:
448,192,82926,128,0,86003:0:0:0:0:
64,192,83696,1,0,0:0:0:0:
192,192,83849,1,0,0:0:0:0:
64,192,84311,1,0,0:0:0:0:
320,192,85234,1,0,0:0:0:0:
64,192,85388,1,0,0:0:0:0:
64,192,85542,1,0,0:0:0:0:
192,192,85542,1,0,0:0:0:0:
320,192,85542,1,0,0:0:0:0:
320,192,85696,128,0,86003:0:0:0:0:
64,192,85811,128,0,86003:0:0:0:0:
192,192,85811,128,0,86003:0:0:0:0:
320,192,86157,1,0,0:0:0:0:
448,192,86157,1,0,0:0:0:0:
64,192,86157,1,0,0:0:0:0:
192,192,86311,1,0,0:0:0:0:
320,192,86465,1,0,0:0:0:0:
448,192,86465,1,0,0:0:0:0:
64,192,86619,1,0,0:0:0:0:
192,192,86772,1,0,0:0:0:0:
448,192,86772,1,0,0:0:0:0:
320,192,86926,1,0,0:0:0:0:
64,192,87080,1,0,0:0:0:0:
192,192,87080,1,0,0:0:0:0:
320,192,87234,1,0,0:0:0:0:
64,192,87388,1,0,0:0:0:0:
448,192,87388,1,0,0:0:0:0:
192,192,87542,1,0,0:0:0:0:
320,192,87696,1,0,0:0:0:0:
448,192,87696,1,0,0:0:0:0:
64,192,87849,1,0,0:0:0:0:
320,192,87926,1,0,0:0:0:0:
192,192,88003,1,0,0:0:0:0:
64,192,88003,1,0,0:0:0:0:
448,192,88157,1,0,0:0:0:0:
320,192,88311,1,0,0:0:0:0:
64,192,88311,1,0,0:0:0:0:
192,192,88465,1,0,0:0:0:0:
320,192,88619,1,0,0:0:0:0:
448,192,88619,1,0,0:0:0:0:
192,192,88772,1,0,0:0:0:0:
64,192,88772,1,0,0:0:0:0:
64,192,88926,1,0,0:0:0:0:
448,192,88926,1,0,0:0:0:0:
320,192,89080,1,0,0:0:0:0:
192,192,89234,1,0,0:0:0:0:
64,192,89234,1,0,0:0:0:0:
320,192,89388,1,0,0:0:0:0:
64,192,89542,1,0,0:0:0:0:
448,192,89542,1,0,0:0:0:0:
320,192,89696,1,0,0:0:0:0:
64,192,89849,1,0,0:0:0:0:
192,192,89849,1,0,0:0:0:0:
448,192,90003,1,0,0:0:0:0:
320,192,90157,1,0,0:0:0:0:
64,192,90157,1,0,0:0:0:0:
192,192,90311,1,0,0:0:0:0:
320,192,90465,1,0,0:0:0:0:
448,192,90465,1,0,0:0:0:0:
64,192,90619,1,0,0:0:0:0:
192,192,90772,1,0,0:0:0:0:
448,192,90772,1,0,0:0:0:0:
320,192,90926,1,0,0:0:0:0:
192,192,91003,1,0,0:0:0:0:
64,192,91080,1,0,0:0:0:0:
448,192,91080,1,0,0:0:0:0:
192,192,91234,1,0,0:0:0:0:
320,192,91234,1,0,0:0:0:0:
192,192,91388,1,0,0:0:0:0:
64,192,91388,1,0,0:0:0:0:
448,192,91542,1,0,0:0:0:0:
320,192,91542,1,0,0:0:0:0:
64,192,91696,1,0,0:0:0:0:
448,192,91696,1,0,0:0:0:0:
320,192,91849,1,0,0:0:0:0:
192,192,91849,1,0,0:0:0:0:
448,192,92003,1,0,0:0:0:0:
320,192,92003,1,0,0:0:0:0:
64,192,92157,1,0,0:0:0:0:
192,192,92157,1,0,0:0:0:0:
64,192,92311,1,0,0:0:0:0:
448,192,92311,1,0,0:0:0:0:
320,192,92465,1,0,0:0:0:0:
448,192,92465,1,0,0:0:0:0:
64,192,92619,1,0,0:0:0:0:
192,192,92619,1,0,0:0:0:0:
192,192,92772,1,0,0:0:0:0:
320,192,92772,1,0,0:0:0:0:
448,192,92926,1,0,0:0:0:0:
64,192,92926,1,0,0:0:0:0:
448,192,93080,1,0,0:0:0:0:
320,192,93080,1,0,0:0:0:0:
64,192,93234,1,0,0:0:0:0:
192,192,93234,1,0,0:0:0:0:
320,192,93388,1,0,0:0:0:0:
448,192,93388,1,0,0:0:0:0:
320,192,93542,1,0,0:0:0:0:
448,192,93542,1,0,0:0:0:0:
64,192,93619,1,0,0:0:0:0:
192,192,93696,1,0,0:0:0:0:
448,192,93772,1,0,0:0:0:0:
320,192,93849,1,0,0:0:0:0:
64,192,93849,1,0,0:0:0:0:
192,192,93926,1,0,0:0:0:0:
448,192,94003,1,0,0:0:0:0:
320,192,94080,1,0,0:0:0:0:
64,192,94157,1,0,0:0:0:0:
192,192,94157,1,0,0:0:0:0:
320,192,94234,1,0,0:0:0:0:
448,192,94311,1,0,0:0:0:0:
64,192,94388,1,0,0:0:0:0:
192,192,94465,1,0,0:0:0:0:
448,192,94465,1,0,0:0:0:0:
320,192,94542,1,0,0:0:0:0:
192,192,94619,1,0,0:0:0:0:
64,192,94696,1,0,0:0:0:0:
192,192,94772,128,0,95465:0:0:0:0:
448,192,94772,128,0,95465:0:0:0:0:
320,192,95580,1,0,0:0:0:0:
64,192,95696,1,0,0:0:0:0:
192,192,95696,1,0,0:0:0:0:
448,192,95696,1,0,0:0:0:0:
320,192,95772,1,0,0:0:0:0:
64,192,95849,1,0,0:0:0:0:
192,192,95926,1,0,0:0:0:0:
320,192,96003,1,0,0:0:0:0:
448,192,96003,1,0,0:0:0:0:
64,192,96157,1,0,0:0:0:0:
192,192,96311,1,0,0:0:0:0:
320,192,96311,1,0,0:0:0:0:
448,192,96311,1,0,0:0:0:0:
192,192,96465,1,0,0:0:0:0:
64,192,96542,1,0,0:0:0:0:
448,192,96619,1,0,0:0:0:0:
320,192,96696,1,0,0:0:0:0:
64,192,96772,1,0,0:0:0:0:
192,192,96772,128,0,96926:0:0:0:0:
320,192,96926,1,0,0:0:0:0:
448,192,96926,1,0,0:0:0:0:
64,192,96926,1,0,0:0:0:0:
448,192,97080,1,0,0:0:0:0:
64,192,97234,1,0,0:0:0:0:
320,192,97234,1,0,0:0:0:0:
192,192,97388,1,0,0:0:0:0:
320,192,97542,1,0,0:0:0:0:
448,192,97542,1,0,0:0:0:0:
64,192,97542,1,0,0:0:0:0:
448,192,97696,1,0,0:0:0:0:
320,192,97772,1,0,0:0:0:0:
64,192,97849,1,0,0:0:0:0:
192,192,97926,1,0,0:0:0:0:
320,192,98003,1,0,0:0:0:0:
448,192,98003,128,0,98157:0:0:0:0:
64,192,98157,1,0,0:0:0:0:
320,192,98157,1,0,0:0:0:0:
192,192,98157,128,0,98465:0:0:0:0:
64,192,98311,128,0,98465:0:0:0:0:
320,192,98465,1,0,0:0:0:0:
448,192,98465,1,0,0:0:0:0:
64,192,98619,128,0,98696:0:0:0:0:
320,192,98619,128,0,98696:0:0:0:0:
64,192,98772,128,0,98849:0:0:0:0:
192,192,98772,128,0,98849:0:0:0:0:
320,192,98926,128,0,99003:0:0:0:0:
448,192,98926,128,0,99003:0:0:0:0:
64,192,99003,1,0,0:0:0:0:
192,192,99080,128,0,99157:0:0:0:0:
448,192,99080,128,0,99157:0:0:0:0:
320,192,99157,1,0,0:0:0:0:
192,192,99234,1,0,0:0:0:0:
64,192,99234,1,0,0:0:0:0:
64,192,99388,1,0,0:0:0:0:
320,192,99388,1,0,0:0:0:0:
448,192,99388,1,0,0:0:0:0:
448,192,99542,1,0,0:0:0:0:
64,192,99696,1,0,0:0:0:0:
192,192,99696,1,0,0:0:0:0:
192,192,99849,128,0,99926:0:0:0:0:
448,192,99849,128,0,99926:0:0:0:0:
320,192,100003,128,0,100080:0:0:0:0:
448,192,100003,128,0,100080:0:0:0:0:
64,192,100157,128,0,100234:0:0:0:0:
192,192,100157,128,0,100234:0:0:0:0:
448,192,100234,1,0,0:0:0:0:
320,192,100311,128,0,100388:0:0:0:0:
64,192,100311,128,0,100388:0:0:0:0:
192,192,100388,1,0,0:0:0:0:
320,192,100465,1,0,0:0:0:0:
448,192,100465,1,0,0:0:0:0:
64,192,100619,1,0,0:0:0:0:
192,192,100619,1,0,0:0:0:0:
448,192,100619,1,0,0:0:0:0:
320,192,100772,1,0,0:0:0:0:
64,192,100926,1,0,0:0:0:0:
192,192,100926,1,0,0:0:0:0:
448,192,100926,1,0,0:0:0:0:
192,192,101080,1,0,0:0:0:0:
64,192,101234,1,0,0:0:0:0:
320,192,101234,1,0,0:0:0:0:
448,192,101234,1,0,0:0:0:0:
64,192,101388,1,0,0:0:0:0:
192,192,101465,1,0,0:0:0:0:
448,192,101542,1,0,0:0:0:0:
320,192,101619,1,0,0:0:0:0:
64,192,101696,1,0,0:0:0:0:
192,192,101696,128,0,101849:0:0:0:0:
64,192,101849,1,0,0:0:0:0:
320,192,101849,1,0,0:0:0:0:
448,192,101849,1,0,0:0:0:0:
448,192,102003,1,0,0:0:0:0:
192,192,102157,1,0,0:0:0:0:
64,192,102157,1,0,0:0:0:0:
320,192,102311,1,0,0:0:0:0:
448,192,102465,1,0,0:0:0:0:
192,192,102465,1,0,0:0:0:0:
64,192,102465,1,0,0:0:0:0:
192,192,102619,1,0,0:0:0:0:
320,192,102696,1,0,0:0:0:0:
64,192,102772,1,0,0:0:0:0:
192,192,102849,1,0,0:0:0:0:
320,192,102926,1,0,0:0:0:0:
448,192,102926,128,0,103080:0:0:0:0:
192,192,103080,1,0,0:0:0:0:
320,192,103080,1,0,0:0:0:0:
64,192,103080,128,0,103234:0:0:0:0:
192,192,103234,128,0,103388:0:0:0:0:
64,192,103388,1,0,0:0:0:0:
448,192,103388,1,0,0:0:0:0:
192,192,103542,128,0,103619:0:0:0:0:
320,192,103542,128,0,103619:0:0:0:0:
64,192,103696,128,0,103772:0:0:0:0:
192,192,103696,128,0,103772:0:0:0:0:
320,192,103849,128,0,103926:0:0:0:0:
448,192,103849,128,0,103926:0:0:0:0:
192,192,103926,1,0,0:0:0:0:
64,192,104003,128,0,104080:0:0:0:0:
448,192,104003,128,0,104080:0:0:0:0:
320,192,104080,1,0,0:0:0:0:
192,192,104157,1,0,0:0:0:0:
64,192,104157,1,0,0:0:0:0:
448,192,104311,1,0,0:0:0:0:
64,192,104311,1,0,0:0:0:0:
192,192,104311,1,0,0:0:0:0:
320,192,104465,128,0,104542:0:0:0:0:
448,192,104465,128,0,104542:0:0:0:0:
320,192,104619,1,0,0:0:0:0:
64,192,104619,1,0,0:0:0:0:
192,192,104772,128,0,104849:0:0:0:0:
320,192,104772,128,0,104849:0:0:0:0:
320,192,104926,128,0,105003:0:0:0:0:
448,192,104926,128,0,105003:0:0:0:0:
64,192,105080,128,0,105157:0:0:0:0:
192,192,105080,128,0,105157:0:0:0:0:
320,192,105157,1,0,0:0:0:0:
448,192,105234,128,0,105311:0:0:0:0:
64,192,105234,128,0,105311:0:0:0:0:
192,192,105311,1,0,0:0:0:0:
320,192,105388,1,0,0:0:0:0:
448,192,105388,1,0,0:0:0:0:
64,192,105542,1,0,0:0:0:0:
192,192,105542,1,0,0:0:0:0:
448,192,105542,1,0,0:0:0:0:
448,192,105849,128,0,106003:0:0:0:0:
320,192,105849,1,0,0:0:0:0:
64,192,106003,128,0,106234:0:0:0:0:
192,192,106003,1,0,0:0:0:0:
448,192,106157,128,0,106234:0:0:0:0:
320,192,106157,128,0,106234:0:0:0:0:
448,192,106311,128,0,106388:0:0:0:0:
192,192,106311,128,0,106465:0:0:0:0:
64,192,106311,128,0,106388:0:0:0:0:
320,192,106619,128,0,106772:0:0:0:0:
192,192,106619,128,0,106696:0:0:0:0:
64,192,106619,128,0,106696:0:0:0:0:
192,192,106926,128,0,107080:0:0:0:0:
320,192,106926,128,0,107003:0:0:0:0:
448,192,106926,128,0,107003:0:0:0:0:
64,192,107080,1,0,0:0:0:0:
448,192,107080,1,0,0:0:0:0:
192,192,107234,1,0,0:0:0:0:
448,192,107388,1,0,0:0:0:0:
320,192,107388,1,0,0:0:0:0:
192,192,107542,1,0,0:0:0:0:
64,192,107542,1,0,0:0:0:0:
320,192,107619,1,0,0:0:0:0:
64,192,107696,1,0,0:0:0:0:
448,192,107696,1,0,0:0:0:0:
192,192,107849,1,0,0:0:0:0:
64,192,108003,1,0,0:0:0:0:
320,192,108003,1,0,0:0:0:0:
320,192,108157,1,0,0:0:0:0:
448,192,108157,1,0,0:0:0:0:
192,192,108234,1,0,0:0:0:0:
64,192,108311,128,0,108465:0:0:0:0:
448,192,108311,1,0,0:0:0:0:
320,192,108465,128,0,108696:0:0:0:0:
192,192,108465,1,0,0:0:0:0:
64,192,108619,128,0,108696:0:0:0:0:
448,192,108619,128,0,108696:0:0:0:0:
192,192,108772,128,0,108926:0:0:0:0:
448,192,108772,128,0,108849:0:0:0:0:
64,192,108772,128,0,108849:0:0:0:0:
192,192,109080,128,0,109234:0:0:0:0:
320,192,109080,128,0,109157:0:0:0:0:
448,192,109080,128,0,109157:0:0:0:0:
192,192,109388,128,0,109542:0:0:0:0:
320,192,109388,128,0,109465:0:0:0:0:
64,192,109388,128,0,109465:0:0:0:0:
64,192,109542,1,0,0:0:0:0:
448,192,109542,1,0,0:0:0:0:
320,192,109696,1,0,0:0:0:0:
192,192,109849,1,0,0:0:0:0:
64,192,109849,1,0,0:0:0:0:
320,192,110003,1,0,0:0:0:0:
448,192,110003,1,0,0:0:0:0:
192,192,110080,1,0,0:0:0:0:
64,192,110157,1,0,0:0:0:0:
448,192,110157,1,0,0:0:0:0:
320,192,110234,1,0,0:0:0:0:
192,192,110311,1,0,0:0:0:0:
64,192,110465,1,0,0:0:0:0:
192,192,110465,1,0,0:0:0:0:
320,192,110619,1,0,0:0:0:0:
448,192,110619,1,0,0:0:0:0:
192,192,110696,1,0,0:0:0:0:
64,192,110772,1,0,0:0:0:0:
320,192,110772,1,0,0:0:0:0:
448,192,110772,128,0,111080:0:0:0:0:
192,192,110926,1,0,0:0:0:0:
64,192,111080,1,0,0:0:0:0:
320,192,111080,1,0,0:0:0:0:
448,192,111234,1,0,0:0:0:0:
320,192,111311,1,0,0:0:0:0:
64,192,111388,1,0,0:0:0:0:
192,192,111465,1,0,0:0:0:0:
320,192,111542,1,0,0:0:0:0:
448,192,111542,128,0,111696:0:0:0:0:
64,192,111696,1,0,0:0:0:0:
320,192,111696,1,0,0:0:0:0:
192,192,111696,128,0,112003:0:0:0:0:
64,192,111849,128,0,112003:0:0:0:0:
448,192,111849,1,0,0:0:0:0:
320,192,112003,1,0,0:0:0:0:
448,192,112003,1,0,0:0:0:0:
192,192,112080,1,0,0:0:0:0:
64,192,112157,1,0,0:0:0:0:
448,192,112157,1,0,0:0:0:0:
320,192,112234,1,0,0:0:0:0:
64,192,112311,1,0,0:0:0:0:
192,192,112388,1,0,0:0:0:0:
448,192,112388,1,0,0:0:0:0:
320,192,112465,1,0,0:0:0:0:
64,192,112542,1,0,0:0:0:0:
192,192,112619,1,0,0:0:0:0:
448,192,112619,1,0,0:0:0:0:
320,192,112696,1,0,0:0:0:0:
64,192,112772,1,0,0:0:0:0:
320,192,112849,1,0,0:0:0:0:
448,192,112849,1,0,0:0:0:0:
192,192,112926,1,0,0:0:0:0:
64,192,113003,1,0,0:0:0:0:
320,192,113080,1,0,0:0:0:0:
448,192,113080,1,0,0:0:0:0:
192,192,113157,1,0,0:0:0:0:
448,192,113234,1,0,0:0:0:0:
64,192,113234,1,0,0:0:0:0:
320,192,113311,1,0,0:0:0:0:
64,192,113388,1,0,0:0:0:0:
192,192,113465,1,0,0:0:0:0:
320,192,113542,1,0,0:0:0:0:
448,192,113542,1,0,0:0:0:0:
192,192,113619,1,0,0:0:0:0:
64,192,113696,1,0,0:0:0:0:
448,192,113772,1,0,0:0:0:0:
320,192,113849,1,0,0:0:0:0:
64,192,113849,1,0,0:0:0:0:
192,192,113926,1,0,0:0:0:0:
448,192,114003,1,0,0:0:0:0:
64,192,114080,1,0,0:0:0:0:
192,192,114157,1,0,0:0:0:0:
448,192,114157,1,0,0:0:0:0:
320,192,114234,1,0,0:0:0:0:
64,192,114311,1,0,0:0:0:0:
192,192,114388,1,0,0:0:0:0:
320,192,114465,1,0,0:0:0:0:
448,192,114465,1,0,0:0:0:0:
64,192,114465,1,0,0:0:0:0:
64,192,114619,1,0,0:0:0:0:
192,192,114619,1,0,0:0:0:0:
320,192,114696,1,0,0:0:0:0:
448,192,114696,1,0,0:0:0:0:
64,192,114772,1,0,0:0:0:0:
192,192,114772,1,0,0:0:0:0:
448,192,114926,1,0,0:0:0:0:
320,192,115003,1,0,0:0:0:0:
64,192,115080,1,0,0:0:0:0:
448,192,115080,1,0,0:0:0:0:
192,192,115080,1,0,0:0:0:0:
320,192,115234,1,0,0:0:0:0:
448,192,115234,1,0,0:0:0:0:
192,192,115311,1,0,0:0:0:0:
64,192,115311,1,0,0:0:0:0:
320,192,115388,128,0,115542:0:0:0:0:
448,192,115388,128,0,115542:0:0:0:0:
64,192,115696,128,0,115849:0:0:0:0:
320,192,115696,128,0,115849:0:0:0:0:
192,192,115772,128,0,115849:0:0:0:0:
448,192,115849,1,0,0:0:0:0:
192,192,115926,1,0,0:0:0:0:
320,192,116003,1,0,0:0:0:0:
64,192,116080,1,0,0:0:0:0:
448,192,116157,128,0,116311:0:0:0:0:
192,192,116157,128,0,116311:0:0:0:0:
320,192,116234,128,0,116311:0:0:0:0:
64,192,116311,1,0,0:0:0:0:
192,192,116388,1,0,0:0:0:0:
448,192,116465,1,0,0:0:0:0:
320,192,116542,1,0,0:0:0:0:
64,192,116619,128,0,116772:0:0:0:0:
192,192,116619,128,0,116772:0:0:0:0:
320,192,116696,128,0,116772:0:0:0:0:
448,192,116772,1,0,0:0:0:0:
320,192,116849,1,0,0:0:0:0:
64,192,116926,1,0,0:0:0:0:
192,192,117003,1,0,0:0:0:0:
448,192,117080,128,0,117234:0:0:0:0:
320,192,117080,128,0,117234:0:0:0:0:
192,192,117157,128,0,117234:0:0:0:0:
64,192,117234,1,0,0:0:0:0:
448,192,117311,1,0,0:0:0:0:
320,192,117388,1,0,0:0:0:0:
64,192,117465,1,0,0:0:0:0:
192,192,117542,1,0,0:0:0:0:
448,192,117542,1,0,0:0:0:0:
320,192,117619,1,0,0:0:0:0:
64,192,117696,1,0,0:0:0:0:
192,192,117772,1,0,0:0:0:0:
320,192,117849,1,0,0:0:0:0:
448,192,117849,1,0,0:0:0:0:
64,192,117926,1,0,0:0:0:0:
192,192,117926,1,0,0:0:0:0:
320,192,118003,1,0,0:0:0:0:
448,192,118003,1,0,0:0:0:0:
192,192,118080,1,0,0:0:0:0:
448,192,118157,128,0,118311:0:0:0:0:
320,192,118157,128,0,118311:0:0:0:0:
64,192,118234,128,0,118311:0:0:0:0:
192,192,118311,1,0,0:0:0:0:
320,192,118388,1,0,0:0:0:0:
64,192,118465,1,0,0:0:0:0:
448,192,118542,1,0,0:0:0:0:
64,192,118619,128,0,118772:0:0:0:0:
192,192,118619,128,0,118772:0:0:0:0:
448,192,118696,128,0,118772:0:0:0:0:
320,192,118772,1,0,0:0:0:0:
192,192,118849,1,0,0:0:0:0:
64,192,118926,1,0,0:0:0:0:
448,192,119003,1,0,0:0:0:0:
320,192,119080,128,0,119234:0:0:0:0:
192,192,119080,128,0,119234:0:0:0:0:
64,192,119157,128,0,119234:0:0:0:0:
448,192,119234,1,0,0:0:0:0:
320,192,119311,1,0,0:0:0:0:
192,192,119388,1,0,0:0:0:0:
64,192,119465,1,0,0:0:0:0:
192,192,119542,128,0,119696:0:0:0:0:
320,192,119542,128,0,119696:0:0:0:0:
448,192,119619,128,0,119696:0:0:0:0:
64,192,119772,1,0,0:0:0:0:
448,192,119849,1,0,0:0:0:0:
320,192,119926,1,0,0:0:0:0:
64,192,120003,128,0,120157:0:0:0:0:
192,192,120080,128,0,120157:0:0:0:0:
448,192,120157,128,0,120311:0:0:0:0:
320,192,120234,128,0,120311:0:0:0:0:
64,192,120311,1,0,0:0:0:0:
192,192,120311,1,0,0:0:0:0:
64,192,120619,128,0,120772:0:0:0:0:
320,192,120619,128,0,120772:0:0:0:0:
448,192,120696,128,0,120772:0:0:0:0:
192,192,120772,1,0,0:0:0:0:
320,192,120849,1,0,0:0:0:0:
64,192,120926,1,0,0:0:0:0:
320,192,121003,1,0,0:0:0:0:
192,192,121080,128,0,121234:0:0:0:0:
448,192,121080,128,0,121234:0:0:0:0:
64,192,121157,128,0,121234:0:0:0:0:
320,192,121234,1,0,0:0:0:0:
448,192,121311,1,0,0:0:0:0:
64,192,121388,1,0,0:0:0:0:
192,192,121465,1,0,0:0:0:0:
448,192,121542,128,0,121696:0:0:0:0:
320,192,121542,128,0,121696:0:0:0:0:
64,192,121619,128,0,121696:0:0:0:0:
192,192,121696,1,0,0:0:0:0:
320,192,121772,1,0,0:0:0:0:
64,192,121849,1,0,0:0:0:0:
320,192,121926,1,0,0:0:0:0:
64,192,122003,128,0,122157:0:0:0:0:
192,192,122003,128,0,122157:0:0:0:0:
448,192,122080,128,0,122157:0:0:0:0:
320,192,122157,1,0,0:0:0:0:
192,192,122234,1,0,0:0:0:0:
64,192,122311,1,0,0:0:0:0:
448,192,122388,1,0,0:0:0:0:
320,192,122465,1,0,0:0:0:0:
320,192,122542,1,0,0:0:0:0:
64,192,122619,1,0,0:0:0:0:
64,192,122696,1,0,0:0:0:0:
448,192,122772,1,0,0:0:0:0:
320,192,122849,1,0,0:0:0:0:
192,192,122926,1,0,0:0:0:0:
64,192,123003,1,0,0:0:0:0:
320,192,123080,1,0,0:0:0:0:
448,192,123080,1,0,0:0:0:0:
64,192,123157,1,0,0:0:0:0:
192,192,123157,1,0,0:0:0:0:
320,192,123311,1,0,0:0:0:0:
448,192,123311,1,0,0:0:0:0:
64,192,123388,1,0,0:0:0:0:
192,192,123388,1,0,0:0:0:0:
448,192,123542,1,0,0:0:0:0:
320,192,123542,1,0,0:0:0:0:
64,192,123542,1,0,0:0:0:0:
192,192,123696,1,0,0:0:0:0:
448,192,123696,1,0,0:0:0:0:
320,192,123772,1,0,0:0:0:0:
64,192,123772,1,0,0:0:0:0:
448,192,123926,1,0,0:0:0:0:
192,192,123926,1,0,0:0:0:0:
320,192,124003,1,0,0:0:0:0:
64,192,124003,1,0,0:0:0:0:
64,192,124157,1,0,0:0:0:0:
192,192,124157,1,0,0:0:0:0:
448,192,124157,1,0,0:0:0:0:
448,192,124311,1,0,0:0:0:0:
320,192,124311,1,0,0:0:0:0:
64,192,124388,1,0,0:0:0:0:
192,192,124388,1,0,0:0:0:0:
320,192,124465,1,0,0:0:0:0:
448,192,124542,1,0,0:0:0:0:
64,192,124619,1,0,0:0:0:0:
192,192,124619,1,0,0:0:0:0:
320,192,124696,1,0,0:0:0:0:
448,192,124696,1,0,0:0:0:0:
64,192,124772,1,0,0:0:0:0:
192,192,124849,1,0,0:0:0:0:
448,192,124926,128,0,125080:0:0:0:0:
320,192,125003,128,0,125080:0:0:0:0:
64,192,125080,128,0,125234:0:0:0:0:
192,192,125157,128,0,125234:0:0:0:0:
448,192,125234,128,0,125388:0:0:0:0:
320,192,125311,128,0,125465:0:0:0:0:
192,192,125388,128,0,125465:0:0:0:0:
64,192,125465,1,0,0:0:0:0:
