osu file format v14

[General]
AudioFilename: audio.mp3
AudioLeadIn: 0
PreviewTime: 95694
Countdown: 0
SampleSet: Soft
StackLeniency: 0.7
Mode: 3
LetterboxInBreaks: 0
SpecialStyle: 0
WidescreenStoryboard: 1

[Editor]
DistanceSpacing: 0.8
BeatDivisor: 4
GridSize: 32
TimelineZoom: 0.8999988

[Metadata]
Title:Nostalgic Lost Logic
TitleUnicode:ノスタルジック・ロストロジック
Artist:Tonari no Niwa wa Aoi (NIWASHI + Aoi)
ArtistUnicode:隣の庭は青い (庭師 + Aoi)
Creator:Maiiy
Version:Easy
Source:
Tags:mg mappers' guild featured artist fa drum n bass アートコアのお庭 Garden of Artcore Artcore no Oniwa Hybrid hb dnb d&b instrumental electronic gozena
BeatmapID:4403891
BeatmapSetID:2095978

[Difficulty]
HPDrainRate:7
CircleSize:4
OverallDifficulty:7
ApproachRate:5
SliderMultiplier:1.4
SliderTickRate:1

[Events]
//Background and Video events
0,0,"BG.jpg",0,0
//Break Periods
//Storyboard Layer 0 (Background)
//Storyboard Layer 1 (Fail)
//Storyboard Layer 2 (Pass)
//Storyboard Layer 3 (Foreground)
//Storyboard Layer 4 (Overlay)
//Storyboard Sound Samples

[TimingPoints]
3696,307.692307692308,4,2,1,50,1,0
27080,-100,4,2,1,50,0,1
46772,-100,4,2,1,50,0,0
96003,-100,4,2,1,50,0,1
105849,-100,4,2,1,50,0,0

[HitObjects]
64,192,3695,5,0,0:0:0:0:
320,192,4003,1,0,0:0:0:0:
448,192,4311,1,0,0:0:0:0:
192,192,4619,1,0,0:0:0:0:
64,192,4926,1,0,0:0:0:0:
448,192,5426,1,0,0:0:0:0:
320,192,5849,1,0,0:0:0:0:
64,192,6157,1,0,0:0:0:0:
448,192,6657,1,0,0:0:0:0:
192,192,7080,1,0,0:0:0:0:
320,192,7388,1,0,0:0:0:0:
64,192,7888,1,0,0:0:0:0:
320,192,8311,1,0,0:0:0:0:
192,192,8619,1,0,0:0:0:0:
448,192,9119,1,0,0:0:0:0:
64,192,9542,1,0,0:0:0:0:
448,192,9849,128,0,10465:0:0:0:0:
320,192,10465,128,0,11080:0:0:0:0:
64,192,11080,128,0,11849:0:0:0:0:
192,192,12311,128,0,12772:0:0:0:0:
448,192,12772,1,0,0:0:0:0:
64,192,13234,128,0,13542:0:0:0:0:
192,192,13542,1,0,0:0:0:0:
448,192,13772,1,0,0:0:0:0:
320,192,14003,1,0,0:0:0:0:
448,192,14157,128,0,14465:0:0:0:0:
64,192,14465,1,0,0:0:0:0:
192,192,14772,1,0,0:0:0:0:
64,192,15080,1,0,0:0:0:0:
192,192,15234,1,0,0:0:0:0:
320,192,15388,128,0,15696:0:0:0:0:
448,192,15696,1,0,0:0:0:0:
192,192,16003,1,0,0:0:0:0:
448,192,16311,1,0,0:0:0:0:
320,192,16465,1,0,0:0:0:0:
192,192,16619,128,0,16926:0:0:0:0:
64,192,16926,1,0,0:0:0:0:
448,192,17234,1,0,0:0:0:0:
192,192,17542,1,0,0:0:0:0:
64,192,17696,1,0,0:0:0:0:
320,192,17849,128,0,18157:0:0:0:0:
448,192,18157,1,0,0:0:0:0:
64,192,18465,1,0,0:0:0:0:
320,192,18772,1,0,0:0:0:0:
448,192,18926,1,0,0:0:0:0:
192,192,19080,128,0,19388:0:0:0:0:
448,192,19388,128,0,19696:0:0:0:0:
64,192,19696,1,0,0:0:0:0:
64,192,20003,1,0,0:0:0:0:
448,192,20311,1,0,0:0:0:0:
192,192,20619,1,0,0:0:0:0:
448,192,20926,1,0,0:0:0:0:
448,192,21234,1,0,0:0:0:0:
64,192,21542,1,0,0:0:0:0:
320,192,21849,1,0,0:0:0:0:
64,192,22157,1,0,0:0:0:0:
320,192,22465,1,0,0:0:0:0:
192,192,22772,1,0,0:0:0:0:
64,192,22772,1,0,0:0:0:0:
448,192,23080,1,0,0:0:0:0:
320,192,23388,1,0,0:0:0:0:
192,192,23696,1,0,0:0:0:0:
320,192,24003,1,0,0:0:0:0:
448,192,24003,1,0,0:0:0:0:
64,192,24311,1,0,0:0:0:0:
448,192,24619,128,0,25234:0:0:0:0:
64,192,25234,1,0,0:0:0:0:
192,192,25234,128,0,25849:0:0:0:0:
448,192,25849,1,0,0:0:0:0:
320,192,26157,1,0,0:0:0:0:
448,192,26311,128,0,26619:0:0:0:0:
320,192,26619,1,0,0:0:0:0:
64,192,26772,1,0,0:0:0:0:
320,192,27080,1,0,0:0:0:0:
64,192,27388,1,0,0:0:0:0:
192,192,27388,1,0,0:0:0:0:
320,192,27849,1,0,0:0:0:0:
448,192,28003,1,0,0:0:0:0:
192,192,28003,1,0,0:0:0:0:
64,192,28311,1,0,0:0:0:0:
192,192,28619,1,0,0:0:0:0:
448,192,28619,1,0,0:0:0:0:
320,192,29080,1,0,0:0:0:0:
192,192,29234,1,0,0:0:0:0:
64,192,29234,1,0,0:0:0:0:
320,192,29542,1,0,0:0:0:0:
192,192,29849,1,0,0:0:0:0:
448,192,29849,1,0,0:0:0:0:
64,192,30311,1,0,0:0:0:0:
192,192,30465,1,0,0:0:0:0:
320,192,30465,1,0,0:0:0:0:
64,192,30772,1,0,0:0:0:0:
320,192,31080,1,0,0:0:0:0:
448,192,31080,1,0,0:0:0:0:
64,192,31388,1,0,0:0:0:0:
448,192,31542,1,0,0:0:0:0:
320,192,31696,1,0,0:0:0:0:
192,192,31696,1,0,0:0:0:0:
448,192,32003,1,0,0:0:0:0:
64,192,32311,1,0,0:0:0:0:
320,192,32311,1,0,0:0:0:0:
192,192,32772,1,0,0:0:0:0:
320,192,32926,1,0,0:0:0:0:
448,192,32926,1,0,0:0:0:0:
64,192,33234,1,0,0:0:0:0:
320,192,33542,1,0,0:0:0:0:
448,192,33542,1,0,0:0:0:0:
192,192,34003,1,0,0:0:0:0:
64,192,34157,1,0,0:0:0:0:
320,192,34157,1,0,0:0:0:0:
192,192,34465,1,0,0:0:0:0:
320,192,34772,1,0,0:0:0:0:
448,192,34772,1,0,0:0:0:0:
448,192,35234,1,0,0:0:0:0:
320,192,35388,1,0,0:0:0:0:
64,192,35388,1,0,0:0:0:0:
192,192,35542,1,0,0:0:0:0:
448,192,35696,1,0,0:0:0:0:
192,192,36003,1,0,0:0:0:0:
64,192,36003,1,0,0:0:0:0:
320,192,36311,1,0,0:0:0:0:
64,192,36465,1,0,0:0:0:0:
192,192,36619,1,0,0:0:0:0:
448,192,36619,1,0,0:0:0:0:
64,192,36926,1,0,0:0:0:0:
320,192,37234,1,0,0:0:0:0:
448,192,37234,1,0,0:0:0:0:
192,192,37696,1,0,0:0:0:0:
64,192,37849,1,0,0:0:0:0:
448,192,37849,1,0,0:0:0:0:
320,192,38157,1,0,0:0:0:0:
192,192,38465,1,0,0:0:0:0:
64,192,38465,1,0,0:0:0:0:
448,192,38926,1,0,0:0:0:0:
320,192,39080,1,0,0:0:0:0:
64,192,39080,1,0,0:0:0:0:
192,192,39388,1,0,0:0:0:0:
448,192,39696,1,0,0:0:0:0:
320,192,39696,1,0,0:0:0:0:
448,192,40157,1,0,0:0:0:0:
320,192,40311,1,0,0:0:0:0:
64,192,40311,1,0,0:0:0:0:
192,192,40619,1,0,0:0:0:0:
320,192,40926,1,0,0:0:0:0:
448,192,40926,1,0,0:0:0:0:
64,192,41234,1,0,0:0:0:0:
320,192,41388,1,0,0:0:0:0:
192,192,41542,1,0,0:0:0:0:
448,192,41542,1,0,0:0:0:0:
64,192,41696,128,0,42003:0:0:0:0:
320,192,42157,1,0,0:0:0:0:
448,192,42157,1,0,0:0:0:0:
448,192,42465,1,0,0:0:0:0:
320,192,42619,1,0,0:0:0:0:
64,192,42772,1,0,0:0:0:0:
192,192,42926,128,0,43234:0:0:0:0:
448,192,43234,1,0,0:0:0:0:
320,192,43542,128,0,43849:0:0:0:0:
64,192,43849,1,0,0:0:0:0:
192,192,44157,1,0,0:0:0:0:
448,192,44311,128,0,44619:0:0:0:0:
64,192,44772,128,0,45234:0:0:0:0:
448,192,45542,128,0,46465:0:0:0:0:
64,192,46772,128,0,47234:0:0:0:0:
448,192,47234,128,0,47696:0:0:0:0:
192,192,47696,128,0,48157:0:0:0:0:
320,192,48157,128,0,48619:0:0:0:0:
448,192,48619,128,0,48926:0:0:0:0:
64,192,48926,128,0,49234:0:0:0:0:
320,192,49234,128,0,49696:0:0:0:0:
192,192,49696,128,0,50157:0:0:0:0:
64,192,50157,128,0,50619:0:0:0:0:
320,192,50619,128,0,51080:0:0:0:0:
448,192,51080,128,0,51388:0:0:0:0:
64,192,51388,1,0,0:0:0:0:
320,192,51696,128,0,52157:0:0:0:0:
448,192,52157,128,0,52619:0:0:0:0:
192,192,52619,128,0,53080:0:0:0:0:
64,192,53080,128,0,53542:0:0:0:0:
192,192,53542,128,0,54157:0:0:0:0:
448,192,54157,128,0,54772:0:0:0:0:
192,192,54772,128,0,55388:0:0:0:0:
448,192,55388,1,0,0:0:0:0:
192,192,55696,1,0,0:0:0:0:
64,192,56003,1,0,0:0:0:0:
320,192,56311,1,0,0:0:0:0:
64,192,56619,128,0,56926:0:0:0:0:
448,192,56926,1,0,0:0:0:0:
192,192,56926,1,0,0:0:0:0:
320,192,57388,1,0,0:0:0:0:
192,192,57542,1,0,0:0:0:0:
64,192,57542,1,0,0:0:0:0:
320,192,57849,1,0,0:0:0:0:
448,192,58157,1,0,0:0:0:0:
192,192,58157,1,0,0:0:0:0:
64,192,58619,1,0,0:0:0:0:
448,192,58772,1,0,0:0:0:0:
192,192,58772,1,0,0:0:0:0:
64,192,59080,128,0,59542:0:0:0:0:
320,192,59542,128,0,60003:0:0:0:0:
64,192,60003,128,0,60465:0:0:0:0:
320,192,60465,128,0,60772:0:0:0:0:
448,192,60772,128,0,61234:0:0:0:0:
64,192,61234,1,0,0:0:0:0:
448,192,61542,128,0,61849:0:0:0:0:
64,192,61849,128,0,62157:0:0:0:0:
192,192,62157,128,0,62465:0:0:0:0:
448,192,62465,1,0,0:0:0:0:
320,192,62619,1,0,0:0:0:0:
64,192,62772,128,0,63080:0:0:0:0:
320,192,63080,128,0,63388:0:0:0:0:
192,192,63388,1,0,0:0:0:0:
448,192,63542,1,0,0:0:0:0:
192,192,63696,128,0,64003:0:0:0:0:
448,192,64003,128,0,64311:0:0:0:0:
64,192,64311,128,0,64619:0:0:0:0:
448,192,64619,1,0,0:0:0:0:
64,192,64772,1,0,0:0:0:0:
320,192,64926,1,0,0:0:0:0:
192,192,65080,128,0,65388:0:0:0:0:
448,192,65388,1,0,0:0:0:0:
320,192,65542,1,0,0:0:0:0:
64,192,65696,1,0,0:0:0:0:
320,192,65849,128,0,66157:0:0:0:0:
192,192,66157,128,0,66465:0:0:0:0:
64,192,66465,128,0,66926:0:0:0:0:
448,192,66926,1,0,0:0:0:0:
320,192,67234,1,0,0:0:0:0:
192,192,67388,128,0,67696:0:0:0:0:
320,192,67696,128,0,68003:0:0:0:0:
64,192,68003,1,0,0:0:0:0:
320,192,68157,1,0,0:0:0:0:
64,192,68311,128,0,68619:0:0:0:0:
320,192,68926,128,0,69542:0:0:0:0:
192,192,69542,128,0,69849:0:0:0:0:
448,192,69849,128,0,70157:0:0:0:0:
64,192,70157,1,0,0:0:0:0:
192,192,70311,1,0,0:0:0:0:
448,192,70465,1,0,0:0:0:0:
320,192,70619,1,0,0:0:0:0:
192,192,70926,1,0,0:0:0:0:
448,192,71080,1,0,0:0:0:0:
320,192,71234,1,0,0:0:0:0:
64,192,71388,128,0,71849:0:0:0:0:
320,192,71849,128,0,72311:0:0:0:0:
448,192,72311,128,0,72619:0:0:0:0:
192,192,72619,1,0,0:0:0:0:
64,192,72772,1,0,0:0:0:0:
448,192,72926,1,0,0:0:0:0:
320,192,73080,1,0,0:0:0:0:
192,192,73234,128,0,73542:0:0:0:0:
448,192,73542,128,0,73849:0:0:0:0:
64,192,73849,128,0,74157:0:0:0:0:
320,192,74157,1,0,0:0:0:0:
192,192,74311,128,0,74772:0:0:0:0:
64,192,74772,1,0,0:0:0:0:
448,192,75080,128,0,75696:0:0:0:0:
64,192,75696,128,0,76311:0:0:0:0:
320,192,76311,1,0,0:0:0:0:
192,192,76926,1,0,0:0:0:0:
320,192,77849,1,0,0:0:0:0:
448,192,78157,1,0,0:0:0:0:
64,192,78157,1,0,0:0:0:0:
320,192,78772,1,0,0:0:0:0:
448,192,78772,1,0,0:0:0:0:
192,192,79388,1,0,0:0:0:0:
64,192,80465,1,0,0:0:0:0:
192,192,80619,1,0,0:0:0:0:
448,192,80619,1,0,0:0:0:0:
64,192,81234,128,0,81849:0:0:0:0:
192,192,81849,128,0,82465:0:0:0:0:
448,192,82465,128,0,83080:0:0:0:0:
64,192,83696,128,0,84311:0:0:0:0:
448,192,84311,1,0,0:0:0:0:
192,192,85234,1,0,0:0:0:0:
320,192,85542,1,0,0:0:0:0:
448,192,85542,1,0,0:0:0:0:
64,192,85849,1,0,0:0:0:0:
448,192,86157,128,0,86465:0:0:0:0:
192,192,86465,1,0,0:0:0:0:
64,192,86772,128,0,87080:0:0:0:0:
320,192,87080,1,0,0:0:0:0:
192,192,87388,128,0,87696:0:0:0:0:
448,192,87696,1,0,0:0:0:0:
320,192,88003,128,0,88311:0:0:0:0:
64,192,88311,1,0,0:0:0:0:
64,192,88619,128,0,88926:0:0:0:0:
192,192,88926,1,0,0:0:0:0:
448,192,89234,128,0,89542:0:0:0:0:
320,192,89542,1,0,0:0:0:0:
192,192,89849,128,0,90157:0:0:0:0:
64,192,90157,1,0,0:0:0:0:
320,192,90465,128,0,90772:0:0:0:0:
448,192,90772,1,0,0:0:0:0:
64,192,91080,1,0,0:0:0:0:
192,192,91080,1,0,0:0:0:0:
448,192,91388,1,0,0:0:0:0:
64,192,91696,1,0,0:0:0:0:
320,192,91696,1,0,0:0:0:0:
192,192,92003,1,0,0:0:0:0:
320,192,92311,1,0,0:0:0:0:
448,192,92311,1,0,0:0:0:0:
64,192,92619,1,0,0:0:0:0:
192,192,92926,1,0,0:0:0:0:
448,192,92926,1,0,0:0:0:0:
320,192,93234,1,0,0:0:0:0:
64,192,93542,128,0,94157:0:0:0:0:
192,192,94157,1,0,0:0:0:0:
448,192,94157,128,0,94772:0:0:0:0:
320,192,94772,128,0,95465:0:0:0:0:
64,192,95696,1,0,0:0:0:0:
448,192,96003,128,0,96311:0:0:0:0:
64,192,96311,1,0,0:0:0:0:
192,192,96465,1,0,0:0:0:0:
64,192,96772,1,0,0:0:0:0:
320,192,96926,1,0,0:0:0:0:
448,192,96926,1,0,0:0:0:0:
64,192,97234,128,0,97542:0:0:0:0:
192,192,97542,1,0,0:0:0:0:
448,192,97696,1,0,0:0:0:0:
192,192,98003,1,0,0:0:0:0:
448,192,98157,1,0,0:0:0:0:
64,192,98157,1,0,0:0:0:0:
320,192,98465,128,0,98772:0:0:0:0:
64,192,98772,1,0,0:0:0:0:
448,192,98926,1,0,0:0:0:0:
64,192,99234,1,0,0:0:0:0:
192,192,99388,1,0,0:0:0:0:
448,192,99388,1,0,0:0:0:0:
192,192,99696,128,0,100003:0:0:0:0:
64,192,100003,1,0,0:0:0:0:
320,192,100157,1,0,0:0:0:0:
320,192,100465,1,0,0:0:0:0:
64,192,100619,1,0,0:0:0:0:
192,192,100619,1,0,0:0:0:0:
320,192,100926,128,0,101234:0:0:0:0:
192,192,101234,1,0,0:0:0:0:
448,192,101388,1,0,0:0:0:0:
448,192,101696,1,0,0:0:0:0:
320,192,101849,1,0,0:0:0:0:
64,192,101849,1,0,0:0:0:0:
192,192,102157,128,0,102465:0:0:0:0:
448,192,102465,1,0,0:0:0:0:
64,192,102619,1,0,0:0:0:0:
448,192,102926,1,0,0:0:0:0:
192,192,103080,1,0,0:0:0:0:
320,192,103080,1,0,0:0:0:0:
64,192,103388,128,0,103696:0:0:0:0:
192,192,103696,1,0,0:0:0:0:
320,192,103849,1,0,0:0:0:0:
64,192,104157,1,0,0:0:0:0:
320,192,104311,1,0,0:0:0:0:
448,192,104311,1,0,0:0:0:0:
192,192,104465,1,0,0:0:0:0:
64,192,104619,128,0,104926:0:0:0:0:
448,192,104926,1,0,0:0:0:0:
192,192,105080,1,0,0:0:0:0:
448,192,105388,1,0,0:0:0:0:
320,192,105542,1,0,0:0:0:0:
192,192,105542,1,0,0:0:0:0:
64,192,105849,128,0,106157:0:0:0:0:
448,192,106157,1,0,0:0:0:0:
192,192,106311,128,0,106619:0:0:0:0:
320,192,106619,128,0,106926:0:0:0:0:
64,192,106926,128,0,107234:0:0:0:0:
448,192,107234,1,0,0:0:0:0:
320,192,107388,1,0,0:0:0:0:
64,192,107542,1,0,0:0:0:0:
192,192,107542,1,0,0:0:0:0:
448,192,107849,1,0,0:0:0:0:
320,192,108003,1,0,0:0:0:0:
64,192,108003,1,0,0:0:0:0:
192,192,108311,128,0,108619:0:0:0:0:
448,192,108619,1,0,0:0:0:0:
320,192,108772,128,0,109080:0:0:0:0:
64,192,109080,128,0,109388:0:0:0:0:
192,192,109388,128,0,109696:0:0:0:0:
448,192,109696,128,0,110003:0:0:0:0:
64,192,110003,128,0,110311:0:0:0:0:
320,192,110311,128,0,110619:0:0:0:0:
64,192,110619,128,0,111080:0:0:0:0:
448,192,111080,1,0,0:0:0:0:
64,192,111542,1,0,0:0:0:0:
192,192,111696,1,0,0:0:0:0:
448,192,111696,1,0,0:0:0:0:
320,192,112003,1,0,0:0:0:0:
192,192,112311,1,0,0:0:0:0:
64,192,112311,1,0,0:0:0:0:
448,192,112772,1,0,0:0:0:0:
320,192,112926,1,0,0:0:0:0:
192,192,112926,1,0,0:0:0:0:
64,192,113234,1,0,0:0:0:0:
192,192,113234,1,0,0:0:0:0:
320,192,113542,1,0,0:0:0:0:
64,192,113849,1,0,0:0:0:0:
448,192,113849,1,0,0:0:0:0:
192,192,114157,1,0,0:0:0:0:
320,192,114465,1,0,0:0:0:0:
448,192,114465,1,0,0:0:0:0:
192,192,114772,1,0,0:0:0:0:
64,192,115080,1,0,0:0:0:0:
448,192,115080,1,0,0:0:0:0:
320,192,115388,1,0,0:0:0:0:
448,192,115388,1,0,0:0:0:0:
64,192,115696,128,0,116157:0:0:0:0:
192,192,115696,1,0,0:0:0:0:
448,192,116157,128,0,116619:0:0:0:0:
320,192,116157,1,0,0:0:0:0:
192,192,116619,128,0,117080:0:0:0:0:
64,192,116619,1,0,0:0:0:0:
320,192,117080,128,0,117542:0:0:0:0:
448,192,117080,1,0,0:0:0:0:
64,192,117542,128,0,117849:0:0:0:0:
320,192,117849,128,0,118157:0:0:0:0:
448,192,118157,128,0,118619:0:0:0:0:
192,192,118157,1,0,0:0:0:0:
192,192,118619,128,0,119080:0:0:0:0:
64,192,118619,1,0,0:0:0:0:
320,192,119080,128,0,119542:0:0:0:0:
448,192,119080,1,0,0:0:0:0:
64,192,119542,128,0,120003:0:0:0:0:
192,192,119542,1,0,0:0:0:0:
192,192,120003,128,0,120311:0:0:0:0:
448,192,120003,1,0,0:0:0:0:
64,192,120311,1,0,0:0:0:0:
320,192,120619,128,0,121080:0:0:0:0:
448,192,120619,1,0,0:0:0:0:
64,192,121080,128,0,121542:0:0:0:0:
192,192,121080,1,0,0:0:0:0:
448,192,121542,128,0,122003:0:0:0:0:
192,192,121542,1,0,0:0:0:0:
192,192,122003,128,0,122465:0:0:0:0:
320,192,122003,1,0,0:0:0:0:
64,192,122465,128,0,122772:0:0:0:0:
448,192,122772,128,0,123080:0:0:0:0:
192,192,123080,128,0,123542:0:0:0:0:
320,192,123542,1,0,0:0:0:0:
64,192,123696,128,0,124157:0:0:0:0:
448,192,124157,1,0,0:0:0:0:
320,192,124311,1,0,0:0:0:0:
192,192,124619,1,0,0:0:0:0:
448,192,124926,1,0,0:0:0:0:
192,192,125234,1,0,0:0:0:0:
64,192,125465,1,0,0:0:0:0:
