osu file format v14

[General]
AudioFilename: audio.ogg
AudioLeadIn: 0
PreviewTime: 69090
Countdown: 0
SampleSet: Soft
StackLeniency: 0.7
Mode: 3
LetterboxInBreaks: 0
SpecialStyle: 0
WidescreenStoryboard: 1

[Editor]
Bookmarks: 41224
DistanceSpacing: 1
BeatDivisor: 4
GridSize: 4
TimelineZoom: 2.3

[Metadata]
Title:Mukuroju no Hakamori
TitleUnicode:躯樹の墓守
Artist:Tonari no Niwa wa Aoi (NIWASHI + Aoi)
ArtistUnicode:隣の庭は青い (庭師 + Aoi)
Creator:Gahyeonln
Version:Sya's ADVANCED
Source:maimai でらっくす UNiVERSE
Tags:DX Deluxe PERFECT CHALLENGE DiSC PLUS パーフェクトチャレンジ Sega Electronic Video Game arcade instrumental 藻 鑓田 alpha complex 川崎ヒロミツ Seiran- -Timerains- Syadow- AlexDunk FAMoss
BeatmapID:3668213
BeatmapSetID:1787103

[Difficulty]
HPDrainRate:7.5
CircleSize:4
OverallDifficulty:7.2
ApproachRate:5
SliderMultiplier:1.4
SliderTickRate:1

[Events]
//Background and Video events
Video,-1950,"video.mp4"
0,0,"bg.jpg",0,0
//Break Periods
//Storyboard Layer 0 (Background)
//Storyboard Layer 1 (Fail)
//Storyboard Layer 2 (Pass)
//Storyboard Layer 3 (Foreground)
//Storyboard Layer 4 (Overlay)
//Storyboard Sound Samples
Sample,22457,0,"amenbreak_snare1.wav",70

[TimingPoints]
277,284.36018957346,4,2,1,60,1,0
50324,284.36018957346,3,2,1,60,1,0
58854,284.36018957346,4,2,1,60,1,0
69090,-100.0,4,2,1,60,0,1
77337,-100.0,4,2,1,60,0,0
78190,-100.0,4,2,1,60,0,1
87290,-100.0,4,2,1,60,0,0

[HitObjects]
448,192,277,1,0,0:0:0:0:
64,192,419,1,0,0:0:0:0:
448,192,1983,1,0,0:0:0:0:
64,192,2125,1,0,0:0:0:0:
320,192,2551,1,0,0:0:0:70:LR_J Hit Hollow.wav
448,192,2551,1,0,0:0:0:70:LR_J Hit Edge F.wav
192,192,2836,1,0,0:0:0:0:
64,192,3120,1,0,0:0:0:70:Drum_Rim.wav
448,192,3120,1,0,0:0:0:0:
320,192,3404,1,0,0:0:0:0:
192,192,3689,1,0,0:0:0:70:LR_J Hit Edge F.wav
320,192,3973,1,0,0:0:0:0:
64,192,4258,1,0,0:0:0:70:Drum_Rim.wav
448,192,4258,1,0,0:0:0:0:
192,192,4542,1,0,0:0:0:0:
320,192,4826,1,0,0:0:0:70:LR_J Hit Edge F.wav
64,192,5111,1,0,0:0:0:0:
320,192,5395,1,0,0:0:0:70:Drum_Rim.wav
448,192,5395,1,0,0:0:0:0:
64,192,5679,1,0,0:0:0:0:
192,192,5964,1,0,0:0:0:70:LR_J Hit Edge F.wav
448,192,6248,1,0,0:0:0:0:
64,192,6532,1,0,0:0:0:70:Drum_Rim.wav
192,192,6532,1,0,0:0:0:0:
448,192,6675,128,0,7101:0:0:0:0:
64,192,7101,1,0,0:0:0:70:LR_J Hit Edge F.wav
320,192,7101,1,0,0:0:0:0:
192,192,7386,1,0,0:0:0:0:
320,192,7670,1,0,0:0:0:70:Drum_Rim.wav
448,192,7670,1,0,0:0:0:0:
64,192,7954,1,0,0:0:0:0:
448,192,8239,1,0,0:0:0:70:LR_J Hit Edge F.wav
320,192,8523,1,0,0:0:0:0:
64,192,8807,1,0,0:0:0:70:Drum_Rim.wav
192,192,8807,1,0,0:0:0:0:
448,192,9092,1,0,0:0:0:0:
192,192,9376,1,0,0:0:0:70:LR_J Hit Edge F.wav
320,192,9660,1,0,0:0:0:0:
64,192,9945,1,0,0:0:0:70:Drum_Rim.wav
448,192,9945,1,0,0:0:0:0:
192,192,10229,1,0,0:0:0:0:
320,192,10513,1,2,0:0:0:0:
64,192,11082,128,0,11651:0:0:0:0:
320,192,11651,1,2,0:0:0:0:
448,192,11651,1,4,0:0:0:0:
320,192,12077,1,0,0:0:0:0:
64,192,12220,1,8,0:0:0:0:
192,192,12220,1,0,0:0:0:0:
192,192,12504,1,0,0:0:0:0:
320,192,12646,1,2,0:0:0:0:
320,192,12931,1,2,0:0:0:0:
64,192,13073,1,0,0:0:0:0:
448,192,13215,1,0,0:0:0:0:
64,192,13357,1,8,0:0:0:0:
192,192,13357,1,0,0:0:0:0:
192,192,13641,1,0,0:0:0:0:
320,192,13784,1,0,0:0:0:0:
64,192,13926,1,2,0:0:0:0:
448,192,13926,1,0,0:0:0:0:
192,192,14068,1,0,0:0:0:0:
64,192,14352,1,2,0:0:0:0:
320,192,14495,1,8,0:0:0:0:
448,192,14495,1,0,0:0:0:0:
192,192,14708,1,2,0:0:0:0:
192,192,14921,1,2,0:0:0:0:
320,192,15205,1,2,0:0:0:0:
192,192,15348,1,2,0:0:0:0:
320,192,15490,1,2,0:0:0:0:
64,192,15632,1,8,0:0:0:0:
448,192,15632,1,0,0:0:0:0:
192,192,15774,1,0,0:0:0:0:
320,192,15916,1,0,0:0:0:0:
192,192,16058,1,0,0:0:0:0:
64,192,16201,1,4,0:0:0:0:
448,192,16201,1,2,0:0:0:0:
320,192,16627,1,0,0:0:0:0:
64,192,16769,1,8,0:0:0:0:
192,192,16769,1,0,0:0:0:0:
192,192,17054,1,0,0:0:0:0:
448,192,17196,1,2,0:0:0:0:
192,192,17480,1,2,0:0:0:0:
320,192,17622,1,2,0:0:0:0:
192,192,17765,1,2,0:0:0:0:
64,192,17907,1,8,0:0:0:0:
448,192,17907,1,0,0:0:0:0:
320,192,18049,1,2,0:0:0:0:
192,192,18333,1,2,0:0:0:0:
320,192,18476,1,2,0:0:0:0:
448,192,18476,1,4,0:0:0:0:
320,192,18760,128,2,18902:0:0:0:0:
192,192,18902,128,2,19044:0:0:0:0:
64,192,19044,1,4,0:0:0:0:
448,192,19044,1,8,0:0:0:0:
64,192,19258,1,4,0:0:0:0:
448,192,19258,1,8,0:0:0:0:
64,192,19471,1,4,0:0:0:0:
448,192,19471,1,8,0:0:0:0:
320,192,19613,1,2,0:0:0:0:
192,192,19755,1,2,0:0:0:0:
320,192,19897,1,2,0:0:0:0:
448,192,19897,1,4,0:0:0:0:
192,192,20040,1,2,0:0:0:0:
64,192,20182,1,2,0:0:0:0:
448,192,20182,128,4,20324:0:0:0:0:
320,192,20324,128,2,20466:0:0:0:0:
64,192,20466,1,2,0:0:0:0:
192,192,20466,128,4,20750:0:0:0:0:
320,192,20750,1,2,0:0:0:0:
448,192,20750,1,4,0:0:0:0:
320,192,21177,1,0,0:0:0:0:
64,192,21604,1,0,0:0:0:0:
64,192,21746,1,0,0:0:0:0:
320,192,21888,1,0,0:0:0:70:amenbreak_kick1.wav
192,192,22030,1,0,0:0:0:70:amenbreak_kick1.wav
320,192,22172,1,0,0:0:0:70:amenbreak_snare2.wav
192,192,22314,1,0,0:0:0:70:amenbreak_snare1.wav
448,192,22457,1,2,0:0:0:0:
320,192,22551,1,0,0:0:0:70:amenbreak_snare1.wav
192,192,22646,1,0,0:0:0:70:amenbreak_snare1.wav
64,192,22741,128,0,23025:0:0:0:70:amenbreak_snare1.wav
320,192,23025,1,2,0:0:0:0:
448,192,23025,1,4,0:0:0:0:
192,192,23310,1,8,0:0:0:0:
448,192,23452,1,0,0:0:0:0:
64,192,23736,1,2,0:0:0:0:
192,192,23736,1,0,0:0:0:0:
448,192,23878,1,8,0:0:0:0:
64,192,24021,1,2,0:0:0:0:
320,192,24021,1,0,0:0:0:0:
320,192,24305,1,2,0:0:0:0:
448,192,24305,1,0,0:0:0:0:
64,192,24447,1,8,0:0:0:0:
192,192,24447,1,0,0:0:0:0:
448,192,24589,1,0,0:0:0:70:amenbreak_snare1.wav
320,192,24874,128,2,25016:0:0:0:0:
192,192,25016,128,8,25158:0:0:0:0:
64,192,25158,128,0,25300:0:0:0:70:amenbreak_snare2.wav
320,192,25300,1,2,0:0:0:0:
448,192,25300,1,0,0:0:0:0:
192,192,25585,1,8,0:0:0:0:
320,192,25727,1,0,0:0:0:70:amenbreak_snare1.wav
64,192,26011,1,2,0:0:0:0:
448,192,26011,1,0,0:0:0:0:
320,192,26153,1,8,0:0:0:0:
64,192,26295,1,2,0:0:0:0:
192,192,26295,1,0,0:0:0:0:
64,192,26580,1,2,0:0:0:0:
192,192,26580,1,0,0:0:0:0:
320,192,26722,1,8,0:0:0:0:
448,192,26722,1,0,0:0:0:0:
64,192,27006,1,0,0:0:0:0:
320,192,27149,1,2,0:0:0:0:
448,192,27149,1,0,0:0:0:0:
64,192,27291,1,8,0:0:0:0:
192,192,27291,1,0,0:0:0:0:
320,192,27575,1,4,0:0:0:0:
448,192,27575,1,2,0:0:0:0:
64,192,27859,1,8,0:0:0:0:
448,192,28002,1,0,0:0:0:0:
64,192,28286,1,2,0:0:0:0:
192,192,28286,1,0,0:0:0:0:
320,192,28428,1,8,0:0:0:0:
192,192,28570,1,2,0:0:0:0:
448,192,28570,1,0,0:0:0:0:
64,192,28713,128,0,28855:0:0:0:70:amenbreak_snare2.wav
320,192,28855,128,2,28997:0:0:0:0:
192,192,28997,128,8,29139:0:0:0:0:
64,192,29139,128,0,29281:0:0:0:70:amenbreak_snare1.wav
320,192,29281,1,0,0:0:0:0:
192,192,29423,1,2,0:0:0:0:
448,192,29423,1,0,0:0:0:0:
64,192,29566,1,8,0:0:0:0:
320,192,29708,1,0,0:0:0:70:amenbreak_snare2.wav
64,192,29850,128,2,30063:0:0:0:0:
192,192,29850,128,4,30063:0:0:0:0:
448,192,30063,1,8,0:0:0:0:
192,192,30277,128,2,30490:0:0:0:0:
320,192,30277,128,4,30490:0:0:0:0:
64,192,30490,1,8,0:0:0:0:
320,192,30703,1,2,0:0:0:0:
448,192,30703,1,4,0:0:0:0:
192,192,30845,1,2,0:0:0:0:
64,192,30987,1,2,0:0:0:0:
448,192,30987,1,4,0:0:0:0:
64,192,31272,1,4,0:0:0:0:
448,192,31272,1,2,0:0:0:0:
320,192,31556,128,6,31698:0:0:0:0:
192,192,31698,128,2,31840:0:0:0:0:
448,192,31840,128,6,31983:0:0:0:0:
320,192,31983,128,0,32125:0:0:0:70:amenbreak_kick1.wav
64,192,32125,1,4,0:0:0:0:
192,192,32125,1,2,0:0:0:0:
448,192,32409,1,8,0:0:0:0:
64,192,32551,1,0,0:0:0:0:
320,192,32836,1,2,0:0:0:0:
448,192,32836,1,0,0:0:0:0:
64,192,32978,1,8,0:0:0:0:
192,192,33120,1,2,0:0:0:0:
448,192,33120,1,0,0:0:0:0:
64,192,33404,1,2,0:0:0:0:
320,192,33404,1,0,0:0:0:0:
192,192,33547,1,8,0:0:0:0:
448,192,33547,1,0,0:0:0:0:
64,192,33689,1,0,0:0:0:70:amenbreak_snare1.wav
192,192,33973,128,2,34115:0:0:0:0:
320,192,34115,128,8,34258:0:0:0:0:
448,192,34258,128,0,34400:0:0:0:70:amenbreak_snare2.wav
64,192,34400,1,2,0:0:0:0:
192,192,34400,1,0,0:0:0:0:
320,192,34684,1,8,0:0:0:0:
64,192,34826,1,0,0:0:0:70:amenbreak_snare1.wav
192,192,35111,1,2,0:0:0:0:
448,192,35111,1,0,0:0:0:0:
320,192,35253,1,8,0:0:0:0:
64,192,35395,1,2,0:0:0:0:
448,192,35395,1,0,0:0:0:0:
64,192,35679,1,2,0:0:0:0:
192,192,35679,1,0,0:0:0:0:
320,192,35822,1,8,0:0:0:0:
448,192,35822,1,0,0:0:0:0:
192,192,35964,1,0,0:0:0:0:
64,192,36106,1,2,0:0:0:0:
448,192,36106,1,0,0:0:0:0:
320,192,36248,1,8,0:0:0:0:
64,192,36390,1,2,0:0:0:0:
192,192,36390,1,0,0:0:0:0:
64,192,37101,1,4,0:0:0:0:
448,192,37101,1,2,0:0:0:0:
192,192,37386,1,2,0:0:0:0:
320,192,37386,1,0,0:0:0:0:
448,192,37528,1,0,0:0:0:0:
64,192,37670,1,2,0:0:0:0:
192,192,37670,1,0,0:0:0:0:
320,192,37812,1,0,0:0:0:0:
192,192,37954,1,2,0:0:0:0:
448,192,37954,1,0,0:0:0:0:
64,192,38096,1,8,0:0:0:0:
320,192,38239,1,0,0:0:0:70:amenbreak_snare2.wav
192,192,38381,1,0,0:0:0:0:
448,192,38523,128,2,38665:0:0:0:0:
192,192,38665,128,8,38807:0:0:0:0:
320,192,38807,128,0,38949:0:0:0:0:
64,192,38949,1,4,0:0:0:0:
448,192,38949,1,2,0:0:0:0:
192,192,39092,1,2,0:0:0:0:
320,192,39234,1,2,0:0:0:0:
64,192,39376,1,2,0:0:0:0:
448,192,39376,1,4,0:0:0:0:
64,192,39518,1,2,0:0:0:0:
320,192,39660,1,2,0:0:0:0:
64,192,39803,1,2,0:0:0:0:
320,192,39803,1,4,0:0:0:0:
448,192,39945,1,2,0:0:0:0:
64,192,40087,1,4,0:0:0:0:
192,192,40087,1,2,0:0:0:0:
320,192,40229,1,2,0:0:0:0:
64,192,40371,1,4,0:0:0:0:
448,192,40371,1,2,0:0:0:0:
192,192,40513,1,2,0:0:0:0:
320,192,40656,1,4,0:0:0:0:
448,192,40656,1,2,0:0:0:0:
64,192,40798,1,2,0:0:0:0:
192,192,40798,1,4,0:0:0:0:
64,192,41224,1,4,0:0:0:0:
448,192,41224,1,2,0:0:0:0:
192,192,41651,1,2,0:0:0:0:
320,192,41793,1,0,0:0:0:70:Drum_Rim.wav
192,192,41935,1,0,0:0:0:0:
64,192,42077,1,0,0:0:0:0:
448,192,42220,1,2,0:0:0:0:
192,192,42504,1,2,0:0:0:0:
448,192,42788,1,2,0:0:0:0:
64,192,43073,128,0,43499:0:0:0:0:
192,192,43499,128,2,43784:0:0:0:0:
448,192,43784,1,0,0:0:0:0:
64,192,43926,1,2,0:0:0:0:
320,192,44210,1,0,0:0:0:0:
448,192,44495,128,2,45063:0:0:0:0:
320,192,45063,1,0,0:0:0:0:
192,192,45134,1,0,0:0:0:0:
64,192,45205,128,0,45774:0:0:0:70:Drum_Rim.wav
448,192,45774,128,2,46201:0:0:0:0:
192,192,46201,1,2,0:0:0:0:
320,192,46343,1,0,0:0:0:70:Drum_Rim.wav
64,192,46485,1,0,0:0:0:0:
192,192,46627,1,0,0:0:0:0:
448,192,46769,1,2,0:0:0:0:
64,192,47054,1,2,0:0:0:0:
320,192,47338,1,2,0:0:0:0:
192,192,47622,128,0,48049:0:0:0:0:
448,192,48049,128,2,48333:0:0:0:0:
64,192,48333,1,0,0:0:0:0:
320,192,48476,1,2,0:0:0:0:
192,192,48760,1,0,0:0:0:0:
64,192,49044,1,2,0:0:0:0:
448,192,49329,1,2,0:0:0:0:
320,192,49613,128,0,50040:0:0:0:70:Drum_Rim.wav
64,192,50040,1,2,0:0:0:0:
64,192,50324,1,0,0:0:0:70:LR_J Hit Hollow.wav
448,192,50324,1,0,0:0:0:0:
192,192,50466,1,0,0:0:0:0:
320,192,50608,1,0,0:0:0:0:
192,192,50750,1,0,0:0:0:0:
448,192,51034,1,0,0:0:0:0:
64,192,51177,1,0,0:0:0:0:
192,192,51319,1,0,0:0:0:0:
320,192,51461,1,0,0:0:0:0:
64,192,51651,1,0,0:0:0:0:
448,192,52030,1,0,0:0:0:0:
320,192,52172,1,0,0:0:0:0:
192,192,52314,1,0,0:0:0:0:
320,192,52456,1,0,0:0:0:0:
64,192,52741,1,0,0:0:0:0:
448,192,52883,1,0,0:0:0:0:
192,192,53096,1,0,0:0:0:0:
320,192,53309,1,0,0:0:0:0:
64,192,53451,1,0,0:0:0:0:
448,192,53736,1,0,0:0:0:0:
192,192,53878,1,0,0:0:0:0:
320,192,54020,1,0,0:0:0:0:
448,192,54162,1,0,0:0:0:0:
64,192,54447,1,0,0:0:0:0:
192,192,54589,1,2,0:0:0:0:
448,192,54589,1,4,0:0:0:0:
320,192,54873,1,0,0:0:0:0:
64,192,55015,1,0,0:0:0:0:
448,192,55158,1,8,0:0:0:0:
192,192,55300,1,8,0:0:0:0:
320,192,55442,1,8,0:0:0:0:
64,192,55584,1,4,0:0:0:0:
192,192,55584,1,2,0:0:0:0:
64,192,55726,1,6,0:0:0:0:
320,192,55869,1,4,0:0:0:0:
448,192,55869,1,2,0:0:0:0:
320,192,56011,1,6,0:0:0:0:
64,192,56295,1,4,0:0:0:0:
192,192,56295,1,2,0:0:0:0:
192,192,56437,1,6,0:0:0:0:
320,192,56579,1,4,0:0:0:0:
448,192,56579,1,2,0:0:0:0:
448,192,56722,1,6,0:0:0:0:
320,192,57290,1,4,0:0:0:0:
448,192,57290,1,2,0:0:0:0:
320,192,57433,1,6,0:0:0:0:
64,192,57575,1,4,0:0:0:0:
192,192,57575,1,2,0:0:0:0:
64,192,57717,1,6,0:0:0:0:
320,192,58001,1,4,0:0:0:0:
448,192,58001,1,2,0:0:0:0:
64,192,58214,1,2,0:0:0:0:
320,192,58214,1,4,0:0:0:0:
64,192,58428,1,4,0:0:0:0:
192,192,58428,1,2,0:0:0:0:
448,192,58570,128,0,58854:0:0:0:0:
64,192,58854,128,2,59707:0:0:0:0:
320,192,58854,1,4,0:0:0:0:
192,192,59138,1,0,0:0:0:70:Drum_Rim.wav
448,192,59280,1,0,0:0:0:0:
320,192,59564,1,0,0:0:0:0:
192,192,59707,1,0,0:0:0:70:Drum_Rim.wav
448,192,59849,1,0,0:0:0:0:
64,192,60133,1,0,0:0:0:0:
320,192,60275,1,0,0:0:0:70:Drum_Rim.wav
192,192,60417,1,0,0:0:0:0:
64,192,60560,1,4,0:0:0:0:
448,192,60560,1,2,0:0:0:0:
64,192,60844,1,2,0:0:0:0:
448,192,60844,1,4,0:0:0:0:
320,192,61128,1,4,0:0:0:0:
448,192,61128,1,2,0:0:0:0:
192,192,61413,1,0,0:0:0:70:Drum_Rim.wav
320,192,61555,1,0,0:0:0:0:
448,192,61839,1,0,0:0:0:0:
192,192,61981,1,0,0:0:0:70:Drum_Rim.wav
320,192,62124,1,0,0:0:0:0:
64,192,62408,1,0,0:0:0:0:
448,192,62550,1,0,0:0:0:70:Drum_Rim.wav
192,192,62692,1,0,0:0:0:0:
320,192,62835,1,2,0:0:0:0:
448,192,62835,1,4,0:0:0:0:
64,192,63048,1,4,0:0:0:0:
192,192,63048,1,2,0:0:0:0:
320,192,63261,1,2,0:0:0:0:
448,192,63261,1,4,0:0:0:0:
64,192,63403,1,2,0:0:0:0:
448,192,63403,1,4,0:0:0:0:
320,192,63545,1,6,0:0:0:0:
64,192,63688,1,2,0:0:0:0:
192,192,63688,1,4,0:0:0:0:
320,192,63830,1,6,0:0:0:0:
64,192,63972,1,2,0:0:0:0:
448,192,63972,1,4,0:0:0:0:
192,192,64114,1,6,0:0:0:0:
320,192,64256,1,2,0:0:0:0:
448,192,64256,1,4,0:0:0:0:
192,192,64399,1,6,0:0:0:0:
64,192,64541,1,6,0:0:0:0:
320,192,64683,1,6,0:0:0:0:
192,192,64825,1,6,0:0:0:0:
448,192,64967,1,6,0:0:0:0:
320,192,65109,1,6,0:0:0:0:
192,192,65252,128,0,65678:0:0:0:0:
64,192,65678,1,2,0:0:0:0:
448,192,65678,1,4,0:0:0:0:
64,192,65891,1,4,0:0:0:0:
448,192,65891,1,2,0:0:0:0:
192,192,66105,1,2,0:0:0:0:
320,192,66105,1,4,0:0:0:0:
192,192,66318,1,4,0:0:0:0:
320,192,66318,1,2,0:0:0:0:
64,192,66531,1,2,0:0:0:0:
448,192,66531,1,4,0:0:0:0:
192,192,66673,1,4,0:0:0:0:
320,192,66673,1,2,0:0:0:0:
64,192,68522,1,0,0:0:0:0:
192,192,68806,1,8,0:0:0:0:
320,192,69090,1,2,0:0:0:0:
448,192,69090,1,4,0:0:0:0:
64,192,69375,1,2,0:0:0:0:
192,192,69375,1,8,0:0:0:0:
320,192,69659,1,2,0:0:0:0:
192,192,69801,1,0,0:0:0:0:
64,192,69944,1,2,0:0:0:0:
448,192,69944,1,8,0:0:0:0:
320,192,70086,1,0,0:0:0:0:
192,192,70228,1,2,0:0:0:0:
320,192,70512,1,2,0:0:0:0:
448,192,70512,1,8,0:0:0:0:
64,192,70797,1,2,0:0:0:0:
192,192,70939,1,0,0:0:0:0:
64,192,71081,1,2,0:0:0:0:
448,192,71081,1,8,0:0:0:0:
320,192,71223,1,0,0:0:0:0:
192,192,71365,1,2,0:0:0:0:
64,192,71650,1,2,0:0:0:0:
320,192,71650,1,8,0:0:0:0:
448,192,71792,1,0,0:0:0:0:
192,192,71934,1,2,0:0:0:0:
320,192,72076,1,0,0:0:0:0:
64,192,72218,1,2,0:0:0:0:
448,192,72218,1,8,0:0:0:0:
192,192,72361,1,0,0:0:0:0:
320,192,72503,128,2,72645:0:0:0:0:
64,192,72645,128,0,72787:0:0:0:0:
448,192,72787,128,10,72929:0:0:0:0:
320,192,72929,128,0,73072:0:0:0:0:
64,192,73072,128,2,73214:0:0:0:0:
192,192,73214,128,0,73356:0:0:0:0:
320,192,73356,128,10,73498:0:0:0:0:
448,192,73498,128,0,73640:0:0:0:0:
64,192,73640,1,6,0:0:0:0:
192,192,73640,1,0,0:0:0:70:LR_J Hit Hollow.wav
320,192,73925,1,2,0:0:0:0:
448,192,73925,1,8,0:0:0:0:
192,192,74209,1,2,0:0:0:0:
320,192,74351,1,0,0:0:0:0:
192,192,74493,1,2,0:0:0:0:
448,192,74493,1,8,0:0:0:0:
64,192,74635,1,0,0:0:0:0:
320,192,74778,1,2,0:0:0:0:
192,192,74920,1,0,0:0:0:0:
320,192,75062,1,2,0:0:0:0:
448,192,75062,1,8,0:0:0:0:
64,192,75204,1,0,0:0:0:0:
192,192,75346,1,2,0:0:0:0:
320,192,75489,1,0,0:0:0:0:
64,192,75631,1,2,0:0:0:0:
448,192,75631,1,8,0:0:0:0:
320,192,75773,1,0,0:0:0:0:
192,192,75915,1,2,0:0:0:0:
448,192,76057,128,0,76199:0:0:0:0:
320,192,76199,128,10,76342:0:0:0:0:
64,192,76342,128,0,76484:0:0:0:0:
192,192,76484,128,2,76626:0:0:0:0:
320,192,76626,128,0,76768:0:0:0:0:
192,192,76768,128,10,76910:0:0:0:0:
448,192,76910,128,0,77053:0:0:0:0:
64,192,77053,128,2,77337:0:0:0:0:
192,192,77337,1,10,0:0:0:0:
320,192,77479,128,2,77621:0:0:0:0:
64,192,77621,1,2,0:0:0:0:
448,192,77621,1,4,0:0:0:0:
192,192,77906,1,6,0:0:0:0:
320,192,77906,1,8,0:0:0:0:
64,192,78190,1,2,0:0:0:0:
192,192,78190,1,4,0:0:0:0:
320,192,78474,1,2,0:0:0:0:
448,192,78474,1,8,0:0:0:0:
192,192,78759,1,2,0:0:0:0:
320,192,78901,1,0,0:0:0:0:
64,192,79043,1,2,0:0:0:0:
448,192,79043,1,8,0:0:0:0:
192,192,79185,1,0,0:0:0:0:
320,192,79327,1,2,0:0:0:0:
64,192,79612,1,2,0:0:0:0:
192,192,79612,1,8,0:0:0:0:
448,192,79896,1,2,0:0:0:0:
320,192,80038,1,0,0:0:0:0:
64,192,80181,1,2,0:0:0:0:
448,192,80181,1,8,0:0:0:0:
192,192,80323,1,0,0:0:0:0:
320,192,80465,1,2,0:0:0:0:
192,192,80749,1,2,0:0:0:0:
448,192,80749,1,8,0:0:0:0:
64,192,80891,1,0,0:0:0:0:
320,192,81034,1,2,0:0:0:0:
192,192,81176,1,0,0:0:0:0:
64,192,81318,1,2,0:0:0:0:
448,192,81318,1,8,0:0:0:0:
320,192,81460,1,0,0:0:0:0:
192,192,81602,1,2,0:0:0:0:
448,192,81744,1,0,0:0:0:0:
64,192,81887,1,10,0:0:0:0:
192,192,82029,1,0,0:0:0:0:
320,192,82171,1,2,0:0:0:0:
448,192,82171,1,0,0:0:0:0:
320,192,82313,1,2,0:0:0:0:
64,192,82455,1,2,0:0:0:0:
192,192,82455,1,8,0:0:0:0:
192,192,82598,1,2,0:0:0:0:
320,192,82740,1,2,0:0:0:0:
448,192,82740,1,4,0:0:0:0:
64,192,83024,1,8,0:0:0:0:
192,192,83166,1,2,0:0:0:0:
448,192,83166,1,4,0:0:0:0:
320,192,83451,1,10,0:0:0:0:
64,192,83593,1,2,0:0:0:0:
192,192,83593,1,4,0:0:0:0:
320,192,83877,1,2,0:0:0:0:
448,192,83877,1,4,0:0:0:0:
64,192,84162,1,8,0:0:0:0:
192,192,84304,1,4,0:0:0:0:
320,192,84304,1,2,0:0:0:0:
448,192,84588,1,10,0:0:0:0:
64,192,84730,1,4,0:0:0:0:
320,192,84730,1,2,0:0:0:0:
64,192,85015,1,2,0:0:0:0:
192,192,85015,1,4,0:0:0:0:
320,192,85228,1,2,0:0:0:0:
448,192,85228,1,4,0:0:0:0:
192,192,85441,1,4,0:0:0:0:
320,192,85441,1,2,0:0:0:0:
64,192,85654,1,4,0:0:0:0:
192,192,85654,1,2,0:0:0:0:
320,192,85868,1,2,0:0:0:0:
448,192,85868,128,0,86152:0:0:0:0:
192,192,86152,1,0,0:0:0:70:amenbreak_snare1.wav
320,192,86294,1,0,0:0:0:70:amenbreak_snare1.wav
192,192,86436,1,0,0:0:0:70:amenbreak_snare1.wav
320,192,86579,1,0,0:0:0:70:amenbreak_snare1.wav
64,192,86721,128,0,87005:0:0:0:70:amenbreak_snare1.wav
448,192,87005,1,0,0:0:0:70:amenbreak_snare1.wav
64,192,87290,1,2,0:0:0:0:
448,192,87290,1,4,0:0:0:0:
320,192,87503,1,0,0:0:0:0:
64,192,87716,1,0,0:0:0:0:
320,192,87929,1,0,0:0:0:0:
64,192,88143,1,10,0:0:0:0:
192,192,88285,1,0,0:0:0:0:
320,192,88427,1,2,0:0:0:0:
64,192,88569,1,0,0:0:0:0:
448,192,88711,1,10,0:0:0:0:
192,192,88854,1,0,0:0:0:0:
320,192,89138,1,0,0:0:0:0:
192,192,89280,1,10,0:0:0:0:
448,192,89422,1,0,0:0:0:0:
320,192,89564,1,2,0:0:0:0:
64,192,89707,1,0,0:0:0:0:
192,192,89849,1,10,0:0:0:0:
320,192,89991,1,0,0:0:0:0:
64,192,90133,1,2,0:0:0:0:
192,192,90275,1,0,0:0:0:0:
320,192,90417,1,10,0:0:0:0:
64,192,90560,1,0,0:0:0:0:
448,192,90702,1,2,0:0:0:0:
64,192,90844,1,0,0:0:0:0:
320,192,90986,1,10,0:0:0:0:
192,192,91128,1,0,0:0:0:0:
320,192,91271,1,2,0:0:0:0:
64,192,91413,1,0,0:0:0:0:
192,192,91555,1,10,0:0:0:0:
320,192,91697,1,2,0:0:0:0:
64,192,91839,128,2,92124:0:0:0:0:
448,192,91839,1,0,0:0:0:0:
192,192,92124,1,10,0:0:0:0:
320,192,92266,1,0,0:0:0:0:
448,192,92408,128,2,92621:0:0:0:0:
192,192,92621,1,0,0:0:0:0:
320,192,92763,1,0,0:0:0:0:
64,192,92977,1,2,0:0:0:0:
192,192,93119,1,0,0:0:0:0:
448,192,93261,1,10,0:0:0:0:
320,192,93403,1,0,0:0:0:0:
192,192,93545,1,2,0:0:0:0:
448,192,93830,1,10,0:0:0:0:
64,192,93972,1,2,0:0:0:0:
320,192,94114,1,2,0:0:0:0:
448,192,94114,1,4,0:0:0:0:
64,192,94304,1,2,0:0:0:0:
192,192,94304,1,0,0:0:0:0:
320,192,94493,1,2,0:0:0:0:
448,192,94493,1,0,0:0:0:0:
64,192,94683,128,6,94825:0:0:0:0:
192,192,94825,128,2,94967:0:0:0:0:
320,192,94967,128,6,95109:0:0:0:0:
448,192,95109,128,2,95252:0:0:0:0:
64,192,95252,1,2,0:0:0:0:
192,192,95252,1,4,0:0:0:0:
320,192,95465,1,6,0:0:0:0:
192,192,95678,1,6,0:0:0:0:
320,192,95820,1,2,0:0:0:0:
448,192,95820,1,4,0:0:0:0:
192,192,96105,1,0,0:0:0:0:
320,192,96247,1,0,0:0:0:0:
64,192,96389,128,0,96673:0:0:0:0:
448,192,96673,1,14,0:0:0:0:
192,192,96816,1,0,0:0:0:0:
320,192,97100,1,0,0:0:0:0:
64,192,97242,1,10,0:0:0:0:
448,192,97384,1,2,0:0:0:0:
192,192,97669,1,2,0:0:0:0:
320,192,97953,1,0,0:0:0:0:
64,192,98095,1,2,0:0:0:0:
448,192,98237,128,0,98664:0:0:0:0:
64,192,98664,1,6,0:0:0:0:
192,192,98806,1,0,0:0:0:0:
320,192,98948,1,10,0:0:0:0:
192,192,99090,1,0,0:0:0:0:
448,192,99233,1,2,0:0:0:0:
64,192,99375,1,2,0:0:0:0:
320,192,99517,1,10,0:0:0:0:
192,192,99659,1,6,0:0:0:0:
192,192,99944,1,6,0:0:0:0:
320,192,100157,1,6,0:0:0:0:
448,192,100370,1,6,0:0:0:0:
64,192,100654,1,8,0:0:0:0:
192,192,100654,1,0,0:0:0:0:
320,192,100797,1,0,0:0:0:0:
192,192,100939,1,6,0:0:0:0:
448,192,101081,1,0,0:0:0:0:
320,192,101223,1,10,0:0:0:0:
64,192,101365,1,0,0:0:0:0:
192,192,101508,1,2,0:0:0:0:
320,192,101650,1,0,0:0:0:0:
64,192,101934,1,2,0:0:0:0:
448,192,102218,128,0,102503:0:0:0:0:
192,192,102503,1,0,0:0:0:0:
320,192,102645,1,2,0:0:0:0:
64,192,102787,128,2,103072:0:0:0:0:
320,192,103072,1,2,0:0:0:0:
192,192,103214,128,6,104067:0:0:0:0:
448,192,104067,1,2,0:0:0:0:
64,192,104351,1,2,0:0:0:0:
192,192,104493,1,2,0:0:0:0:
320,192,104635,1,2,0:0:0:0:
448,192,104778,1,2,0:0:0:0:
192,192,104920,1,2,0:0:0:0:
64,192,105062,1,2,0:0:0:0:
448,192,105204,1,2,0:0:0:0:
320,192,105346,1,2,0:0:0:0:
192,192,105489,1,6,0:0:0:0:
64,192,105631,1,2,0:0:0:0:
320,192,105773,1,2,0:0:0:0:
448,192,105915,1,2,0:0:0:0:
64,192,106057,1,2,0:0:0:0:
192,192,106199,1,2,0:0:0:0:
320,192,106342,1,2,0:0:0:0:
448,192,106484,1,2,0:0:0:0:
192,192,106626,128,2,106768:0:0:0:0:
64,192,106768,128,2,106910:0:0:0:0:
448,192,106910,128,2,107053:0:0:0:0:
320,192,107053,128,2,107195:0:0:0:0:
64,192,107195,1,2,0:0:0:0:
192,192,107195,1,0,0:0:0:0:
64,192,108901,1,0,0:0:0:70:LR_J Hit Hollow.wav
448,192,108901,1,0,0:0:0:70:LR_J Hit Edge F.wav
320,192,109185,1,0,0:0:0:0:
192,192,109327,1,0,0:0:0:0:
448,192,109612,1,0,0:0:0:0:
320,192,109754,1,0,0:0:0:0:
64,192,109896,1,0,0:0:0:0:
192,192,110323,1,0,0:0:0:0:
320,192,110465,1,0,0:0:0:0:
448,192,110749,1,0,0:0:0:0:
64,192,111176,128,2,112455:0:0:0:0:
448,192,111176,1,4,0:0:0:0:
320,192,111460,1,8,0:0:0:0:
448,192,111460,1,0,0:0:0:0:
448,192,111887,1,2,0:0:0:0:
448,192,112171,1,2,0:0:0:0:
448,192,112455,1,2,0:0:0:0:
320,192,112526,1,2,0:0:0:0:
64,192,112598,1,8,0:0:0:0:
192,192,112598,1,0,0:0:0:0:
320,192,112740,1,0,0:0:0:70:amenbreak_snare1.wav
192,192,112882,1,0,0:0:0:0:
448,192,113024,1,2,0:0:0:0:
64,192,113166,1,8,0:0:0:0:
448,192,113308,1,8,0:0:0:0:
64,192,113451,1,2,0:0:0:0:
192,192,113451,1,0,0:0:0:0:
320,192,113593,1,0,0:0:0:0:
192,192,113735,1,8,0:0:0:0:
448,192,113877,1,0,0:0:0:70:amenbreak_snare1.wav
64,192,114162,1,2,0:0:0:0:
192,192,114304,1,8,0:0:0:0:
320,192,114446,1,2,0:0:0:0:
448,192,114730,1,2,0:0:0:0:
64,192,114872,1,8,0:0:0:0:
320,192,115015,1,0,0:0:0:0:
192,192,115299,1,2,0:0:0:0:
320,192,115441,1,8,0:0:0:0:
448,192,115583,1,0,0:0:0:0:
64,192,115726,1,2,0:0:0:0:
192,192,116010,1,8,0:0:0:0:
448,192,116152,1,0,0:0:0:0:
320,192,116436,1,2,0:0:0:0:
192,192,116579,1,8,0:0:0:0:
64,192,116721,1,0,0:0:0:0:
320,192,117005,1,4,0:0:0:0:
448,192,117005,1,2,0:0:0:0:
64,192,117290,1,8,0:0:0:0:
192,192,117432,1,4,0:0:0:0:
448,192,117432,1,2,0:0:0:0:
320,192,117574,1,8,0:0:0:0:
192,192,117716,1,2,0:0:0:0:
64,192,118000,1,2,0:0:0:0:
448,192,118000,1,4,0:0:0:0:
320,192,118285,1,8,0:0:0:0:
192,192,118427,1,0,0:0:0:0:
320,192,118569,1,8,0:0:0:0:
448,192,118569,1,0,0:0:0:0:
64,192,118711,1,0,0:0:0:0:
192,192,118854,1,0,0:0:0:0:
320,192,118996,1,2,0:0:0:0:
448,192,118996,1,0,0:0:0:0:
64,192,119280,1,2,0:0:0:0:
192,192,119280,1,0,0:0:0:0:
320,192,119422,1,0,0:0:0:0:
192,192,119564,1,0,0:0:0:0:
64,192,119707,1,8,0:0:0:0:
448,192,119707,1,0,0:0:0:0:
320,192,119849,1,0,0:0:0:0:
192,192,119991,1,0,0:0:0:0:
320,192,120133,1,0,0:0:0:0:
64,192,120275,1,2,0:0:0:0:
448,192,120275,1,0,0:0:0:0:
192,192,120417,1,8,0:0:0:0:
320,192,120560,1,0,0:0:0:0:
64,192,120702,1,2,0:0:0:0:
448,192,120702,1,0,0:0:0:0:
320,192,120844,1,8,0:0:0:0:
64,192,121057,1,2,0:0:0:0:
192,192,121057,1,0,0:0:0:0:
64,192,121271,1,2,0:0:0:0:
192,192,121271,1,0,0:0:0:0:
320,192,121555,1,2,0:0:0:0:
448,192,121555,1,0,0:0:0:0:
192,192,121697,1,2,0:0:0:0:
64,192,121839,1,2,0:0:0:0:
448,192,121839,1,0,0:0:0:0:
192,192,121981,1,8,0:0:0:0:
320,192,121981,1,0,0:0:0:0:
448,192,122266,1,0,0:0:0:0:
64,192,122550,128,4,123119:0:0:0:0:
192,192,122550,1,2,0:0:0:0:
448,192,123119,1,8,0:0:0:0:
320,192,123261,1,0,0:0:0:0:
64,192,123403,1,0,0:0:0:0:
192,192,123545,1,2,0:0:0:0:
448,192,123545,1,0,0:0:0:0:
64,192,123830,1,2,0:0:0:0:
320,192,123830,1,0,0:0:0:0:
448,192,123972,1,2,0:0:0:0:
192,192,124114,1,2,0:0:0:0:
64,192,124399,128,2,124683:0:0:0:0:
320,192,124683,1,2,0:0:0:0:
448,192,124683,1,0,0:0:0:0:
64,192,124825,1,2,0:0:0:0:
192,192,124825,1,4,0:0:0:0:
448,192,124967,1,2,0:0:0:0:
192,192,125109,1,2,0:0:0:0:
320,192,125109,1,0,0:0:0:0:
64,192,125252,1,2,0:0:0:0:
448,192,125252,1,4,0:0:0:0:
192,192,125536,1,2,0:0:0:0:
320,192,125536,1,4,0:0:0:0:
64,192,125820,1,2,0:0:0:0:
448,192,125820,1,4,0:0:0:0:
192,192,126105,1,2,0:0:0:0:
320,192,126105,1,4,0:0:0:0:
448,192,126247,1,2,0:0:0:0:
64,192,126389,1,6,0:0:0:0:
192,192,126531,1,2,0:0:0:0:
448,192,126531,1,4,0:0:0:0:
320,192,126673,1,2,0:0:0:0:
64,192,126816,1,4,0:0:0:0:
192,192,126816,1,2,0:0:0:0:
448,192,126958,1,2,0:0:0:0:
64,192,127100,128,2,131650:0:0:0:0:
320,192,127100,1,4,0:0:0:0:
