osu file format v14

[General]
AudioFilename: audio.mp3
AudioLeadIn: 0
PreviewTime: 80462
Countdown: 0
SampleSet: Normal
StackLeniency: 0.7
Mode: 1
LetterboxInBreaks: 0
WidescreenStoryboard: 1

[Editor]
Bookmarks: 2662,49364
DistanceSpacing: 0.5
BeatDivisor: 4
GridSize: 32
TimelineZoom: 3.499999

[Metadata]
Title:Avalanx
TitleUnicode:Avalanx
Artist:Tonari no Niwa wa Aoi (NIWASHI + Aoi)
ArtistUnicode:隣の庭は青い (庭師 + Aoi)
Creator:Dusk-
Version:NOVICE
Source:SOUND VOLTEX EXCEED GEAR
Tags:sdvx eg hexadiver 10th KAC オリジナル楽曲コンテスト konami bemani arcade championship electronic instrumental uone cynplytholowazy m2p#3 mapping to pander: taiko #3 video game vgm
BeatmapID:3837683
BeatmapSetID:1865731

[Difficulty]
HPDrainRate:7
CircleSize:5
OverallDifficulty:4
ApproachRate:9
SliderMultiplier:1.4
SliderTickRate:1

[Events]
//Background and Video events
0,0,"avalanx.jpg",0,0
//Break Periods
//Storyboard Layer 0 (Background)
//Storyboard Layer 1 (Fail)
//Storyboard Layer 2 (Pass)
//Storyboard Layer 3 (Foreground)
//Storyboard Layer 4 (Overlay)
//Storyboard Sound Samples

[TimingPoints]
71,324.324324324324,4,1,0,100,1,0
28611,-100,4,1,0,100,0,1
33070,-100,4,1,0,100,0,0
38989,-100,4,1,0,100,0,1
41260,-100,4,1,0,100,0,0
41908,-100,4,1,0,100,0,1
43530,-100,4,1,0,100,0,0
46773,-100,4,1,0,100,0,1
49043,-100,4,1,0,100,0,0
80503,-100,4,1,0,100,0,1
100611,-100,4,1,0,100,0,0
116827,-100,4,1,0,100,0,1
121854,-100,4,1,0,100,0,0
121895,-100,4,1,0,50,0,0

[HitObjects]
256,192,2665,5,8,0:0:0:0:
256,192,3152,1,8,0:0:0:0:
256,192,3638,1,0,0:0:0:0:
256,192,4611,1,0,0:0:0:0:
256,192,4935,1,0,0:0:0:0:
256,192,5260,1,8,0:0:0:0:
256,192,5746,1,8,0:0:0:0:
256,192,6233,1,0,0:0:0:0:
256,192,7854,1,8,0:0:0:0:
256,192,8341,1,0,0:0:0:0:
256,192,8827,1,8,0:0:0:0:
256,192,9800,1,8,0:0:0:0:
256,192,10449,1,0,0:0:0:0:
256,192,10935,1,8,0:0:0:0:
256,192,11422,1,0,0:0:0:0:
256,192,12070,1,8,0:0:0:0:
256,192,12395,1,8,0:0:0:0:
256,192,12719,1,8,0:0:0:0:
256,192,13043,1,4,0:0:0:0:
256,192,13530,1,0,0:0:0:0:
256,192,13692,1,8,0:0:0:0:
256,192,14341,1,0,0:0:0:0:
256,192,14827,1,0,0:0:0:0:
256,192,14989,1,8,0:0:0:0:
256,192,15152,1,0,0:0:0:0:
256,192,15638,1,0,0:0:0:0:
256,192,16125,1,0,0:0:0:0:
256,192,16287,1,8,0:0:0:0:
256,192,16935,1,0,0:0:0:0:
256,192,17422,1,0,0:0:0:0:
256,192,17584,1,8,0:0:0:0:
256,192,17746,1,0,0:0:0:0:
256,192,18233,1,0,0:0:0:0:
256,192,18719,1,0,0:0:0:0:
256,192,18881,1,8,0:0:0:0:
256,192,19206,1,0,0:0:0:0:
256,192,19692,1,8,0:0:0:0:
256,192,20016,1,0,0:0:0:0:
256,192,20179,1,8,0:0:0:0:
256,192,20827,1,4,0:0:0:0:
256,192,21152,1,8,0:0:0:0:
256,192,21476,1,0,0:0:0:0:
256,192,21638,1,8,0:0:0:0:
256,192,21800,1,0,0:0:0:0:
256,192,22125,1,12,0:0:0:0:
256,192,22449,1,0,0:0:0:0:
256,192,22773,1,8,0:0:0:0:
256,192,22935,1,0,0:0:0:0:
256,192,23098,1,8,0:0:0:0:
256,192,23422,1,4,0:0:0:0:
256,192,23746,1,8,0:0:0:0:
256,192,24070,1,0,0:0:0:0:
256,192,24233,1,0,0:0:0:0:
256,192,24395,1,8,0:0:0:0:
256,192,24557,1,8,0:0:0:0:
256,192,24719,1,0,0:0:0:0:
256,192,25043,1,0,0:0:0:0:
256,192,25368,1,8,0:0:0:0:
256,192,26016,12,0,27962,0:0:0:0:
256,192,28611,5,4,0:0:0:0:
256,192,28935,1,0,0:0:0:0:
256,192,29098,1,0,0:0:0:0:
256,192,29260,1,8,0:0:0:0:
256,192,29584,1,0,0:0:0:0:
256,192,29746,1,8,0:0:0:0:
256,192,29908,1,0,0:0:0:0:
256,192,30070,1,0,0:0:0:0:
256,192,30233,1,8,0:0:0:0:
256,192,30557,1,0,0:0:0:0:
256,192,30719,1,8,0:0:0:0:
256,192,31206,1,0,0:0:0:0:
256,192,31530,1,8,0:0:0:0:
256,192,31692,1,0,0:0:0:0:
256,192,31854,1,8,0:0:0:0:
256,192,32016,1,0,0:0:0:0:
256,192,32341,1,8,0:0:0:0:
256,192,32503,1,0,0:0:0:0:
256,192,32665,1,0,0:0:0:0:
256,192,32827,1,8,0:0:0:0:
256,192,32989,1,0,0:0:0:0:
256,192,33314,1,8,0:0:0:0:
256,192,33800,1,4,0:0:0:0:
256,192,34449,1,8,0:0:0:0:
256,192,34773,1,8,0:0:0:0:
256,192,34935,1,0,0:0:0:0:
256,192,35098,1,0,0:0:0:0:
256,192,35422,1,8,0:0:0:0:
256,192,35746,1,8,0:0:0:0:
256,192,35908,1,8,0:0:0:0:
256,192,36070,1,0,0:0:0:0:
256,192,36395,1,8,0:0:0:0:
256,192,36719,1,0,0:0:0:0:
256,192,36881,1,8,0:0:0:0:
256,192,37206,1,0,0:0:0:0:
256,192,37368,1,8,0:0:0:0:
256,192,37530,1,8,0:0:0:0:
256,192,37692,1,0,0:0:0:0:
256,192,38016,1,8,0:0:0:0:
256,192,38341,1,0,0:0:0:0:
256,192,38503,1,0,0:0:0:0:
256,192,38989,1,4,0:0:0:0:
256,192,39314,1,8,0:0:0:0:
256,192,39557,1,0,0:0:0:0:
256,192,39962,1,8,0:0:0:0:
256,192,40206,1,0,0:0:0:0:
256,192,40611,1,8,0:0:0:0:
256,192,40854,1,0,0:0:0:0:
256,192,41908,1,4,0:0:0:0:
256,192,42233,1,8,0:0:0:0:
256,192,42395,1,8,0:0:0:0:
256,192,42557,1,0,0:0:0:0:
256,192,42881,1,0,0:0:0:0:
256,192,43043,1,8,0:0:0:0:
256,192,43206,1,0,0:0:0:0:
256,192,43368,1,0,0:0:0:0:
256,192,43530,1,8,0:0:0:0:
256,192,44179,1,0,0:0:0:0:
256,192,44503,1,12,0:0:0:0:
256,192,44827,1,0,0:0:0:0:
256,192,44989,1,8,0:0:0:0:
256,192,45152,1,0,0:0:0:0:
256,192,45476,1,8,0:0:0:0:
256,192,45638,1,8,0:0:0:0:
256,192,45800,1,0,0:0:0:0:
256,192,46125,1,0,0:0:0:0:
256,192,46449,1,8,0:0:0:0:
256,192,46773,1,0,0:0:0:0:
256,192,46935,1,0,0:0:0:0:
256,192,47098,1,0,0:0:0:0:
256,192,47422,1,8,0:0:0:0:
256,192,47584,1,8,0:0:0:0:
256,192,47746,1,8,0:0:0:0:
256,192,48070,1,8,0:0:0:0:
256,192,48233,1,0,0:0:0:0:
256,192,48395,1,8,0:0:0:0:
256,192,48557,1,0,0:0:0:0:
256,192,48719,1,8,0:0:0:0:
256,192,48881,1,8,0:0:0:0:
256,192,49368,1,4,0:0:0:0:
256,192,50016,1,8,0:0:0:0:
256,192,51314,1,8,0:0:0:0:
256,192,51638,1,0,0:0:0:0:
256,192,51962,1,8,0:0:0:0:
256,192,52611,1,0,0:0:0:0:
256,192,54557,1,0,0:0:0:0:
256,192,55206,1,8,0:0:0:0:
256,192,55854,1,0,0:0:0:0:
256,192,56503,1,8,0:0:0:0:
256,192,56827,1,8,0:0:0:0:
256,192,57152,1,0,0:0:0:0:
256,192,57476,1,0,0:0:0:0:
256,192,57800,1,8,0:0:0:0:
256,192,58449,1,8,0:0:0:0:
256,192,58773,1,0,0:0:0:0:
256,192,59098,1,8,0:0:0:0:
256,192,59746,1,4,0:0:0:0:
256,192,60233,1,0,0:0:0:0:
256,192,60395,1,8,0:0:0:0:
256,192,60719,1,8,0:0:0:0:
256,192,61043,1,0,0:0:0:0:
256,192,61530,1,0,0:0:0:0:
256,192,61692,1,8,0:0:0:0:
256,192,62016,1,8,0:0:0:0:
256,192,62179,1,8,0:0:0:0:
256,192,62341,1,0,0:0:0:0:
256,192,62665,1,8,0:0:0:0:
256,192,62827,1,0,0:0:0:0:
256,192,63152,1,0,0:0:0:0:
256,192,63314,1,8,0:0:0:0:
256,192,63638,1,0,0:0:0:0:
256,192,64125,1,8,0:0:0:0:
256,192,64287,1,0,0:0:0:0:
256,192,64935,1,0,0:0:0:0:
256,192,65098,1,0,0:0:0:0:
256,192,65422,1,0,0:0:0:0:
256,192,65908,1,0,0:0:0:0:
256,192,66070,1,0,0:0:0:0:
256,192,66395,1,0,0:0:0:0:
256,192,66881,1,0,0:0:0:0:
256,192,67043,1,0,0:0:0:0:
256,192,67368,1,0,0:0:0:0:
256,192,67530,1,8,0:0:0:0:
256,192,67692,1,0,0:0:0:0:
256,192,67854,1,0,0:0:0:0:
256,192,68179,1,8,0:0:0:0:
256,192,68341,1,0,0:0:0:0:
256,192,68503,1,8,0:0:0:0:
256,192,68827,1,0,0:0:0:0:
256,192,69152,1,8,0:0:0:0:
256,192,69314,1,0,0:0:0:0:
256,192,69638,1,0,0:0:0:0:
256,192,69800,1,8,0:0:0:0:
256,192,69962,1,8,0:0:0:0:
256,192,70125,5,4,0:0:0:0:
256,192,71098,1,8,0:0:0:0:
256,192,72719,5,8,0:0:0:0:
256,192,73692,1,0,0:0:0:0:
256,192,74665,1,8,0:0:0:0:
256,192,74989,1,8,0:0:0:0:
256,192,75314,5,4,0:0:0:0:
256,192,75962,1,8,0:0:0:0:
256,192,76611,1,4,0:0:0:0:
256,192,77260,1,8,0:0:0:0:
256,192,77584,1,8,0:0:0:0:
256,192,77908,1,4,0:0:0:0:
256,192,78557,1,8,0:0:0:0:
256,192,79206,1,0,0:0:0:0:
256,192,79530,1,0,0:0:0:0:
256,192,79854,1,8,0:0:0:0:
256,192,80179,1,8,0:0:0:0:
256,192,80341,1,8,0:0:0:0:
256,192,80503,1,4,0:0:0:0:
256,192,80827,1,8,0:0:0:0:
256,192,80989,1,0,0:0:0:0:
256,192,81314,1,0,0:0:0:0:
256,192,81476,1,8,0:0:0:0:
256,192,81638,1,0,0:0:0:0:
256,192,81962,1,0,0:0:0:0:
256,192,82125,1,8,0:0:0:0:
256,192,82449,1,0,0:0:0:0:
256,192,82611,1,0,0:0:0:0:
256,192,82773,1,8,0:0:0:0:
256,192,82935,1,8,0:0:0:0:
256,192,83098,1,0,0:0:0:0:
256,192,83422,1,8,0:0:0:0:
256,192,83584,1,0,0:0:0:0:
256,192,84070,1,8,0:0:0:0:
256,192,84233,1,0,0:0:0:0:
256,192,84557,1,0,0:0:0:0:
256,192,84719,1,8,0:0:0:0:
256,192,84881,1,8,0:0:0:0:
256,192,85043,1,0,0:0:0:0:
256,192,85692,1,0,0:0:0:0:
256,192,85854,1,0,0:0:0:0:
256,192,86016,1,8,0:0:0:0:
256,192,86179,1,0,0:0:0:0:
256,192,86503,1,8,0:0:0:0:
256,192,86665,1,8,0:0:0:0:
256,192,86827,1,0,0:0:0:0:
256,192,87152,1,0,0:0:0:0:
256,192,87314,1,8,0:0:0:0:
256,192,87476,1,0,0:0:0:0:
256,192,87800,1,8,0:0:0:0:
256,192,87962,1,8,0:0:0:0:
256,192,88125,1,0,0:0:0:0:
256,192,88287,1,8,0:0:0:0:
256,192,88611,1,0,0:0:0:0:
256,192,88773,1,8,0:0:0:0:
256,192,89260,1,0,0:0:0:0:
256,192,89422,1,8,0:0:0:0:
256,192,89908,1,8,0:0:0:0:
256,192,90070,1,0,0:0:0:0:
256,192,90233,1,8,0:0:0:0:
256,192,90557,1,0,0:0:0:0:
256,192,90719,1,8,0:0:0:0:
256,192,90881,1,4,0:0:0:0:
256,192,91206,1,8,0:0:0:0:
256,192,91368,1,0,0:0:0:0:
256,192,91692,1,0,0:0:0:0:
256,192,91854,1,8,0:0:0:0:
256,192,92016,1,8,0:0:0:0:
256,192,92341,1,0,0:0:0:0:
256,192,92503,1,8,0:0:0:0:
256,192,92665,1,8,0:0:0:0:
256,192,92827,1,0,0:0:0:0:
256,192,93152,1,8,0:0:0:0:
256,192,93314,1,0,0:0:0:0:
256,192,93476,1,8,0:0:0:0:
256,192,93800,1,8,0:0:0:0:
256,192,93962,1,8,0:0:0:0:
256,192,94287,1,0,0:0:0:0:
256,192,94449,1,8,0:0:0:0:
256,192,94611,1,8,0:0:0:0:
256,192,94773,1,0,0:0:0:0:
256,192,95422,1,0,0:0:0:0:
256,192,95584,1,8,0:0:0:0:
256,192,95746,1,0,0:0:0:0:
256,192,95908,1,0,0:0:0:0:
256,192,96070,1,8,0:0:0:0:
256,192,96395,1,0,0:0:0:0:
256,192,96557,1,8,0:0:0:0:
256,192,96881,1,8,0:0:0:0:
256,192,97043,1,0,0:0:0:0:
256,192,97206,1,8,0:0:0:0:
256,192,97530,1,0,0:0:0:0:
256,192,97692,1,8,0:0:0:0:
256,192,97854,1,8,0:0:0:0:
256,192,98179,1,8,0:0:0:0:
256,192,98341,1,0,0:0:0:0:
256,192,98503,1,0,0:0:0:0:
256,192,98665,1,8,0:0:0:0:
256,192,99152,1,0,0:0:0:0:
256,192,99314,1,8,0:0:0:0:
256,192,99476,1,0,0:0:0:0:
256,192,99638,1,8,0:0:0:0:
256,192,99962,1,0,0:0:0:0:
256,192,100206,1,0,0:0:0:0:
256,192,100449,1,8,0:0:0:0:
256,192,101260,1,4,0:0:0:0:
256,192,101584,1,8,0:0:0:0:
256,192,101746,1,0,0:0:0:0:
256,192,102233,1,8,0:0:0:0:
256,192,102557,1,0,0:0:0:0:
256,192,102881,1,8,0:0:0:0:
256,192,103206,1,8,0:0:0:0:
256,192,103368,1,0,0:0:0:0:
256,192,103530,1,8,0:0:0:0:
256,192,103854,1,0,0:0:0:0:
256,192,104179,1,8,0:0:0:0:
256,192,104341,1,0,0:0:0:0:
256,192,104665,1,0,0:0:0:0:
256,192,104827,1,8,0:0:0:0:
256,192,105152,1,0,0:0:0:0:
256,192,105314,1,0,0:0:0:0:
256,192,105476,1,0,0:0:0:0:
256,192,105800,1,8,0:0:0:0:
256,192,106449,1,4,0:0:0:0:
256,192,106773,1,8,0:0:0:0:
256,192,106935,1,0,0:0:0:0:
256,192,107260,1,0,0:0:0:0:
256,192,107422,1,8,0:0:0:0:
256,192,107746,1,8,0:0:0:0:
256,192,107908,1,8,0:0:0:0:
256,192,108395,1,8,0:0:0:0:
256,192,108719,1,8,0:0:0:0:
256,192,108881,1,8,0:0:0:0:
256,192,109043,1,0,0:0:0:0:
256,192,109368,1,0,0:0:0:0:
256,192,109530,1,8,0:0:0:0:
256,192,110016,1,8,0:0:0:0:
256,192,110179,1,0,0:0:0:0:
256,192,110503,1,0,0:0:0:0:
256,192,110665,1,8,0:0:0:0:
256,192,110827,1,8,0:0:0:0:
256,192,111152,1,0,0:0:0:0:
256,192,111314,1,8,0:0:0:0:
256,192,111476,1,8,0:0:0:0:
256,192,111638,1,4,0:0:0:0:
256,192,112287,1,8,0:0:0:0:
256,192,112530,1,8,0:0:0:0:
256,192,112773,1,0,0:0:0:0:
256,192,113260,1,0,0:0:0:0:
256,192,113422,1,0,0:0:0:0:
256,192,113584,1,8,0:0:0:0:
256,192,113908,1,8,0:0:0:0:
256,192,114070,1,8,0:0:0:0:
256,192,114233,1,0,0:0:0:0:
256,192,114719,1,0,0:0:0:0:
256,192,114881,1,8,0:0:0:0:
256,192,115206,1,8,0:0:0:0:
256,192,115368,1,0,0:0:0:0:
256,192,115692,1,8,0:0:0:0:
256,192,115854,1,0,0:0:0:0:
256,192,116016,1,0,0:0:0:0:
256,192,116179,1,8,0:0:0:0:
256,192,116827,1,4,0:0:0:0:
256,192,117152,1,8,0:0:0:0:
256,192,117314,1,0,0:0:0:0:
256,192,117638,1,8,0:0:0:0:
256,192,117800,1,0,0:0:0:0:
256,192,118125,1,8,0:0:0:0:
256,192,118287,1,0,0:0:0:0:
256,192,118773,1,0,0:0:0:0:
256,192,118935,1,0,0:0:0:0:
256,192,119098,1,8,0:0:0:0:
256,192,119260,1,8,0:0:0:0:
256,192,119422,1,0,0:0:0:0:
256,192,119746,1,0,0:0:0:0:
256,192,119908,1,8,0:0:0:0:
256,192,120233,1,8,0:0:0:0:
256,192,120395,1,0,0:0:0:0:
256,192,120719,1,8,0:0:0:0:
256,192,120881,1,8,0:0:0:0:
256,192,121206,1,8,0:0:0:0:
256,192,121368,1,0,0:0:0:0:
256,192,121530,1,8,0:0:0:0:
256,192,121692,1,8,0:0:0:0:
256,192,121854,5,4,0:0:0:0:
256,192,122016,12,0,127206,0:0:0:0:
