osu file format v14

[General]
AudioFilename: audio.mp3
AudioLeadIn: 0
PreviewTime: 80462
Countdown: 0
SampleSet: Normal
StackLeniency: 0.7
Mode: 1
LetterboxInBreaks: 0
WidescreenStoryboard: 1

[Editor]
Bookmarks: 2662,49364
DistanceSpacing: 0.5
BeatDivisor: 4
GridSize: 32
TimelineZoom: 3.499999

[Metadata]
Title:Avalanx
TitleUnicode:Avalanx
Artist:Tonari no Niwa wa Aoi (NIWASHI + Aoi)
ArtistUnicode:隣の庭は青い (庭師 + Aoi)
Creator:Dusk-
Version:ADVANCED
Source:SOUND VOLTEX EXCEED GEAR
Tags:sdvx eg hexadiver 10th KAC オリジナル楽曲コンテスト konami bemani arcade championship electronic instrumental uone cynplytholowazy m2p#3 mapping to pander: taiko #3 video game vgm
BeatmapID:3837680
BeatmapSetID:1865731

[Difficulty]
HPDrainRate:6
CircleSize:5
OverallDifficulty:5
ApproachRate:9
SliderMultiplier:1.4
SliderTickRate:1

[Events]
//Background and Video events
0,0,"avalanx.jpg",0,0
//Break Periods
//Storyboard Layer 0 (Background)
//Storyboard Layer 1 (Fail)
//Storyboard Layer 2 (Pass)
//Storyboard Layer 3 (Foreground)
//Storyboard Layer 4 (Overlay)
//Storyboard Sound Samples

[TimingPoints]
71,324.324324324324,4,1,0,100,1,0
71,-125,4,1,0,100,0,0
12067,-125,4,1,0,100,0,0
12230,-122.436139423682,4,1,0,100,0,0
12392,-119.990134418547,4,1,0,100,0,0
12554,-117.63994680208,4,1,0,100,0,0
12716,-115.380054547611,4,1,0,100,0,0
12797,-114.282358468405,4,1,0,100,0,0
12878,-113.205351948807,4,1,0,100,0,0
13040,-111.111111111111,4,1,0,100,0,0
21149,-110.234500169928,4,1,0,100,0,0
21311,-109.802688848051,4,1,0,100,0,0
21473,-109.374247314418,4,1,0,100,0,0
21635,-108.949136276392,4,1,0,100,0,0
21797,-108.527317049854,4,1,0,100,0,0
21878,-108.317629940605,4,1,0,100,0,0
21959,-108.108751547472,4,1,0,100,0,0
22122,-107.690848293689,4,1,0,100,0,0
22446,-106.869690052011,4,1,0,100,0,0
22608,-106.463789182473,4,1,0,100,0,0
22770,-106.060959943945,4,1,0,100,0,0
22932,-105.661167601275,4,1,0,100,0,0
23095,-105.261937876681,4,1,0,100,0,0
23176,-105.064667638417,4,1,0,100,0,0
23257,-104.868135420997,4,1,0,100,0,0
23419,-104.477268544082,4,1,0,100,0,0
23743,-103.704211199415,4,1,0,100,0,0
23905,-103.321956769056,4,1,0,100,0,0
24067,-102.94250997461,4,1,0,100,0,0
24149,-102.751504729149,4,1,0,100,0,0
24230,-102.563523433089,4,1,0,100,0,0
24392,-102.189616760807,4,1,0,100,0,0
24473,-102.00368390314,4,1,0,100,0,0
24554,-101.818426422117,4,1,0,100,0,0
24716,-101.449922923974,4,1,0,100,0,0
24932,-100.962714276186,4,1,0,100,0,0
25040,-100.720860596651,4,1,0,100,0,0
25257,-100.238400070637,4,1,0,100,0,0
25365,-100,4,1,0,100,0,0
26176,-101.919830395352,4,1,0,100,0,0
26338,-103.902341404843,4,1,0,100,0,0
26500,-105.963508714641,4,1,0,100,0,0
26662,-108.108108108108,4,1,0,100,0,0
26824,-110.341309984273,4,1,0,100,0,0
26986,-112.668720975652,4,1,0,100,0,0
27149,-115.111741752394,4,1,0,100,0,0
27311,-117.647058823529,4,1,0,100,0,0
28611,-83.3333333333333,4,1,0,100,0,1
28932,-85.1042896497442,4,1,0,100,0,1
29013,-85.5588526211672,4,1,0,100,0,1
29095,-86.0240005303985,4,1,0,100,0,1
29257,-86.9579786877555,4,1,0,100,0,1
29419,-87.9124601937801,4,1,0,100,0,1
29581,-88.8881276974721,4,1,0,100,0,1
29743,-89.8856944925528,4,1,0,100,0,1
29824,-90.3929218336352,4,1,0,100,0,1
29905,-90.9059062565683,4,1,0,100,0,1
30067,-91.9495429097867,4,1,0,100,0,1
30230,-93.0240894751936,4,1,0,100,0,1
30392,-94.1172203684898,4,1,0,100,0,1
30473,-94.6734768332725,4,1,0,100,0,1
30554,-95.2363476218438,4,1,0,100,0,1
30716,-96.3824097459516,4,1,0,100,0,1
31040,-98.7593240980362,4,1,0,100,0,1
31203,-100,4,1,0,100,0,1
31527,-83.3333333333333,4,1,0,100,0,1
31851,-85.364019253911,4,1,0,100,0,1
32013,-86.4169331506015,4,1,0,100,0,1
32095,-86.9598528961079,4,1,0,100,0,1
32176,-87.5028910646828,4,1,0,100,0,1
32338,-88.6095713951128,4,1,0,100,0,1
32500,-89.7446034632719,4,1,0,100,0,1
32662,-90.9090909090909,4,1,0,100,0,1
32824,-92.1041954069626,4,1,0,100,0,1
32905,-92.7136088874367,4,1,0,100,0,1
32986,-93.3311405312063,4,1,0,100,0,1
33070,-100,4,1,0,100,0,0
33314,-95.8938830686043,4,1,0,100,0,0
33797,-100,4,1,0,100,0,0
37770,-98.76637222053,4,1,0,100,0,0
37851,-97.5628102903566,4,1,0,100,0,0
38013,-95.2415920105743,4,1,0,100,0,0
38176,-93.0149168100975,4,1,0,100,0,0
38338,-90.9027193720213,4,1,0,100,0,0
38500,-88.8843201754386,4,1,0,100,0,0
38662,-86.9536068651113,4,1,0,100,0,0
38989,-83.3333333333333,4,1,0,100,0,1
39311,-85.36952108864,4,1,0,100,0,1
39473,-86.4221021386711,4,1,0,100,0,1
39554,-86.9581865523051,4,1,0,100,0,1
39797,-88.607101053453,4,1,0,100,0,1
39959,-89.7415632656287,4,1,0,100,0,1
40122,-90.9127301841473,4,1,0,100,0,1
40203,-91.5061648803288,4,1,0,100,0,1
40446,-93.3338813085649,4,1,0,100,0,1
40608,-94.5934688437188,4,1,0,100,0,1
40770,-95.8875190001689,4,1,0,100,0,1
40851,-96.5479125924666,4,1,0,100,0,1
41095,-98.5933836936702,4,1,0,100,0,1
41260,-100,4,1,0,100,0,0
41908,-83.3333333333333,4,1,0,100,0,1
42067,-84.2095015576324,4,1,0,100,0,1
42149,-84.6600548088216,4,1,0,100,0,1
42230,-85.1098720892096,4,1,0,100,0,1
42392,-86.0240005303985,4,1,0,100,0,1
42554,-86.9579786877555,4,1,0,100,0,1
42716,-87.9124601937801,4,1,0,100,0,1
42797,-88.3976018531135,4,1,0,100,0,1
42878,-88.8881276974721,4,1,0,100,0,1
43040,-89.8856944925528,4,1,0,100,0,1
43203,-90.9122757847534,4,1,0,100,0,1
43365,-91.9560595322466,4,1,0,100,0,1
43446,-92.4869912324471,4,1,0,100,0,1
43530,-93.0240894751936,4,1,0,100,0,0
43689,-94.1172203684898,4,1,0,100,0,0
43851,-95.2363476218438,4,1,0,100,0,0
44500,-100,4,1,0,100,0,0
46773,-100,4,1,0,100,0,1
46932,-98.7668417446906,4,1,0,100,0,1
47095,-97.5563909774436,4,1,0,100,0,1
47257,-96.3824097459516,4,1,0,100,0,1
47419,-95.2363476218438,4,1,0,100,0,1
47500,-94.6734768332725,4,1,0,100,0,1
47581,-94.1172203684898,4,1,0,100,0,1
47743,-93.0240894751936,4,1,0,100,0,1
47905,-91.9560595322466,4,1,0,100,0,1
48067,-90.9122757847534,4,1,0,100,0,1
48149,-90.3929218336352,4,1,0,100,0,1
48230,-89.8856944925528,4,1,0,100,0,1
48392,-88.8881276974721,4,1,0,100,0,1
48554,-87.9124601937801,4,1,0,100,0,1
48716,-86.9579786877555,4,1,0,100,0,1
48797,-86.4884682042394,4,1,0,100,0,1
48878,-86.0240005303985,4,1,0,100,0,1
49043,-100,4,1,0,100,0,0
49365,-83.3333333333333,4,1,0,100,0,0
49797,-85.7119259993393,4,1,0,100,0,0
50013,-86.9528788792815,4,1,0,100,0,0
51311,-95.2389692386756,4,1,0,100,0,0
51635,-97.5595999097541,4,1,0,100,0,0
51959,-99.9961458413628,4,1,0,100,0,0
52392,-103.448963317384,4,1,0,100,0,0
52608,-105.262090230445,4,1,0,100,0,0
54554,-125,4,1,0,100,0,0
56824,-121.953971119134,4,1,0,100,0,0
57149,-119.044123045298,4,1,0,100,0,0
57797,-113.637956408999,4,1,0,100,0,0
58446,-108.694194932297,4,1,0,100,0,0
58770,-106.38367668285,4,1,0,100,0,0
59095,-104.162651763346,4,1,0,100,0,0
59311,-102.73712222011,4,1,0,100,0,0
59527,-101.350084380274,4,1,0,100,0,0
59743,-100,4,1,0,100,0,0
70449,-125,4,1,0,100,0,0
75311,-125,4,1,0,100,0,0
75527,-123.289406994425,4,1,0,100,0,0
75635,-122.451547948653,4,1,0,100,0,0
75959,-120.004933399112,4,1,0,100,0,0
76176,-118.420251932088,4,1,0,100,0,0
76284,-117.647058823529,4,1,0,100,0,0
76608,-115.386895938334,4,1,0,100,0,0
76770,-114.289070300112,4,1,0,100,0,0
76932,-113.211937867241,4,1,0,100,0,0
77257,-111.111111111111,4,1,0,100,0,0
77419,-110.092781172211,4,1,0,100,0,0
77581,-109.09294763987,4,1,0,100,0,0
77905,-107.146790001101,4,1,0,100,0,0
77986,-106.671051910322,4,1,0,100,0,0
78067,-106.199519755512,4,1,0,100,0,0
78230,-105.263157894737,4,1,0,100,0,0
78392,-104.348758646576,4,1,0,100,0,0
78554,-103.450108978789,4,1,0,100,0,0
78635,-103.006563624815,4,1,0,100,0,0
78716,-102.566805460391,4,1,0,100,0,0
78878,-101.698458322446,4,1,0,100,0,0
79040,-100.844690884593,4,1,0,100,0,0
79203,-100,4,1,0,100,0,0
80503,-95.2380952380952,4,1,0,100,0,1
100611,-100,4,1,0,100,0,0
111719,-111.111111111111,4,1,0,100,0,0
116827,-95.2380952380952,4,1,0,100,0,1
121854,-95.2380952380952,4,1,0,100,0,0
121895,-95.2380952380952,4,1,0,50,0,0

[HitObjects]
256,192,2665,5,8,0:0:0:0:
256,192,2989,1,8,0:0:0:0:
256,192,3152,1,8,0:0:0:0:
256,192,3476,1,8,0:0:0:0:
256,192,3638,1,0,0:0:0:0:
256,192,3962,1,0,0:0:0:0:
256,192,4125,1,8,0:0:0:0:
256,192,4611,1,0,0:0:0:0:
256,192,4773,1,0,0:0:0:0:
256,192,4935,1,8,0:0:0:0:
256,192,5098,1,8,0:0:0:0:
256,192,5260,1,0,0:0:0:0:
256,192,5584,1,0,0:0:0:0:
256,192,5746,1,8,0:0:0:0:
256,192,6070,1,0,0:0:0:0:
256,192,6233,1,0,0:0:0:0:
256,192,6557,1,8,0:0:0:0:
256,192,6719,1,0,0:0:0:0:
256,192,7206,1,0,0:0:0:0:
256,192,7368,1,0,0:0:0:0:
256,192,7530,1,8,0:0:0:0:
256,192,7692,1,0,0:0:0:0:
256,192,7854,1,8,0:0:0:0:
256,192,8179,1,8,0:0:0:0:
256,192,8341,1,0,0:0:0:0:
256,192,8665,1,0,0:0:0:0:
256,192,8827,1,8,0:0:0:0:
256,192,9152,1,8,0:0:0:0:
256,192,9314,1,8,0:0:0:0:
256,192,9638,1,0,0:0:0:0:
256,192,9800,1,8,0:0:0:0:
256,192,9962,1,8,0:0:0:0:
256,192,10125,1,0,0:0:0:0:
256,192,10287,1,8,0:0:0:0:
256,192,10449,1,0,0:0:0:0:
256,192,10692,1,8,0:0:0:0:
256,192,10935,1,0,0:0:0:0:
256,192,11260,1,8,0:0:0:0:
256,192,11422,1,0,0:0:0:0:
256,192,12070,1,8,0:0:0:0:
256,192,12233,1,0,0:0:0:0:
256,192,12395,1,8,0:0:0:0:
256,192,12557,1,0,0:0:0:0:
256,192,12719,1,8,0:0:0:0:
256,192,12800,1,8,0:0:0:0:
256,192,12881,1,8,0:0:0:0:
256,192,13043,1,4,0:0:0:0:
256,192,13530,1,0,0:0:0:0:
256,192,13692,1,8,0:0:0:0:
256,192,14016,1,8,0:0:0:0:
256,192,14341,1,0,0:0:0:0:
256,192,14503,1,8,0:0:0:0:
256,192,14827,1,0,0:0:0:0:
256,192,14989,1,8,0:0:0:0:
256,192,15152,1,0,0:0:0:0:
256,192,15314,1,8,0:0:0:0:
256,192,15476,1,8,0:0:0:0:
256,192,15638,1,0,0:0:0:0:
256,192,15962,1,8,0:0:0:0:
256,192,16125,1,0,0:0:0:0:
256,192,16287,1,8,0:0:0:0:
256,192,16611,1,8,0:0:0:0:
256,192,16935,1,0,0:0:0:0:
256,192,17098,1,8,0:0:0:0:
256,192,17422,1,0,0:0:0:0:
256,192,17584,1,8,0:0:0:0:
256,192,17746,1,0,0:0:0:0:
256,192,17989,1,0,0:0:0:0:
256,192,18233,1,0,0:0:0:0:
256,192,18719,1,0,0:0:0:0:
256,192,18881,1,8,0:0:0:0:
256,192,19206,1,0,0:0:0:0:
256,192,19530,1,0,0:0:0:0:
256,192,19692,1,8,0:0:0:0:
256,192,20016,1,0,0:0:0:0:
256,192,20098,1,0,0:0:0:0:
256,192,20179,1,0,0:0:0:0:
256,192,20827,1,4,0:0:0:0:
256,192,21152,1,8,0:0:0:0:
256,192,21314,1,8,0:0:0:0:
256,192,21476,1,0,0:0:0:0:
256,192,21638,1,8,0:0:0:0:
256,192,21800,1,0,0:0:0:0:
256,192,21881,1,0,0:0:0:0:
256,192,21962,1,0,0:0:0:0:
256,192,22125,1,12,0:0:0:0:
256,192,22449,1,0,0:0:0:0:
256,192,22611,1,0,0:0:0:0:
256,192,22773,1,8,0:0:0:0:
256,192,22935,1,0,0:0:0:0:
256,192,23098,1,8,0:0:0:0:
256,192,23179,1,8,0:0:0:0:
256,192,23260,1,8,0:0:0:0:
256,192,23422,1,4,0:0:0:0:
256,192,23746,1,8,0:0:0:0:
256,192,23908,1,8,0:0:0:0:
256,192,24070,1,0,0:0:0:0:
256,192,24152,1,0,0:0:0:0:
256,192,24233,1,0,0:0:0:0:
256,192,24395,1,8,0:0:0:0:
256,192,24476,1,8,0:0:0:0:
256,192,24557,1,8,0:0:0:0:
256,192,24719,1,0,0:0:0:0:
256,192,24935,1,0,0:0:0:0:
256,192,25043,1,0,0:0:0:0:
256,192,25260,1,8,0:0:0:0:
256,192,25368,1,8,0:0:0:0:
256,192,26016,1,0,0:0:0:0:
256,192,26179,1,0,0:0:0:0:
256,192,26341,1,8,0:0:0:0:
256,192,26503,1,0,0:0:0:0:
256,192,26665,1,0,0:0:0:0:
256,192,26827,1,8,0:0:0:0:
256,192,26989,1,0,0:0:0:0:
256,192,27152,1,0,0:0:0:0:
256,192,27314,12,0,27962,0:0:0:0:
256,192,28611,5,4,0:0:0:0:
256,192,28935,1,0,0:0:0:0:
256,192,29016,1,0,0:0:0:0:
256,192,29098,1,0,0:0:0:0:
256,192,29260,1,8,0:0:0:0:
256,192,29422,1,0,0:0:0:0:
256,192,29584,1,0,0:0:0:0:
256,192,29746,1,8,0:0:0:0:
256,192,29827,1,8,0:0:0:0:
256,192,29908,1,8,0:0:0:0:
256,192,30070,1,0,0:0:0:0:
256,192,30233,1,8,0:0:0:0:
256,192,30395,1,0,0:0:0:0:
256,192,30476,1,0,0:0:0:0:
256,192,30557,1,0,0:0:0:0:
256,192,30719,1,8,0:0:0:0:
256,192,31043,1,8,0:0:0:0:
256,192,31206,1,0,0:0:0:0:
256,192,31530,1,12,0:0:0:0:
256,192,31854,1,8,0:0:0:0:
256,192,32016,1,0,0:0:0:0:
256,192,32098,1,0,0:0:0:0:
256,192,32179,1,0,0:0:0:0:
256,192,32341,1,8,0:0:0:0:
256,192,32503,1,0,0:0:0:0:
256,192,32665,1,0,0:0:0:0:
256,192,32827,1,8,0:0:0:0:
256,192,32908,1,8,0:0:0:0:
256,192,32989,1,8,0:0:0:0:
256,192,33314,1,8,0:0:0:0:
256,192,33800,1,4,0:0:0:0:
256,192,34125,1,8,0:0:0:0:
256,192,34368,1,0,0:0:0:0:
256,192,34449,1,0,0:0:0:0:
256,192,34611,1,8,0:0:0:0:
256,192,34773,1,0,0:0:0:0:
256,192,35098,1,0,0:0:0:0:
256,192,35341,1,8,0:0:0:0:
256,192,35422,1,8,0:0:0:0:
256,192,35584,1,0,0:0:0:0:
256,192,35746,1,8,0:0:0:0:
256,192,35827,1,8,0:0:0:0:
256,192,35908,1,8,0:0:0:0:
256,192,36070,1,0,0:0:0:0:
256,192,36233,1,0,0:0:0:0:
256,192,36395,1,8,0:0:0:0:
256,192,36719,1,0,0:0:0:0:
256,192,36881,1,8,0:0:0:0:
256,192,37206,1,0,0:0:0:0:
256,192,37368,1,8,0:0:0:0:
256,192,37530,1,8,0:0:0:0:
256,192,37692,1,0,0:0:0:0:
256,192,37773,1,0,0:0:0:0:
256,192,37854,1,0,0:0:0:0:
256,192,38016,1,8,0:0:0:0:
256,192,38179,1,8,0:0:0:0:
256,192,38341,1,0,0:0:0:0:
256,192,38503,1,0,0:0:0:0:
256,192,38665,1,8,0:0:0:0:
256,192,38989,1,4,0:0:0:0:
256,192,39314,1,8,0:0:0:0:
256,192,39476,1,0,0:0:0:0:
256,192,39557,1,0,0:0:0:0:
256,192,39800,1,0,0:0:0:0:
256,192,39962,1,8,0:0:0:0:
256,192,40125,1,0,0:0:0:0:
256,192,40206,1,0,0:0:0:0:
256,192,40449,1,0,0:0:0:0:
256,192,40611,1,8,0:0:0:0:
256,192,40773,1,0,0:0:0:0:
256,192,40854,1,0,0:0:0:0:
256,192,41098,1,0,0:0:0:0:
256,192,41260,1,8,0:0:0:0:
256,192,41908,1,12,0:0:0:0:
256,192,42070,1,0,0:0:0:0:
256,192,42152,1,0,0:0:0:0:
256,192,42233,1,0,0:0:0:0:
256,192,42395,1,8,0:0:0:0:
256,192,42557,1,0,0:0:0:0:
256,192,42719,1,8,0:0:0:0:
256,192,42800,1,8,0:0:0:0:
256,192,42881,1,8,0:0:0:0:
256,192,43043,1,0,0:0:0:0:
256,192,43206,1,8,0:0:0:0:
256,192,43368,1,0,0:0:0:0:
256,192,43449,1,0,0:0:0:0:
256,192,43530,1,0,0:0:0:0:
256,192,43692,1,0,0:0:0:0:
256,192,43854,1,8,0:0:0:0:
256,192,44503,1,12,0:0:0:0:
256,192,44746,1,0,0:0:0:0:
256,192,44827,1,0,0:0:0:0:
256,192,44989,1,0,0:0:0:0:
256,192,45152,1,8,0:0:0:0:
256,192,45314,1,8,0:0:0:0:
256,192,46125,1,0,0:0:0:0:
256,192,46206,1,0,0:0:0:0:
256,192,46287,1,0,0:0:0:0:
256,192,46449,1,8,0:0:0:0:
256,192,46611,1,8,0:0:0:0:
256,192,46773,1,0,0:0:0:0:
256,192,46935,1,0,0:0:0:0:
256,192,47098,1,8,0:0:0:0:
256,192,47260,1,0,0:0:0:0:
256,192,47422,1,8,0:0:0:0:
256,192,47503,1,8,0:0:0:0:
256,192,47584,1,8,0:0:0:0:
256,192,47746,1,0,0:0:0:0:
256,192,47908,1,8,0:0:0:0:
256,192,48070,1,0,0:0:0:0:
256,192,48152,1,0,0:0:0:0:
256,192,48233,1,0,0:0:0:0:
256,192,48395,1,8,0:0:0:0:
256,192,48557,1,0,0:0:0:0:
256,192,48719,1,8,0:0:0:0:
256,192,48800,1,8,0:0:0:0:
256,192,48881,1,8,0:0:0:0:
256,192,49368,1,4,0:0:0:0:
256,192,49800,1,8,0:0:0:0:
256,192,50016,1,0,0:0:0:0:
256,192,51314,1,8,0:0:0:0:
256,192,51638,1,8,0:0:0:0:
256,192,51962,1,0,0:0:0:0:
256,192,52395,1,0,0:0:0:0:
256,192,52611,1,8,0:0:0:0:
256,192,54557,1,0,0:0:0:0:
256,192,54989,1,8,0:0:0:0:
256,192,55206,1,8,0:0:0:0:
256,192,56503,1,8,0:0:0:0:
256,192,56827,1,8,0:0:0:0:
256,192,57152,1,0,0:0:0:0:
256,192,57800,1,8,0:0:0:0:
256,192,58449,1,0,0:0:0:0:
256,192,58773,1,0,0:0:0:0:
256,192,59098,1,8,0:0:0:0:
256,192,59314,1,8,0:0:0:0:
256,192,59530,1,8,0:0:0:0:
256,192,59746,1,4,0:0:0:0:
256,192,60233,1,0,0:0:0:0:
256,192,60395,1,8,0:0:0:0:
256,192,60557,1,0,0:0:0:0:
256,192,60638,1,0,0:0:0:0:
256,192,60719,1,0,0:0:0:0:
256,192,60881,1,0,0:0:0:0:
256,192,61043,1,8,0:0:0:0:
256,192,61206,1,0,0:0:0:0:
256,192,61530,1,0,0:0:0:0:
256,192,61692,1,8,0:0:0:0:
256,192,61854,1,0,0:0:0:0:
256,192,62016,1,8,0:0:0:0:
256,192,62098,1,8,0:0:0:0:
256,192,62179,1,8,0:0:0:0:
256,192,62341,1,0,0:0:0:0:
256,192,62665,1,8,0:0:0:0:
256,192,62827,1,0,0:0:0:0:
256,192,63152,1,0,0:0:0:0:
256,192,63314,1,8,0:0:0:0:
256,192,63638,1,8,0:0:0:0:
256,192,63800,1,0,0:0:0:0:
256,192,63962,1,0,0:0:0:0:
256,192,64125,1,8,0:0:0:0:
256,192,64206,1,8,0:0:0:0:
256,192,64287,1,8,0:0:0:0:
256,192,64449,1,0,0:0:0:0:
256,192,64611,1,8,0:0:0:0:
256,192,64935,1,4,0:0:0:0:
256,192,65098,1,4,0:0:0:0:
256,192,65422,1,4,0:0:0:0:
256,192,65746,1,4,0:0:0:0:
256,192,65908,1,4,0:0:0:0:
256,192,66070,1,4,0:0:0:0:
256,192,66395,1,4,0:0:0:0:
256,192,66719,1,4,0:0:0:0:
256,192,66881,1,4,0:0:0:0:
256,192,67043,1,4,0:0:0:0:
256,192,67368,1,4,0:0:0:0:
256,192,67692,1,4,0:0:0:0:
256,192,67854,1,4,0:0:0:0:
256,192,68016,1,4,0:0:0:0:
256,192,68341,1,4,0:0:0:0:
256,192,68665,1,4,0:0:0:0:
256,192,68827,1,4,0:0:0:0:
256,192,68989,1,4,0:0:0:0:
256,192,69314,1,4,0:0:0:0:
256,192,69638,1,4,0:0:0:0:
256,192,69800,1,8,0:0:0:0:
256,192,69881,1,8,0:0:0:0:
256,192,69962,1,8,0:0:0:0:
256,192,70125,1,4,0:0:0:0:
256,192,71098,1,8,0:0:0:0:
256,192,72719,1,8,0:0:0:0:
256,192,73692,1,0,0:0:0:0:
256,192,74665,1,8,0:0:0:0:
256,192,75314,1,4,0:0:0:0:
256,192,75530,1,0,0:0:0:0:
256,192,75638,1,0,0:0:0:0:
256,192,75962,1,8,0:0:0:0:
256,192,76179,1,8,0:0:0:0:
256,192,76287,1,8,0:0:0:0:
256,192,76611,1,4,0:0:0:0:
256,192,76773,1,0,0:0:0:0:
256,192,76935,1,8,0:0:0:0:
256,192,77260,1,8,0:0:0:0:
256,192,77476,1,0,0:0:0:0:
256,192,77584,1,0,0:0:0:0:
256,192,77908,1,0,0:0:0:0:
256,192,77989,1,0,0:0:0:0:
256,192,78070,1,0,0:0:0:0:
256,192,78233,1,8,0:0:0:0:
256,192,78395,1,0,0:0:0:0:
256,192,78557,1,8,0:0:0:0:
256,192,78638,1,8,0:0:0:0:
256,192,78719,1,8,0:0:0:0:
256,192,78881,1,0,0:0:0:0:
256,192,79043,1,8,0:0:0:0:
256,192,79206,1,0,0:0:0:0:
256,192,80179,1,8,0:0:0:0:
256,192,80503,1,4,0:0:0:0:
256,192,80665,1,8,0:0:0:0:
256,192,80827,1,8,0:0:0:0:
256,192,80989,1,0,0:0:0:0:
256,192,81314,1,8,0:0:0:0:
256,192,81395,1,8,0:0:0:0:
256,192,81476,1,8,0:0:0:0:
256,192,81638,1,0,0:0:0:0:
256,192,81962,1,8,0:0:0:0:
256,192,82125,1,8,0:0:0:0:
256,192,82287,1,0,0:0:0:0:
256,192,82449,1,8,0:0:0:0:
256,192,82611,1,0,0:0:0:0:
256,192,82773,1,8,0:0:0:0:
256,192,82935,1,8,0:0:0:0:
256,192,83098,1,0,0:0:0:0:
256,192,83260,1,0,0:0:0:0:
256,192,83341,1,0,0:0:0:0:
256,192,83422,1,0,0:0:0:0:
256,192,83584,1,8,0:0:0:0:
256,192,83908,1,0,0:0:0:0:
256,192,84070,1,0,0:0:0:0:
256,192,84233,1,8,0:0:0:0:
256,192,84557,1,0,0:0:0:0:
256,192,84638,1,0,0:0:0:0:
256,192,84719,1,0,0:0:0:0:
256,192,84881,1,8,0:0:0:0:
256,192,85043,1,0,0:0:0:0:
256,192,85530,1,8,0:0:0:0:
256,192,85692,1,0,0:0:0:0:
256,192,85854,1,8,0:0:0:0:
256,192,85935,1,8,0:0:0:0:
256,192,86016,1,8,0:0:0:0:
256,192,86179,1,0,0:0:0:0:
256,192,86341,1,8,0:0:0:0:
256,192,86503,1,8,0:0:0:0:
256,192,86665,1,0,0:0:0:0:
256,192,86827,1,8,0:0:0:0:
256,192,87152,1,0,0:0:0:0:
256,192,87233,1,0,0:0:0:0:
256,192,87314,1,0,0:0:0:0:
256,192,87476,1,8,0:0:0:0:
256,192,87638,1,0,0:0:0:0:
256,192,87800,1,8,0:0:0:0:
256,192,87962,1,8,0:0:0:0:
256,192,88125,1,0,0:0:0:0:
256,192,88287,1,8,0:0:0:0:
256,192,88449,1,0,0:0:0:0:
256,192,88530,1,0,0:0:0:0:
256,192,88611,1,0,0:0:0:0:
256,192,88773,1,8,0:0:0:0:
256,192,89098,1,0,0:0:0:0:
256,192,89260,1,8,0:0:0:0:
256,192,89422,1,8,0:0:0:0:
256,192,89746,1,0,0:0:0:0:
256,192,89908,1,8,0:0:0:0:
256,192,89989,1,8,0:0:0:0:
256,192,90070,1,8,0:0:0:0:
256,192,90233,1,0,0:0:0:0:
256,192,90881,1,12,0:0:0:0:
256,192,91043,1,0,0:0:0:0:
256,192,91206,1,0,0:0:0:0:
256,192,91368,1,8,0:0:0:0:
256,192,91692,1,8,0:0:0:0:
256,192,91773,1,8,0:0:0:0:
256,192,91854,1,8,0:0:0:0:
256,192,92016,1,0,0:0:0:0:
256,192,92341,1,0,0:0:0:0:
256,192,92503,1,8,0:0:0:0:
256,192,92665,1,8,0:0:0:0:
256,192,92827,1,0,0:0:0:0:
256,192,92989,1,0,0:0:0:0:
256,192,93152,1,8,0:0:0:0:
256,192,93314,1,8,0:0:0:0:
256,192,93476,1,0,0:0:0:0:
256,192,93638,1,8,0:0:0:0:
256,192,93719,1,8,0:0:0:0:
256,192,93800,1,8,0:0:0:0:
256,192,93962,1,0,0:0:0:0:
256,192,94287,1,8,0:0:0:0:
256,192,94449,1,0,0:0:0:0:
256,192,94611,1,8,0:0:0:0:
256,192,94692,1,8,0:0:0:0:
256,192,94773,1,8,0:0:0:0:
256,192,95016,1,8,0:0:0:0:
256,192,95260,1,8,0:0:0:0:
256,192,95422,1,0,0:0:0:0:
256,192,95908,1,8,0:0:0:0:
256,192,96070,1,0,0:0:0:0:
256,192,96233,1,0,0:0:0:0:
256,192,96395,1,8,0:0:0:0:
256,192,96557,1,8,0:0:0:0:
256,192,96881,1,8,0:0:0:0:
256,192,97043,1,0,0:0:0:0:
256,192,97125,1,0,0:0:0:0:
256,192,97206,1,0,0:0:0:0:
256,192,97530,1,8,0:0:0:0:
256,192,97692,1,0,0:0:0:0:
256,192,97854,1,8,0:0:0:0:
256,192,98016,1,8,0:0:0:0:
256,192,98179,1,0,0:0:0:0:
256,192,98260,1,0,0:0:0:0:
256,192,98341,1,0,0:0:0:0:
256,192,98503,1,0,0:0:0:0:
256,192,98665,1,8,0:0:0:0:
256,192,98827,1,8,0:0:0:0:
256,192,98908,1,8,0:0:0:0:
256,192,98989,1,8,0:0:0:0:
256,192,99152,1,8,0:0:0:0:
256,192,99314,1,0,0:0:0:0:
256,192,99557,1,0,0:0:0:0:
256,192,99638,1,0,0:0:0:0:
256,192,99800,1,0,0:0:0:0:
256,192,99962,1,8,0:0:0:0:
256,192,100206,1,8,0:0:0:0:
256,192,100449,1,0,0:0:0:0:
256,192,101260,1,4,0:0:0:0:
256,192,101584,1,8,0:0:0:0:
256,192,101746,1,0,0:0:0:0:
256,192,102070,1,0,0:0:0:0:
256,192,102233,1,8,0:0:0:0:
256,192,102557,1,8,0:0:0:0:
256,192,102719,1,0,0:0:0:0:
256,192,103043,1,0,0:0:0:0:
256,192,103206,1,8,0:0:0:0:
256,192,103368,1,0,0:0:0:0:
256,192,103530,1,8,0:0:0:0:
256,192,103692,1,8,0:0:0:0:
256,192,103854,1,0,0:0:0:0:
256,192,104179,1,8,0:0:0:0:
256,192,104341,1,0,0:0:0:0:
256,192,104665,1,0,0:0:0:0:
256,192,104827,1,8,0:0:0:0:
256,192,104989,1,8,0:0:0:0:
256,192,105152,1,0,0:0:0:0:
256,192,105314,1,8,0:0:0:0:
256,192,105638,1,0,0:0:0:0:
256,192,105800,1,8,0:0:0:0:
256,192,105962,1,8,0:0:0:0:
256,192,106043,1,8,0:0:0:0:
256,192,106125,1,8,0:0:0:0:
256,192,106287,1,8,0:0:0:0:
256,192,106449,1,0,0:0:0:0:
256,192,106773,1,8,0:0:0:0:
256,192,106935,1,0,0:0:0:0:
256,192,107260,1,0,0:0:0:0:
256,192,107422,1,8,0:0:0:0:
256,192,107746,1,8,0:0:0:0:
256,192,107908,1,8,0:0:0:0:
256,192,108070,1,0,0:0:0:0:
256,192,108233,1,8,0:0:0:0:
256,192,108314,1,8,0:0:0:0:
256,192,108395,1,8,0:0:0:0:
256,192,108557,1,8,0:0:0:0:
256,192,108719,1,0,0:0:0:0:
256,192,108881,1,8,0:0:0:0:
256,192,109043,1,0,0:0:0:0:
256,192,109368,1,0,0:0:0:0:
256,192,109530,1,8,0:0:0:0:
256,192,109854,1,0,0:0:0:0:
256,192,110016,1,8,0:0:0:0:
256,192,110179,1,8,0:0:0:0:
256,192,110503,1,8,0:0:0:0:
256,192,110665,1,0,0:0:0:0:
256,192,110827,1,8,0:0:0:0:
256,192,111152,1,0,0:0:0:0:
256,192,111314,1,8,0:0:0:0:
256,192,111476,1,8,0:0:0:0:
256,192,111638,1,4,0:0:0:0:
256,192,112287,1,8,0:0:0:0:
256,192,112530,1,8,0:0:0:0:
256,192,112773,1,0,0:0:0:0:
256,192,113098,1,8,0:0:0:0:
256,192,113260,1,0,0:0:0:0:
256,192,113341,1,0,0:0:0:0:
256,192,113422,1,0,0:0:0:0:
256,192,113584,1,8,0:0:0:0:
256,192,113746,1,0,0:0:0:0:
256,192,113908,1,8,0:0:0:0:
256,192,114070,1,8,0:0:0:0:
256,192,114233,1,0,0:0:0:0:
256,192,114476,1,0,0:0:0:0:
256,192,114557,1,0,0:0:0:0:
256,192,114719,1,0,0:0:0:0:
256,192,114881,1,8,0:0:0:0:
256,192,115206,1,8,0:0:0:0:
256,192,115368,1,0,0:0:0:0:
256,192,115692,1,8,0:0:0:0:
256,192,115854,1,0,0:0:0:0:
256,192,116016,1,0,0:0:0:0:
256,192,116179,1,8,0:0:0:0:
256,192,116827,1,12,0:0:0:0:
256,192,116989,1,0,0:0:0:0:
256,192,117070,1,0,0:0:0:0:
256,192,117152,1,0,0:0:0:0:
256,192,117314,1,8,0:0:0:0:
256,192,117476,1,0,0:0:0:0:
256,192,117638,1,0,0:0:0:0:
256,192,117800,1,8,0:0:0:0:
256,192,117962,1,0,0:0:0:0:
256,192,118043,1,0,0:0:0:0:
256,192,118125,1,0,0:0:0:0:
256,192,118287,1,8,0:0:0:0:
256,192,118449,1,0,0:0:0:0:
256,192,118611,1,0,0:0:0:0:
256,192,118773,1,8,0:0:0:0:
256,192,118935,1,0,0:0:0:0:
256,192,119098,1,8,0:0:0:0:
256,192,119260,1,8,0:0:0:0:
256,192,119422,1,0,0:0:0:0:
256,192,119746,1,8,0:0:0:0:
256,192,119908,1,0,0:0:0:0:
256,192,120233,1,0,0:0:0:0:
256,192,120395,1,8,0:0:0:0:
256,192,120719,1,8,0:0:0:0:
256,192,120881,1,8,0:0:0:0:
256,192,121206,1,8,0:0:0:0:
256,192,121287,1,8,0:0:0:0:
256,192,121368,1,8,0:0:0:0:
256,192,121530,1,0,0:0:0:0:
256,192,121692,1,8,0:0:0:0:
256,192,121854,1,4,0:0:0:0:
256,192,122016,12,0,127206,0:0:0:0:
