osu file format v14

[General]
AudioFilename: audio.mp3
AudioLeadIn: 0
PreviewTime: 341
Countdown: 0
SampleSet: Drum
StackLeniency: 0.3
Mode: 0
LetterboxInBreaks: 0
WidescreenStoryboard: 1

[Editor]
Bookmarks: 51664
DistanceSpacing: 0.9
BeatDivisor: 4
GridSize: 4
TimelineZoom: 2.3

[Metadata]
Title:SPARK MANDRILLER STAGE
TitleUnicode:SPARK MANDRILLER STAGE
Artist:Tomozawa Makoto
ArtistUnicode:友澤 眞
Creator:Crissa
Version:Insane
Source:ロックマンX
Tags:mmx rockman megaman x1 snes super nintendo capcom video game instrumental electronic vgm
BeatmapID:2733841
BeatmapSetID:1319731

[Difficulty]
HPDrainRate:5
CircleSize:4.7
OverallDifficulty:8
ApproachRate:9
SliderMultiplier:1.4
SliderTickRate:1

[Events]
//Background and Video events
0,0,"crissa_limdo.jpg",0,0
//Break Periods
//Storyboard Layer 0 (Background)
//Storyboard Layer 1 (Fail)
//Storyboard Layer 2 (Pass)
//Storyboard Layer 3 (Foreground)
//Storyboard Layer 4 (Overlay)
//Storyboard Sound Samples

[TimingPoints]
250,367.174591518267,4,3,1,70,1,0
1535,-76.9230769230769,4,3,1,60,0,0
4656,-66.6666666666667,4,3,1,65,0,0
6308,-76.9230769230769,4,3,1,60,0,0
10530,-66.6666666666667,4,3,1,65,0,0
11999,-100,4,3,1,60,0,0
13468,-76.9230769230769,4,3,1,60,0,0
16405,-66.6666666666667,4,3,1,65,0,0
17874,-76.9230769230769,4,3,1,60,0,0
22280,-66.6666666666667,4,3,1,65,0,0
23749,-76.9230769230769,4,3,1,65,0,0
28155,-66.6666666666667,4,3,1,70,0,0
31092,-76.9230769230769,4,3,1,60,0,0
33662,-100,4,3,1,65,0,0
34030,-66.6666666666667,4,3,1,70,0,0
37334,-66.6666666666667,4,3,1,70,0,1
38068,-66.6666666666667,4,3,1,65,0,1
38986,-76.9230769230769,4,3,1,65,0,1
41373,-62.5,4,3,1,70,0,1
42842,-66.6666666666667,4,3,1,70,0,1
43393,-71.4285714285714,4,3,1,65,0,1
44127,-76.9230769230769,4,3,1,60,0,1
45045,-100,4,3,1,65,0,1
45871,-62.5,4,3,1,75,0,1
47248,-100,4,3,1,70,0,1
47982,-100,4,3,1,60,0,1
48349,-100,4,3,1,60,0,0
48709,367.174591518267,4,3,1,70,1,0
48709,-100,4,3,1,50,0,0
50177,-100,4,3,1,40,0,0
51287,367.174591518267,4,3,1,70,1,0
51287,-100,4,3,1,60,0,0
51654,367.174591518267,4,3,1,70,1,0
51746,-100,4,3,1,50,0,0
56060,-100,4,3,1,20,0,0

[Colours]
Combo1 : 237,214,118
Combo2 : 240,182,142
Combo3 : 99,190,122
Combo4 : 147,155,217

[HitObjects]
127,234,433,6,0,L|172:246,1,35,12|0,0:2|0:0,0:0:0:0:
235,266,617,2,0,L|280:278,1,35,10|8,0:2|0:2,0:0:0:0:
343,298,800,1,6,0:0:0:0:
216,184,984,6,0,L|261:196,1,35,10|0,0:0|0:0,0:0:0:0:
324,216,1167,2,0,L|369:228,1,35,10|0,0:0|0:0,0:0:0:0:
432,248,1351,1,6,0:0:0:0:
502,136,1535,6,0,P|461:167|420:72,1,181.999991668702,4|4,3:2|0:0,0:0:0:0:
436,11,1994,1,4,0:0:0:0:
436,11,2085,2,0,P|397:8|351:38,1,90.9999958343508,8|4,0:2|0:0,0:0:0:0:
320,110,2361,1,4,0:0:0:0:
320,110,2453,1,4,0:0:0:0:
191,37,2636,1,4,0:0:0:0:
191,37,2728,1,4,0:0:0:0:
191,37,2820,2,0,L|209:135,1,90.9999958343508,8|4,0:2|0:0,0:0:0:0:
228,204,3095,1,4,0:0:0:0:
228,204,3187,1,4,0:0:0:0:
58,159,3370,6,0,P|51:132|58:109,1,45.4999979171754,6|4,0:0|0:0,0:0:0:0:
116,204,3554,2,0,P|123:231|116:254,1,45.4999979171754,10|0,0:2|0:0,0:0:0:0:
47,162,3738,2,0,P|40:135|47:112,1,45.4999979171754,6|4,0:0|0:0,0:0:0:0:
125,203,3921,2,0,P|132:230|125:253,1,45.4999979171754,6|0,0:0|0:0,0:0:0:0:
36,165,4105,2,0,P|29:138|36:115,1,45.4999979171754,6|4,0:0|0:0,0:0:0:0:
134,202,4288,2,0,P|141:229|134:252,1,45.4999979171754,10|0,0:2|0:0,0:0:0:0:
85,313,4472,1,6,0:0:0:0:
208,364,4656,6,0,B|276:352|276:352|286:337|286:337|357:323,1,157.500006008148,6|0,0:0|0:0,0:0:0:0:
380,339,5023,1,10,0:2:0:0:
512,284,5206,2,0,B|453:256|374:238|374:238|419:231|445:222,1,210.000008010865,6|4,0:0|0:0,0:0:0:0:
512,83,5757,1,8,0:2:0:0:
403,23,5941,1,6,0:0:0:0:
343,135,6124,5,6,0:0:0:0:
343,135,6216,1,6,0:0:0:0:
343,135,6308,2,0,P|308:162|252:148,2,90.9999958343508,6|8|4,0:0|0:0|0:0,0:0:0:0:
271,24,6859,1,8,0:0:0:0:
234,21,6950,1,8,0:0:0:0:
197,18,7042,1,8,0:0:0:0:
160,16,7134,1,8,0:0:0:0:
123,13,7226,2,0,L|138:70,1,45.4999979171754,6|6,0:0|0:0,0:0:0:0:
172,186,7409,1,6,0:0:0:0:
172,186,7501,1,6,0:0:0:0:
172,186,7593,6,0,P|123:182|81:251,1,136.499993751526,4|4,0:2|0:0,0:0:0:0:
92,324,7960,2,0,P|48:319|11:272,1,90.9999958343508,8|4,0:2|0:0,0:0:0:0:
9,214,8236,1,4,0:0:0:0:
9,214,8327,1,4,0:0:0:0:
44,58,8511,1,4,0:0:0:0:
44,58,8603,1,4,0:0:0:0:
44,58,8695,2,0,L|138:45,1,90.9999958343508,8|4,0:2|0:0,0:0:0:0:
207,37,8970,1,4,0:0:0:0:
207,37,9062,1,4,0:0:0:0:
272,148,9245,6,0,L|333:158,1,45.4999979171754,6|4,0:0|0:0,0:0:0:0:
428,117,9429,2,0,L|383:109,1,45.4999979171754,10|0,0:2|0:0,0:0:0:0:
264,156,9612,2,0,L|325:166,1,45.4999979171754,6|4,0:0|0:0,0:0:0:0:
438,109,9796,2,0,L|393:101,1,45.4999979171754,6|0,0:0|0:0,0:0:0:0:
256,164,9980,2,0,L|317:174,1,45.4999979171754,6|4,0:0|0:0,0:0:0:0:
448,101,10163,2,0,L|403:93,1,45.4999979171754,10|0,0:2|0:0,0:0:0:0:
309,76,10347,1,6,0:0:0:0:
432,212,10530,6,0,B|421:263|413:327|413:327|408:308|398:287,1,157.500006008148,6|0,0:0|0:0,0:0:0:0:
379,279,10898,1,10,0:2:0:0:
281,358,11081,2,0,B|210:398|208:324|130:364,1,157.500006008148,6|0,0:0|0:0,0:0:0:0:
110,356,11448,1,6,0:0:0:0:
183,259,11632,1,10,0:2:0:0:
92,208,11815,1,6,0:0:0:0:
136,80,11999,5,8,0:2:0:0:
160,93,12091,1,8,0:2:0:0:
187,99,12183,1,10,0:2:0:0:
214,96,12274,1,8,0:2:0:0:
239,84,12366,2,0,L|260:39,1,35,8|8,0:0|0:0,0:0:0:0:
324,6,12550,2,0,L|338:37,1,35,8|8,0:0|0:0,0:0:0:0:
421,68,12733,1,4,0:0:0:0:
416,84,12825,1,8,0:0:0:0:
411,100,12917,1,4,0:0:0:0:
407,117,13009,1,8,0:0:0:0:
377,119,13101,5,10,0:0:0:0:
400,153,13192,1,10,0:0:0:0:
395,193,13284,1,6,0:0:0:0:
365,221,13376,1,6,0:0:0:0:
325,223,13468,6,0,B|276:217|238:197|238:197|191:211,1,136.499993751526,4|4,0:2|0:0,0:0:0:0:
144,271,13835,2,0,P|116:223|120:186,1,90.9999958343508,8|4,0:2|0:0,0:0:0:0:
176,135,14110,1,4,0:0:0:0:
176,135,14202,1,4,0:0:0:0:
57,85,14386,1,4,0:0:0:0:
57,85,14478,1,4,0:0:0:0:
57,85,14569,2,0,P|71:31|114:20,1,90.9999958343508,8|4,0:2|0:0,0:0:0:0:
173,32,14845,1,4,0:0:0:0:
173,32,14936,1,4,0:0:0:0:
270,121,15120,6,0,P|301:131|323:127,1,45.4999979171754,6|4,0:0|0:0,0:0:0:0:
330,47,15304,2,0,P|299:37|277:41,1,45.4999979171754,10|0,0:2|0:0,0:0:0:0:
268,130,15487,2,0,P|299:140|321:136,1,45.4999979171754,6|4,0:0|0:0,0:0:0:0:
334,38,15671,2,0,P|303:28|281:32,1,45.4999979171754,6|0,0:0|0:0,0:0:0:0:
266,139,15854,2,0,P|297:149|319:145,1,45.4999979171754,6|4,0:0|0:0,0:0:0:0:
338,29,16038,2,0,P|307:19|285:23,1,45.4999979171754,10|0,0:2|0:0,0:0:0:0:
196,59,16222,1,6,0:0:0:0:
197,215,16405,6,0,B|159:175|96:169|96:169|51:194,1,157.500006008148,6|4,0:0|0:0,0:0:0:0:
41,185,16772,1,10,0:2:0:0:
51,314,16956,2,0,B|155:260|150:365|260:303,1,210.000008010865,6|4,0:0|0:0,0:0:0:0:
278,150,17507,1,8,0:2:0:0:
384,234,17690,1,2,0:0:0:0:
466,181,17874,6,0,P|477:161|478:136,1,45.4999979171754,10|2,0:2|0:2,0:0:0:0:
456,67,18057,1,10,0:2:0:0:
456,67,18149,2,0,L|405:59,1,45.4999979171754,8|4,0:2|0:0,0:0:0:0:
357,4,18333,2,0,L|252:16,1,90.9999958343508,8|8,0:2|0:2,0:0:0:0:
196,67,18608,5,8,0:0:0:0:
205,97,18700,1,8,0:0:0:0:
214,127,18792,1,8,0:0:0:0:
224,157,18884,1,8,0:0:0:0:
268,165,18975,5,10,0:0:0:0:
227,185,19067,1,6,0:0:0:0:
208,226,19159,1,10,0:0:0:0:
220,269,19251,1,10,0:0:0:0:
257,295,19343,6,0,B|280:290|299:284|299:284|345:298|345:298|367:289|388:284,1,136.499993751526,4|4,0:2|0:0,0:0:0:0:
453,327,19710,2,0,P|465:272|452:241,1,90.9999958343508,8|4,0:2|0:0,0:0:0:0:
386,209,19985,1,4,0:0:0:0:
386,209,20077,1,4,0:0:0:0:
500,139,20261,1,4,0:0:0:0:
500,139,20352,1,4,0:0:0:0:
500,139,20444,2,0,P|448:130|429:85,1,90.9999958343508,10|4,0:2|0:0,0:0:0:0:
432,26,20719,1,4,0:0:0:0:
432,26,20811,1,4,0:0:0:0:
329,107,20995,6,0,L|279:97,1,45.4999979171754,6|4,0:0|0:0,0:0:0:0:
168,71,21178,2,0,L|212:79,1,45.4999979171754,10|0,0:2|0:0,0:0:0:0:
334,116,21362,2,0,L|284:106,1,45.4999979171754,6|4,0:0|0:0,0:0:0:0:
157,77,21546,2,0,L|201:85,1,45.4999979171754,6|0,0:0|0:0,0:0:0:0:
339,125,21729,2,0,L|289:115,1,45.4999979171754,6|4,0:0|0:0,0:0:0:0:
146,83,21913,2,0,L|190:91,1,45.4999979171754,10|0,0:2|0:0,0:0:0:0:
226,183,22096,1,6,0:0:0:0:
226,183,22188,1,4,0:0:0:0:
226,183,22280,6,0,B|209:232|195:295|195:295|189:265|176:239,1,157.500006008148,6|4,0:0|0:0,0:0:0:0:
168,248,22647,1,8,0:2:0:0:
254,343,22831,2,0,B|327:378|325:315|406:347,1,157.500006008148,6|0,0:0|0:0,0:0:0:0:
412,362,23198,1,6,0:0:0:0:
490,307,23381,1,10,0:2:0:0:
374,241,23565,1,6,0:0:0:0:
452,169,23749,6,0,P|461:148|458:117,1,45.4999979171754,10|8,0:2|0:2,0:0:0:0:
419,60,23932,1,8,0:2:0:0:
419,60,24024,1,8,0:2:0:0:
419,60,24116,2,0,L|374:50,3,45.4999979171754,8|8|8|8,0:0|0:0|0:0|0:0,0:0:0:0:
324,118,24483,2,0,L|279:128,3,45.4999979171754,4|4|8|4,0:0|0:0|0:0|0:0,0:0:0:0:
223,88,24850,1,8,0:0:0:0:
184,72,24942,1,8,0:0:0:0:
158,91,25034,1,4,0:0:0:0:
137,82,25126,1,4,0:0:0:0:
122,87,25217,5,4,0:2:0:0:
38,176,25401,2,0,P|58:187|71:207,1,45.4999979171754,6|4,0:0|0:0,0:0:0:0:
110,309,25585,2,0,P|116:264|177:249,1,90.9999958343508,10|6,0:2|0:0,0:0:0:0:
229,246,25860,1,4,0:0:0:0:
229,246,25952,1,6,0:0:0:0:
310,337,26135,1,6,0:0:0:0:
384,290,26319,1,10,0:2:0:0:
495,368,26502,1,6,0:0:0:0:
495,368,26594,1,0,0:0:0:0:
495,368,26686,6,0,B|481:337|481:337|492:313|502:273,1,90.9999958343508,6|6,0:0|0:0,0:0:0:0:
502,206,26961,1,4,0:0:0:0:
502,206,27053,2,0,B|494:175|483:152|483:152|497:121,1,90.9999958343508,10|6,0:2|0:0,0:0:0:0:
498,50,27329,1,4,0:0:0:0:
498,50,27420,1,6,0:0:0:0:
413,20,27604,1,6,0:0:0:0:
339,121,27788,1,10,0:2:0:0:
259,92,27971,1,4,0:0:0:0:
381,181,28155,6,0,P|416:139|321:135,1,210.000008010865,12|4,0:2|0:0,0:0:0:0:
258,293,28706,2,0,P|223:251|318:247,1,210.000008010865,12|4,0:2|0:0,0:0:0:0:
310,358,29164,1,4,0:0:0:0:
310,358,29256,2,0,P|259:378|201:352,1,105.000004005432,12|0,0:2|0:0,0:0:0:0:
142,291,29623,5,4,0:0:0:0:
142,291,29715,1,4,0:0:0:0:
142,291,29807,2,0,B|122:240|159:236|139:187,1,105.000004005432,12|8,0:2|0:2,0:0:0:0:
3,167,30174,1,4,0:0:0:0:
3,167,30266,1,4,0:0:0:0:
3,167,30358,2,0,P|55:170|83:127,1,105.000004005432,12|8,0:2|0:0,0:0:0:0:
80,53,30633,1,8,0:0:0:0:
80,53,30725,2,0,P|109:12|159:16,1,105.000004005432,4|4,0:0|0:0,0:0:0:0:
219,71,31000,1,4,0:0:0:0:
219,71,31092,5,2,0:0:0:0:
228,211,31276,2,0,L|231:260,2,45.4999979171754,4|4|8,0:0|0:0|0:2,0:0:0:0:
306,142,31643,1,4,0:0:0:0:
306,142,31735,1,4,0:0:0:0:
306,142,31827,1,4,0:0:0:0:
394,227,32010,6,0,L|397:182,1,45.4999979171754,6|4,0:0|0:0,0:0:0:0:
418,81,32194,2,0,L|411:182,1,90.9999958343508,10|6,0:2|0:0,0:0:0:0:
404,351,32561,5,6,0:0:0:0:
326,304,32744,1,6,0:0:0:0:
265,369,32928,1,10,0:2:0:0:
188,329,33112,1,6,0:0:0:0:
268,226,33295,5,6,0:0:0:0:
184,180,33479,1,6,0:0:0:0:
257,107,33662,1,10,0:2:0:0:
156,32,33846,1,6,0:0:0:0:
273,94,34030,6,0,L|267:147,1,52.5000020027161,6|0,0:2|0:0,0:0:0:0:
346,57,34213,2,0,L|352:3,1,52.5000020027161,6|0,0:0|0:0,0:0:0:0:
392,126,34397,1,10,0:2:0:0:
336,259,34580,6,0,L|330:206,1,52.5000020027161,6|4,0:0|0:0,0:0:0:0:
409,296,34764,2,0,L|414:348,1,52.5000020027161,6|0,0:0|0:0,0:0:0:0:
455,227,34947,1,6,0:0:0:0:
392,126,35131,5,10,0:2:0:0:
336,259,35315,1,6,0:0:0:0:
260,190,35498,6,0,L|194:180,1,52.5000020027161,8|0,0:2|0:0,0:0:0:0:
148,246,35682,1,8,0:2:0:0:
148,246,35774,1,8,0:2:0:0:
148,246,35865,1,10,0:2:0:0:
9,204,36049,5,8,0:2:0:0:
9,204,36141,1,8,0:2:0:0:
9,204,36233,2,0,L|0:152,1,52.5000020027161,8|0,0:2|0:0,0:0:0:0:
87,135,36416,2,0,L|100:61,1,52.5000020027161,10|8,0:2|0:2,0:0:0:0:
23,16,36600,1,8,0:2:0:0:
57,11,36692,1,8,0:2:0:0:
91,6,36783,1,8,0:2:0:0:
125,1,36875,1,8,0:2:0:0:
143,12,36967,5,4,0:0:0:0:
143,12,37334,2,0,B|157:47|190:58|190:58|86:95|120:185|120:185|119:135|155:114,1,315.000012016297,12|4,0:2|0:0,0:0:0:0:
275,68,38068,1,10,0:2:0:0:
302,72,38160,1,2,0:0:0:0:
329,77,38252,2,0,L|401:90,1,52.5000020027161,6|6,0:0|0:0,0:0:0:0:
458,175,38436,6,0,P|444:155|447:124,1,52.5000020027161,6|0,0:0|0:0,0:0:0:0:
487,26,38619,2,0,P|501:46|498:77,1,52.5000020027161,6|0,0:0|0:0,0:0:0:0:
369,155,38803,1,10,0:2:0:0:
302,72,38986,2,0,B|215:32|216:116|123:69,1,181.999991668702,6|4,0:0|0:0,0:0:0:0:
16,0,39537,2,0,L|8:29,3,30.3333319447836,10|2|2|4,0:2|0:0|0:0|0:0,0:0:0:0:
2,132,39904,6,0,P|63:126|101:206,1,136.499993751526,4|0,0:2|0:0,0:0:0:0:
82,263,40272,1,10,0:2:0:0:
94,296,40363,1,2,0:0:0:0:
125,313,40455,1,6,0:0:0:0:
161,315,40547,1,6,0:0:0:0:
194,300,40639,2,0,P|208:278|212:252,1,45.4999979171754,6|2,0:0|0:0,0:0:0:0:
258,178,40822,2,0,P|263:200|275:218,1,45.4999979171754,6|6,0:0|0:0,0:0:0:0:
361,255,41006,1,10,0:2:0:0:
401,257,41098,1,2,0:0:0:0:
438,242,41189,1,6,0:0:0:0:
460,207,41281,1,6,0:0:0:0:
460,166,41373,6,0,B|454:148|454:148|442:134|442:134|449:111,1,56,4|0,0:2|0:0,0:0:0:0:
394,42,41557,2,0,B|388:60|388:60|376:74|376:74|383:97,1,56,6|4,0:0|0:0,0:0:0:0:
339,181,41740,6,0,B|323:185|323:185|313:192|313:192|303:186|303:186|273:180,1,56,10|0,0:2|0:0,0:0:0:0:
256,110,41924,2,0,B|271:106|271:106|281:100|281:100|291:107|291:107|307:111,1,56,6|4,0:0|0:0,0:0:0:0:
222,231,42107,6,0,B|209:215|209:215|198:214|198:214|169:205,1,56,6|0,0:0|0:0,0:0:0:0:
122,156,42291,2,0,B|135:140|135:140|146:139|146:139|175:130,1,56,6|4,0:0|0:0,0:0:0:0:
194,52,42475,5,10,0:2:0:0:
287,182,42658,1,6,0:0:0:0:
363,46,42842,2,0,P|435:38|488:152,1,210.000008010865,4|8,0:2|0:2,0:0:0:0:
416,280,43393,5,6,0:0:0:0:
416,280,43484,1,4,0:0:0:0:
416,280,43576,2,0,B|323:237|322:317|227:276,1,195.999994018555,6|8,0:0|0:2,0:0:0:0:
178,161,44127,5,6,0:0:0:0:
178,161,44219,1,4,0:0:0:0:
178,161,44310,2,0,B|240:185|298:134|298:134|272:135|245:120,1,181.999991668702,6|8,0:0|0:2,0:0:0:0:
159,38,44861,1,2,0:0:0:0:
141,34,44953,1,0,0:0:0:0:
127,31,45045,5,10,0:2:0:0:
91,52,45137,1,2,0:0:0:0:
70,88,45228,1,6,0:0:0:0:
70,129,45321,1,10,0:2:0:0:
90,165,45412,1,2,0:2:0:0:
125,186,45504,1,10,0:2:0:0:
145,221,45597,1,2,0:0:0:0:
145,263,45688,1,10,0:2:0:0:
382,346,45963,6,0,B|367:334|367:334|367:318|365:293,1,56,10|0,0:0|0:0,0:0:0:0:
385,157,46146,2,0,B|370:169|370:169|370:184|368:210,1,56,10|0,0:0|0:0,0:0:0:0:
287,251,46330,1,6,0:0:0:0:
262,88,46513,5,10,0:2:0:0:
262,88,46605,1,8,0:2:0:0:
262,88,46697,2,0,B|235:100|235:100|201:88,1,56,10|0,0:2|0:0,0:0:0:0:
92,142,46881,2,0,B|119:130|119:130|153:142,1,56,10|8,0:2|0:2,0:0:0:0:
220,197,47064,1,10,0:2:0:0:
123,359,47248,5,10,0:2:0:0:
94,339,47340,1,8,0:2:0:0:
84,305,47431,1,8,0:2:0:0:
98,272,47523,1,8,0:2:0:0:
130,257,47614,1,8,0:2:0:0:
144,224,47707,1,8,0:2:0:0:
134,190,47799,1,8,0:2:0:0:
104,172,47890,1,8,0:2:0:0:
69,174,47982,2,0,L|23:189,3,35,4|4|4|4,0:0|0:0|0:0|0:0,0:0:0:0:
86,100,48349,2,0,L|41:81,3,35,4|4|4|4,0:0|0:0|0:0|0:0,0:0:0:0:
155,80,48709,5,8,0:2:0:0:
155,80,48800,1,8,0:2:0:0:
155,80,48892,2,0,L|201:73,2,35,8|4|4,0:2|0:0|0:0,0:0:0:0:
258,118,49168,1,8,0:2:0:0:
258,118,49259,1,8,0:2:0:0:
258,118,49351,2,0,L|306:126,2,35,8|4|4,0:2|0:0|0:0,0:0:0:0:
346,174,49626,1,8,0:2:0:0:
467,93,49810,1,8,0:2:0:0:
469,102,49902,1,8,0:2:0:0:
472,112,49994,1,8,0:2:0:0:
475,121,50085,1,8,0:2:0:0:
477,131,50177,6,0,L|484:155,4,17.5,8|0|8|0|8,0:0|0:0|0:0|0:0|0:0,0:0:0:0:
417,173,50453,2,0,L|406:195,4,17.5,8|0|8|0|8,0:0|0:0|0:0|0:0|0:0,0:0:0:0:
344,166,50728,2,0,L|321:177,4,17.5,4|0|4|0|4,0:0|0:0|0:0|0:0|0:0,0:0:0:0:
292,113,51003,2,0,L|267:107,4,17.5,4|0|4|0|4,0:0|0:0|0:0|0:0|0:0,0:0:0:0:
286,38,51287,5,10,0:2:0:0:
313,16,51379,1,10,0:2:0:0:
347,12,51470,1,10,0:2:0:0:
380,21,51562,1,10,0:2:0:0:
402,47,51654,5,10,0:2:0:0:
256,192,51746,12,4,56060,0:2:0:0:
