osu file format v14

[General]
AudioFilename: audio.mp3
AudioLeadIn: 0
PreviewTime: 341
Countdown: 0
SampleSet: Drum
StackLeniency: 0.3
Mode: 0
LetterboxInBreaks: 0
WidescreenStoryboard: 1

[Editor]
Bookmarks: 51664
DistanceSpacing: 0.9
BeatDivisor: 4
GridSize: 4
TimelineZoom: 2.3

[Metadata]
Title:SPARK MANDRILLER STAGE
TitleUnicode:SPARK MANDRILLER STAGE
Artist:Tomozawa Makoto
ArtistUnicode:友澤 眞
Creator:Crissa
Version:Easy
Source:ロックマンX
Tags:mmx rockman megaman x1 snes super nintendo capcom video game instrumental electronic vgm
BeatmapID:2733838
BeatmapSetID:1319731

[Difficulty]
HPDrainRate:3
CircleSize:3.5
OverallDifficulty:3
ApproachRate:4
SliderMultiplier:1.2
SliderTickRate:1

[Events]
//Background and Video events
0,0,"crissa_limdo.jpg",0,0
//Break Periods
2,48549,49967
//Storyboard Layer 0 (Background)
//Storyboard Layer 1 (Fail)
//Storyboard Layer 2 (Pass)
//Storyboard Layer 3 (Foreground)
//Storyboard Layer 4 (Overlay)
//Storyboard Sound Samples

[TimingPoints]
250,367.174591518267,4,3,1,70,1,0
1535,-100,4,3,1,60,0,0
4656,-100,4,3,1,65,0,0
6308,-100,4,3,1,60,0,0
6859,-100,4,3,1,60,0,0
10530,-100,4,3,1,65,0,0
11999,-100,4,3,1,60,0,0
13468,-100,4,3,1,60,0,0
16405,-100,4,3,1,65,0,0
17874,-100,4,3,1,60,0,0
22280,-100,4,3,1,65,0,0
23749,-100,4,3,1,65,0,0
25401,-100,4,3,1,65,0,0
28155,-100,4,3,1,70,0,0
31092,-100,4,3,1,60,0,0
33662,-100,4,3,1,65,0,0
34030,-100,4,3,1,70,0,0
37334,-100,4,3,1,70,0,1
38068,-100,4,3,1,65,0,1
38986,-100,4,3,1,65,0,1
41373,-100,4,3,1,70,0,1
42842,-100,4,3,1,70,0,1
43393,-100,4,3,1,65,0,1
44127,-100,4,3,1,60,0,1
45045,-100,4,3,1,65,0,1
45871,-100,4,3,1,75,0,1
47248,-100,4,3,1,70,0,1
47982,-100,4,3,1,60,0,1
48349,-100,4,3,1,60,0,0
48709,367.174591518267,4,3,1,50,1,0
48709,-100,4,3,1,50,0,0
50177,-100,4,3,1,40,0,0
51287,367.174591518267,4,3,1,70,1,0
51287,-100,4,3,1,60,0,0
51654,367.174591518267,4,3,1,70,1,0
51746,-100,4,3,1,50,0,0
56060,-100,4,3,1,20,0,0

[Colours]
Combo1 : 237,214,118
Combo2 : 240,182,142
Combo3 : 99,190,122
Combo4 : 147,155,217

[HitObjects]
83,261,433,6,0,P|141:269|176:199,1,120,12|6,0:2|0:0,0:0:0:0:
185,117,1167,1,10,0:0:0:0:
286,153,1535,2,0,B|376:183|375:118|462:148,1,180,4|8,3:2|0:2,0:0:0:0:
474,255,2453,2,0,P|443:274|363:259,1,120,4|8,0:0|0:2,0:0:0:0:
288,336,3187,6,0,P|279:289|213:253,1,120,4|10,0:0|0:2,0:0:0:0:
124,257,3921,1,6,0:0:0:0:
93,165,4289,1,10,0:2:0:0:
177,120,4656,6,0,B|235:131|235:131|254:192,1,120,6|10,0:0|0:2,0:0:0:0:
262,220,5206,2,0,L|445:202,1,180,6|8,0:0|0:2,0:0:0:0:
475,305,6124,5,6,0:0:0:0:
259,322,6859,1,8,0:0:0:0:
204,242,7226,1,6,0:0:0:0:
276,177,7593,6,0,P|295:132|155:39,1,240,4|4,0:2|0:0,0:0:0:0:
110,120,8695,2,0,P|123:172|179:210,1,120,8|4,0:2|0:0,0:0:0:0:
276,177,9429,1,10,0:2:0:0:
336,251,9796,1,6,0:0:0:0:
425,216,10163,1,10,0:2:0:0:
417,120,10530,6,0,B|440:94|440:94|405:8,1,120,6|10,0:0|0:2,0:0:0:0:
380,28,11081,2,0,L|193:9,1,180,6|10,0:0|0:2,0:0:0:0:
109,68,11999,5,8,0:2:0:0:
142,157,12366,1,8,0:0:0:0:
68,218,12733,2,0,B|46:274|46:274|79:327,1,120,4|10,0:0|0:0,0:0:0:0:
185,323,13468,6,0,B|213:320|240:312|240:312|296:335|359:354|359:354|385:345|417:343,1,240,4|4,0:2|0:0,0:0:0:0:
484,260,14569,2,0,P|431:250|366:233,1,120,8|4,0:2|0:0,0:0:0:0:
265,195,15304,5,10,0:2:0:0:
320,116,15671,1,6,0:0:0:0:
259,41,16038,1,10,0:2:0:0:
175,93,16405,6,0,B|165:105|150:120|150:120|166:151|183:211,1,120,6|10,0:0|0:2,0:0:0:0:
188,227,16956,2,0,L|4:248,1,180,6|8,0:0|0:2,0:0:0:0:
82,342,17874,5,10,0:2:0:0:
172,309,18241,1,4,0:0:0:0:
255,355,18608,2,0,P|274:301|330:273,1,120,8|10,0:0|0:0,0:0:0:0:
438,264,19343,6,0,B|518:219|490:120|490:120|468:152|430:156,1,240,4|4,0:2|0:0,0:0:0:0:
364,70,20444,2,0,P|299:59|255:95,1,120,10|4,0:2|0:0,0:0:0:0:
227,192,21178,5,10,0:2:0:0:
146,244,21546,1,6,0:0:0:0:
174,335,21913,1,10,0:2:0:0:
84,373,22280,6,0,B|35:339|35:339|50:274,1,120,6|8,0:0|0:2,0:0:0:0:
23,263,22831,2,0,L|6:81,1,180,6|10,0:0|0:2,0:0:0:0:
98,27,23749,5,10,0:2:0:0:
191,49,24116,1,8,0:0:0:0:
211,142,24483,1,4,0:0:0:0:
230,235,24850,2,0,B|289:257|288:216|348:235,1,120,8|4,0:0|0:2,0:0:0:0:
442,184,25585,5,10,0:2:0:0:
351,124,25952,2,0,L|323:-6,1,120,6|10,0:0|0:2,0:0:0:0:
236,68,26686,5,6,0:0:0:0:
142,45,27053,1,10,0:2:0:0:
68,108,27420,2,0,L|96:225,1,120,6|10,0:0|0:2,0:0:0:0:
178,294,28155,6,0,B|199:247|199:247|181:170|181:170|200:123,1,180,12|12,0:2|0:2,0:0:0:0:
352,178,29256,2,0,B|323:127|323:127|354:75|354:75|326:20,1,180,12|12,0:2|0:2,0:0:0:0:
170,66,30358,1,12,0:2:0:0:
173,173,30725,2,0,L|243:291,1,120,10|4,0:0|0:0,0:0:0:0:
338,245,31459,6,0,P|385:221|467:235,1,120,8|4,0:2|0:0,0:0:0:0:
411,327,32194,1,10,0:2:0:0:
311,367,32561,2,0,B|274:370|233:379|233:379|195:357,1,120,6|10,0:0|0:2,0:0:0:0:
155,258,33295,2,0,B|192:261|233:270|233:270|271:248,1,120,6|10,0:0|0:2,0:0:0:0:
305,147,34030,6,0,B|291:118|291:118|239:111|239:111|197:137|197:137|140:127,2,180,6|6|10,0:2|0:0|0:2,0:0:0:0:
259,244,35498,5,8,0:2:0:0:
335,320,35865,2,0,L|460:294,1,120,10|8,0:2|0:2,0:0:0:0:
470,271,36416,2,0,B|460:217|460:217|497:157|497:157|485:83,1,180,10|4,0:2|0:0,0:0:0:0:
379,115,37334,6,0,B|348:109|320:99|320:99|252:124|252:124|207:110|148:105,1,240,12|10,0:2|0:2,0:0:0:0:
84,192,38436,2,0,P|159:192|208:202,1,120,6|10,0:0|0:2,0:0:0:0:
218,228,38986,2,0,P|284:247|397:251,1,180,6|10,0:0|0:2,0:0:0:0:
476,180,39904,6,0,B|493:122|493:122|457:58,1,120,4|10,0:2|0:2,0:0:0:0:
357,50,40639,1,6,0:0:0:0:
267,83,41006,1,10,0:2:0:0:
175,114,41373,6,0,B|158:150|158:150|177:177|190:231,1,120,4|10,0:2|0:2,0:0:0:0:
277,290,42107,2,0,B|260:254|260:254|279:227|292:173,1,120,6|10,0:0|0:2,0:0:0:0:
280,72,42842,6,0,P|353:116|438:67,1,180,4|6,0:2|0:0,0:0:0:0:
444,50,43576,2,0,L|462:181,1,120,6|8,0:0|0:2,0:0:0:0:
495,271,44310,2,0,B|441:282|383:310|383:310|351:293|317:285,1,180,6|2,0:0|0:0,0:0:0:0:
303,308,45045,2,0,B|294:257|283:231|283:231|304:190|304:190|299:169|294:130,1,180,10|2,0:2|0:2,0:0:0:0:
187,148,45963,6,0,B|126:150|126:150|95:99|95:99|34:75,1,180,10|10,0:0|0:2,0:0:0:0:
131,19,46881,1,10,0:2:0:0:
236,44,47248,6,0,B|333:29|333:29|354:41|354:41|436:26|436:26|407:133|407:133|451:107,1,360,10|4,0:2|0:0,0:0:0:0:
440,254,51287,6,0,L|425:321,2,60,10|10|10,0:2|0:2|0:2,0:0:0:0:
256,192,51838,12,4,56060,0:2:0:0:
