osu file format v14

[General]
AudioFilename: audio.mp3
AudioLeadIn: 0
PreviewTime: 71910
Countdown: 0
SampleSet: Normal
StackLeniency: 0.7
Mode: 1
LetterboxInBreaks: 0
WidescreenStoryboard: 0

[Editor]
Bookmarks: 47116
DistanceSpacing: 1
BeatDivisor: 4
GridSize: 32
TimelineZoom: 1.8

[Metadata]
Title:forever under construction
TitleUnicode:forever under construction
Artist:Tomoyuki Uchida
ArtistUnicode:Tomoyuki Uchida
Creator:Jaltzu
Version:oni
Source:pop'n music うさぎと猫と少年の夢
Tags:electronic video game instrumental usagi to neko shounen no yume 内田 智之 stella higestudio higemrt ost original soundtrack roufou agu fynbi femboy mapper
BeatmapID:2475987
BeatmapSetID:1188147

[Difficulty]
HPDrainRate:6
CircleSize:2
OverallDifficulty:6
ApproachRate:10
SliderMultiplier:1.4
SliderTickRate:1

[Events]
//Background and Video events
0,0,"sunset-construction.jpg",0,45
//Break Periods
//Storyboard Layer 0 (Background)
//Storyboard Layer 1 (Fail)
//Storyboard Layer 2 (Pass)
//Storyboard Layer 3 (Foreground)
//Storyboard Layer 4 (Overlay)
//Storyboard Sound Samples

[TimingPoints]
515,352.941176470588,4,1,0,45,1,0
1882,-90.9090909090909,4,1,0,60,0,0
2257,-100,4,1,0,60,0,0
6845,-90.9090909090909,4,1,0,60,0,0
7198,-95.2380952380952,4,1,0,60,0,0
7375,-100,4,1,0,60,0,0
10551,-99.009900990099,4,1,0,60,0,0
10728,-97.0873786407767,4,1,0,60,0,0
10816,-96.1538461538461,4,1,0,61,0,0
10904,-95.2380952380952,4,1,0,62,0,0
11081,-93.4579439252336,4,1,0,64,0,0
11169,-92.5925925925926,4,1,0,65,0,0
11257,-91.743119266055,4,1,0,66,0,0
11345,-90.9090909090909,4,1,0,67,0,0
11434,-90.0900900900901,4,1,0,68,0,0
11610,-88.4955752212389,4,1,0,70,0,0
11787,-86.9565217391304,4,1,0,60,0,0
11963,-90.9090909090909,4,1,0,60,0,0
12051,-93.0232558139535,4,1,0,60,0,0
12140,-95.2380952380952,4,1,0,60,0,0
12228,-97.5609756097561,4,1,0,60,0,0
12316,-100,4,1,0,60,0,0
12492,-100,4,1,0,80,0,0
12845,-90.9090909090909,4,1,0,80,0,0
13198,-100,4,1,0,60,0,0
22728,-99.009900990099,4,1,0,60,0,0
22816,-98.0392156862745,4,1,0,60,0,0
22904,-97.0873786407767,4,1,0,60,0,0
22992,-96.1538461538461,4,1,0,60,0,0
23081,-95.2380952380952,4,1,0,60,0,0
23434,-100,4,1,0,60,0,0
24492,-95.2380952380952,4,1,0,60,0,0
34375,-95.2380952380952,4,1,0,50,0,0
34551,-96.7773153972709,4,1,0,50,0,0
34640,-97.5609756097561,4,1,0,50,0,0
34728,-98.3574309039048,4,1,0,50,0,0
34816,-99.1768322919766,4,1,0,50,0,0
34904,-100,4,1,0,50,0,0
35059,-100,4,1,0,60,0,0
35169,-98.7654320987654,4,1,0,62,0,0
35257,-97.5609756097561,4,1,0,65,0,0
35345,-96.3855421686747,4,1,0,67,0,0
35434,-95.2380952380952,4,1,0,70,0,0
35787,-90.9090909090909,4,1,0,70,0,0
44434,-92.481358070247,4,1,0,70,0,0
44522,-93.2881072589342,4,1,0,70,0,0
44610,-94.1090554556431,4,1,0,70,0,0
44787,-95.7949834083089,4,1,0,70,0,0
44875,-96.6608509054705,4,1,0,70,0,0
44963,-97.542418759358,4,1,0,70,0,0
45139,-99.3547899937804,4,1,0,70,0,0
45228,-100.286518583593,4,1,0,70,0,0
45316,-101.235887717252,4,1,0,70,0,0
45404,-102.203298713669,4,1,0,70,0,0
45492,-103.189483753332,4,1,0,70,0,0
45669,-105.219962331253,4,1,0,70,0,0
45823,-107.332068246022,4,1,0,65,0,0
46022,-109.530584772839,4,1,0,65,0,0
46198,-111.821050536406,4,1,0,65,0,0
46353,-114.209487610555,4,1,0,60,0,0
46463,-115.44224770674,4,1,0,60,0,0
46551,-116.702046837199,4,1,0,60,0,0
46639,-117.989645228735,4,1,0,60,0,0
46728,-119.305830953182,4,1,0,60,0,0
46904,-122.028454595042,4,1,0,60,0,0
46992,-123.436979250244,4,1,0,60,0,0
47081,-124.878399658333,4,1,0,50,0,0
47345,-124.271767442785,4,1,0,50,0,0
47434,-124.031007751938,4,1,0,50,0,0
47610,-123.552123552124,4,1,0,50,0,0
47875,-122.84076642811,4,1,0,50,0,0
48140,-122.137404580153,4,1,0,50,0,0
48492,-121.212121212121,4,1,0,50,0,0
48757,-120.52723433387,4,1,0,50,0,0
48845,-120.300751879699,4,1,0,50,0,0
49022,-119.850187265918,4,1,0,50,0,0
49287,-119.180704167273,4,1,0,50,0,0
49551,-118.518518518519,4,1,0,50,0,0
49728,-118.081180811808,4,1,0,50,0,0
49904,-117.647058823529,4,1,0,55,0,0
50169,-117.001759706466,4,1,0,55,0,0
50257,-116.788321167883,4,1,0,55,0,0
50434,-116.363636363636,4,1,0,55,0,0
50698,-115.732301927059,4,1,0,55,0,0
50963,-115.107913669065,4,1,0,55,0,0
51316,-114.285714285714,4,1,0,55,0,0
51581,-113.676667182001,4,1,0,55,0,0
51669,-113.475177304965,4,1,0,55,0,0
51845,-113.074204946996,4,1,0,55,0,0
52110,-112.477968377944,4,1,0,55,0,0
52375,-111.888111888112,4,1,0,55,0,0
52551,-111.498257839721,4,1,0,55,0,0
52728,-111.111111111111,4,1,0,60,0,0
52992,-110.535344781847,4,1,0,60,0,0
53081,-110.344827586207,4,1,0,60,0,0
53257,-109.965635738832,4,1,0,60,0,0
53522,-109.401649558072,4,1,0,60,0,0
53787,-108.843537414966,4,1,0,60,0,0
54140,-108.108108108108,4,1,0,60,0,0
54404,-107.562967361093,4,1,0,60,0,0
54492,-107.38255033557,4,1,0,60,0,0
54669,-107.023411371237,4,1,0,60,0,0
54934,-106.489127992478,4,1,0,60,0,0
55198,-105.960264900662,4,1,0,60,0,0
55375,-105.610561056106,4,1,0,60,0,0
55551,-105.263157894737,4,1,0,65,0,0
55816,-104.746262653349,4,1,0,65,0,0
55904,-104.575163398693,4,1,0,65,0,0
56081,-104.234527687296,4,1,0,65,0,0
56345,-103.727768546006,4,1,0,65,0,0
56610,-103.225806451613,4,1,0,65,0,0
56963,-102.564102564103,4,1,0,65,0,0
57228,-102.073313136427,4,1,0,65,0,0
57316,-101.910828025478,4,1,0,65,0,0
57492,-101.587301587302,4,1,0,65,0,0
57757,-101.105794069741,4,1,0,65,0,0
58022,-100.62893081761,4,1,0,65,0,0
58198,-100.313479623824,4,1,0,65,0,0
58375,-100,4,1,0,70,0,0
66934,-99.3804621986536,4,1,0,70,0,0
67022,-98.7685536728074,4,1,0,70,0,0
67110,-98.1642307212813,4,1,0,70,0,0
67198,-97.5671627956895,4,1,0,70,0,0
67375,-96.3945544788284,4,1,0,70,0,0
67463,-95.8188487173689,4,1,0,70,0,0
67551,-95.2498880813815,4,1,0,70,0,0
67640,-94.6876443986577,4,1,0,70,0,0
67728,-94.1319994201469,4,1,0,70,0,0
67904,-93.0401328613097,4,1,0,70,0,0
68081,-91.9732210769512,4,1,0,70,0,0
68257,-90.9305835924855,4,1,0,80,0,0
68345,-90.4180387604049,4,1,0,80,0,0
68434,-89.9112396242429,4,1,0,80,0,0
68522,-89.4100901074888,4,1,0,80,0,0
68610,-88.9145753217596,4,1,0,80,0,0
68787,-87.9396874447629,4,1,0,80,0,0
68875,-87.4602165340041,4,1,0,80,0,0
68963,-86.9860213463696,4,1,0,80,0,0
69051,-86.5168655977796,4,1,0,80,0,0
69140,-86.0527434475138,4,1,0,80,0,0
69316,-85.1393518341145,4,1,0,80,0,0
69404,-84.689853054636,4,1,0,80,0,0
69492,-84.2450756647147,4,1,0,80,0,0
69669,-83.3693905947656,4,1,0,90,0,0
70706,-83.3333333333333,4,1,0,80,0,0
71081,-83.3333333333333,4,1,0,90,0,0
71941,-90.9090909090909,4,1,0,70,0,0
72470,-86.9565217391304,4,1,0,80,0,0
72514,-86.9565217391304,4,1,0,80,0,1
95103,-90.9090909090909,4,1,0,60,0,0
95434,-95.2380952380952,4,1,0,60,0,0
104963,-95.2380952380952,4,1,0,50,0,0
105316,-100,4,1,0,45,0,0
105669,-100,4,1,0,50,0,0
106375,-90.9090909090909,4,1,0,50,0,0

[HitObjects]
256,192,515,5,0,0:0:0:0:
256,192,603,1,8,0:0:0:0:
256,192,691,1,8,0:0:0:0:
256,192,779,1,8,0:0:0:0:
256,192,867,1,8,0:0:0:0:
256,192,1044,1,8,0:0:0:0:
256,192,1132,1,8,0:0:0:0:
256,192,1309,1,0,0:0:0:0:
256,192,1397,1,0,0:0:0:0:
256,192,1573,1,12,0:0:0:0:
256,192,1926,5,12,0:0:0:0:
256,192,2279,1,0,0:0:0:0:
256,192,2367,1,0,0:0:0:0:
256,192,2456,1,8,0:0:0:0:
256,192,2632,1,0,0:0:0:0:
256,192,2809,1,0,0:0:0:0:
256,192,2897,1,8,0:0:0:0:
256,192,3073,1,8,0:0:0:0:
256,192,3338,1,0,0:0:0:0:
256,192,3514,1,0,0:0:0:0:
256,192,3691,1,8,0:0:0:0:
256,192,3779,1,8,0:0:0:0:
256,192,3867,1,8,0:0:0:0:
256,192,3956,1,8,0:0:0:0:
256,192,4044,1,0,0:0:0:0:
256,192,4220,1,0,0:0:0:0:
256,192,4397,1,0,0:0:0:0:
256,192,4485,1,8,0:0:0:0:
256,192,4573,1,0,0:0:0:0:
256,192,4662,1,8,0:0:0:0:
256,192,4750,1,0,0:0:0:0:
256,192,5103,1,8,0:0:0:0:
256,192,5279,1,0,0:0:0:0:
256,192,5456,1,8,0:0:0:0:
256,192,5544,1,8,0:0:0:0:
256,192,5632,1,8,0:0:0:0:
256,192,5720,1,8,0:0:0:0:
256,192,5809,1,0,0:0:0:0:
256,192,6162,1,0,0:0:0:0:
256,192,6338,1,8,0:0:0:0:
256,192,6426,1,8,0:0:0:0:
256,192,6514,1,0,0:0:0:0:
256,192,6603,1,0,0:0:0:0:
256,192,6691,1,8,0:0:0:0:
256,192,6867,1,12,0:0:0:0:
256,192,7220,1,4,0:0:0:0:
256,192,7397,1,8,0:0:0:0:
256,192,7485,1,8,0:0:0:0:
256,192,7573,1,4,0:0:0:0:
256,192,7750,1,0,0:0:0:0:
256,192,7926,1,8,0:0:0:0:
256,192,8103,1,0,0:0:0:0:
256,192,8279,1,8,0:0:0:0:
256,192,8456,1,0,0:0:0:0:
256,192,8544,1,8,0:0:0:0:
256,192,8720,1,8,0:0:0:0:
256,192,8809,1,0,0:0:0:0:
256,192,8985,1,12,0:0:0:0:
256,192,9162,1,0,0:0:0:0:
256,192,9250,1,0,0:0:0:0:
256,192,9338,1,8,0:0:0:0:
256,192,9514,1,0,0:0:0:0:
256,192,9691,1,8,0:0:0:0:
256,192,9867,1,0,0:0:0:0:
256,192,10044,1,8,0:0:0:0:
256,192,10220,1,0,0:0:0:0:
256,192,10309,1,0,0:0:0:0:
256,192,10397,1,12,0:0:0:0:
256,192,10573,1,0,0:0:0:0:
256,192,10750,1,8,0:0:0:0:
256,192,10838,1,8,0:0:0:0:
256,192,10926,1,0,0:0:0:0:
256,192,11103,1,0,0:0:0:0:
256,192,11191,1,8,0:0:0:0:
256,192,11279,1,8,0:0:0:0:
256,192,11367,1,8,0:0:0:0:
256,192,11456,1,0,0:0:0:0:
256,192,11632,1,8,0:0:0:0:
256,192,11809,1,4,0:0:0:0:
256,192,11985,1,0,0:0:0:0:
256,192,12073,1,0,0:0:0:0:
256,192,12162,1,8,0:0:0:0:
256,192,12250,1,8,0:0:0:0:
256,192,12338,1,8,0:0:0:0:
256,192,12514,1,4,0:0:0:0:
256,192,12867,1,12,0:0:0:0:
256,192,13220,5,4,0:0:0:0:
256,192,13485,1,8,0:0:0:0:
256,192,13662,1,0,0:0:0:0:
256,192,13750,1,0,0:0:0:0:
256,192,13926,1,8,0:0:0:0:
256,192,14103,1,0,0:0:0:0:
256,192,14191,1,8,0:0:0:0:
256,192,14367,1,0,0:0:0:0:
256,192,14456,1,8,0:0:0:0:
256,192,14632,1,0,0:0:0:0:
256,192,14897,1,8,0:0:0:0:
256,192,15073,1,0,0:0:0:0:
256,192,15162,1,0,0:0:0:0:
256,192,15338,1,8,0:0:0:0:
256,192,15514,1,0,0:0:0:0:
256,192,15603,1,8,0:0:0:0:
256,192,15691,1,0,0:0:0:0:
256,192,15779,1,0,0:0:0:0:
256,192,15867,1,8,0:0:0:0:
256,192,16044,1,0,0:0:0:0:
256,192,16309,1,8,0:0:0:0:
256,192,16485,1,0,0:0:0:0:
256,192,16573,1,0,0:0:0:0:
256,192,16750,1,8,0:0:0:0:
256,192,16926,1,0,0:0:0:0:
256,192,17014,1,8,0:0:0:0:
256,192,17191,1,0,0:0:0:0:
256,192,17279,1,8,0:0:0:0:
256,192,17456,1,0,0:0:0:0:
256,192,17809,1,8,0:0:0:0:
256,192,17985,1,8,0:0:0:0:
256,192,18162,1,0,0:0:0:0:
256,192,18279,1,0,0:0:0:0:
256,192,18397,1,0,0:0:0:0:
256,192,18514,1,12,0:0:0:0:
256,192,18867,1,4,0:0:0:0:
256,192,19044,1,0,0:0:0:0:
256,192,19132,1,8,0:0:0:0:
256,192,19309,1,8,0:0:0:0:
256,192,19397,1,0,0:0:0:0:
256,192,19573,1,8,0:0:0:0:
256,192,19750,1,0,0:0:0:0:
256,192,19838,1,0,0:0:0:0:
256,192,19926,1,8,0:0:0:0:
256,192,20014,1,0,0:0:0:0:
256,192,20103,1,8,0:0:0:0:
256,192,20279,1,0,0:0:0:0:
256,192,20456,1,0,0:0:0:0:
256,192,20544,1,8,0:0:0:0:
256,192,20720,1,0,0:0:0:0:
256,192,20809,1,8,0:0:0:0:
256,192,20985,1,8,0:0:0:0:
256,192,21162,1,0,0:0:0:0:
256,192,21250,1,8,0:0:0:0:
256,192,21338,1,0,0:0:0:0:
256,192,21426,1,0,0:0:0:0:
256,192,21514,1,8,0:0:0:0:
256,192,21691,1,0,0:0:0:0:
256,192,21867,1,0,0:0:0:0:
256,192,21956,1,8,0:0:0:0:
256,192,22132,1,0,0:0:0:0:
256,192,22220,1,0,0:0:0:0:
256,192,22309,1,0,0:0:0:0:
256,192,22397,1,8,0:0:0:0:
256,192,22573,1,0,0:0:0:0:
256,192,22750,1,8,0:0:0:0:
256,192,22838,1,0,0:0:0:0:
256,192,22926,1,8,0:0:0:0:
256,192,23014,1,8,0:0:0:0:
256,192,23103,1,0,0:0:0:0:
256,192,23456,1,0,0:0:0:0:
256,192,23632,1,0,0:0:0:0:
256,192,23985,1,4,0:0:0:0:
256,192,24162,1,12,0:0:0:0:
256,192,24514,5,12,0:0:0:0:
256,192,24691,1,0,0:0:0:0:
256,192,24779,1,0,0:0:0:0:
256,192,24867,1,8,0:0:0:0:
256,192,25044,1,0,0:0:0:0:
256,192,25220,1,8,0:0:0:0:
256,192,25397,1,8,0:0:0:0:
256,192,25485,1,0,0:0:0:0:
256,192,25573,1,0,0:0:0:0:
256,192,25750,1,8,0:0:0:0:
256,192,25926,1,0,0:0:0:0:
256,192,26191,1,0,0:0:0:0:
256,192,26279,1,8,0:0:0:0:
256,192,26456,1,0,0:0:0:0:
256,192,26632,1,0,0:0:0:0:
256,192,26897,1,8,0:0:0:0:
256,192,26985,1,0,0:0:0:0:
256,192,27162,1,8,0:0:0:0:
256,192,27338,1,0,0:0:0:0:
256,192,27514,1,0,0:0:0:0:
256,192,27603,1,8,0:0:0:0:
256,192,27691,1,0,0:0:0:0:
256,192,27867,1,8,0:0:0:0:
256,192,28044,1,0,0:0:0:0:
256,192,28220,1,8,0:0:0:0:
256,192,28309,1,0,0:0:0:0:
256,192,28485,1,0,0:0:0:0:
256,192,28573,1,8,0:0:0:0:
256,192,28750,1,0,0:0:0:0:
256,192,28838,1,0,0:0:0:0:
256,192,28926,1,8,0:0:0:0:
256,192,29014,1,8,0:0:0:0:
256,192,29103,1,0,0:0:0:0:
256,192,29279,1,8,0:0:0:0:
256,192,29367,1,8,0:0:0:0:
256,192,29456,1,0,0:0:0:0:
256,192,29632,1,8,0:0:0:0:
256,192,29720,1,0,0:0:0:0:
256,192,29809,1,0,0:0:0:0:
256,192,29985,1,0,0:0:0:0:
256,192,30162,1,12,0:0:0:0:
256,192,30514,1,0,0:0:0:0:
256,192,30691,1,8,0:0:0:0:
256,192,30867,1,0,0:0:0:0:
256,192,31132,1,8,0:0:0:0:
256,192,31220,1,0,0:0:0:0:
256,192,31309,1,0,0:0:0:0:
256,192,31397,1,8,0:0:0:0:
256,192,31573,1,0,0:0:0:0:
256,192,31750,1,0,0:0:0:0:
256,192,31838,1,8,0:0:0:0:
256,192,31926,1,0,0:0:0:0:
256,192,32103,1,8,0:0:0:0:
256,192,32279,1,0,0:0:0:0:
256,192,32367,1,0,0:0:0:0:
256,192,32456,1,8,0:0:0:0:
256,192,32544,1,8,0:0:0:0:
256,192,32632,1,0,0:0:0:0:
256,192,32809,1,8,0:0:0:0:
256,192,32985,1,0,0:0:0:0:
256,192,33250,1,8,0:0:0:0:
256,192,33338,1,0,0:0:0:0:
256,192,33514,1,8,0:0:0:0:
256,192,33691,1,0,0:0:0:0:
256,192,33867,1,0,0:0:0:0:
256,192,33956,1,0,0:0:0:0:
256,192,34044,1,0,0:0:0:0:
256,192,34132,1,8,0:0:0:0:
256,192,34309,1,8,0:0:0:0:
256,192,34397,1,0,0:0:0:0:
256,192,34573,1,0,0:0:0:0:
256,192,34662,1,8,0:0:0:0:
256,192,34750,1,0,0:0:0:0:
256,192,34838,1,0,0:0:0:0:
256,192,34926,1,8,0:0:0:0:
256,192,35103,1,8,0:0:0:0:
256,192,35191,1,8,0:0:0:0:
256,192,35279,1,0,0:0:0:0:
256,192,35367,1,0,0:0:0:0:
256,192,35456,1,8,0:0:0:0:
256,192,35809,5,12,0:0:0:0:
256,192,35985,1,0,0:0:0:0:
256,192,36073,1,0,0:0:0:0:
256,192,36162,1,8,0:0:0:0:
256,192,36250,1,0,0:0:0:0:
256,192,36338,1,8,0:0:0:0:
256,192,36514,1,8,0:0:0:0:
256,192,36691,1,0,0:0:0:0:
256,192,36779,1,8,0:0:0:0:
256,192,36867,1,0,0:0:0:0:
256,192,36956,1,0,0:0:0:0:
256,192,37044,1,8,0:0:0:0:
256,192,37220,1,0,0:0:0:0:
256,192,37485,1,8,0:0:0:0:
256,192,37573,1,0,0:0:0:0:
256,192,37750,1,8,0:0:0:0:
256,192,37926,1,0,0:0:0:0:
256,192,38191,1,8,0:0:0:0:
256,192,38279,1,0,0:0:0:0:
256,192,38367,1,0,0:0:0:0:
256,192,38456,1,8,0:0:0:0:
256,192,38632,1,0,0:0:0:0:
256,192,38897,1,0,0:0:0:0:
256,192,38985,1,0,0:0:0:0:
256,192,39162,1,8,0:0:0:0:
256,192,39250,1,8,0:0:0:0:
256,192,39338,1,0,0:0:0:0:
256,192,39514,1,0,0:0:0:0:
256,192,39603,1,0,0:0:0:0:
256,192,39691,1,0,0:0:0:0:
256,192,39779,1,8,0:0:0:0:
256,192,39956,1,8,0:0:0:0:
256,192,40044,1,0,0:0:0:0:
256,192,40220,1,0,0:0:0:0:
256,192,40309,1,8,0:0:0:0:
256,192,40397,1,0,0:0:0:0:
256,192,40573,1,8,0:0:0:0:
256,192,40662,1,8,0:0:0:0:
256,192,40750,1,0,0:0:0:0:
256,192,40926,1,0,0:0:0:0:
256,192,41103,1,8,0:0:0:0:
256,192,41191,1,8,0:0:0:0:
256,192,41279,1,0,0:0:0:0:
256,192,41367,1,0,0:0:0:0:
256,192,41456,1,12,0:0:0:0:
256,192,41809,1,0,0:0:0:0:
256,192,41897,1,0,0:0:0:0:
256,192,41985,1,8,0:0:0:0:
256,192,42162,1,8,0:0:0:0:
256,192,42338,1,0,0:0:0:0:
256,192,42426,1,8,0:0:0:0:
256,192,42514,1,0,0:0:0:0:
256,192,42691,1,8,0:0:0:0:
256,192,42867,1,4,0:0:0:0:
256,192,43044,1,0,0:0:0:0:
256,192,43132,1,8,0:0:0:0:
256,192,43220,1,0,0:0:0:0:
256,192,43309,1,0,0:0:0:0:
256,192,43397,1,8,0:0:0:0:
256,192,43573,1,0,0:0:0:0:
256,192,43838,1,8,0:0:0:0:
256,192,43926,1,0,0:0:0:0:
256,192,44103,1,8,0:0:0:0:
256,192,44191,1,8,0:0:0:0:
256,192,44279,1,4,0:0:0:0:
256,192,44456,1,0,0:0:0:0:
256,192,44544,1,8,0:0:0:0:
256,192,44632,1,0,0:0:0:0:
256,192,44809,1,8,0:0:0:0:
256,192,44897,1,8,0:0:0:0:
256,192,44985,1,0,0:0:0:0:
256,192,45162,1,0,0:0:0:0:
256,192,45250,1,8,0:0:0:0:
256,192,45338,1,0,0:0:0:0:
256,192,45426,1,0,0:0:0:0:
256,192,45514,1,8,0:0:0:0:
256,192,45691,1,12,0:0:0:0:
256,192,45867,1,0,0:0:0:0:
256,192,46044,1,8,0:0:0:0:
256,192,46220,1,0,0:0:0:0:
256,192,46397,1,0,0:0:0:0:
256,192,46485,1,8,0:0:0:0:
256,192,46573,1,8,0:0:0:0:
256,192,46662,1,0,0:0:0:0:
256,192,46750,1,8,0:0:0:0:
256,192,46926,1,0,0:0:0:0:
256,192,47014,1,8,0:0:0:0:
256,192,47103,5,8,0:0:0:0:
256,192,47367,1,8,0:0:0:0:
256,192,47456,1,0,0:0:0:0:
256,192,47632,1,8,0:0:0:0:
256,192,47897,1,0,0:0:0:0:
256,192,48162,1,8,0:0:0:0:
256,192,48514,1,0,0:0:0:0:
256,192,48779,1,8,0:0:0:0:
256,192,48867,1,0,0:0:0:0:
256,192,49044,1,0,0:0:0:0:
256,192,49309,1,0,0:0:0:0:
256,192,49573,1,8,0:0:0:0:
256,192,49750,1,0,0:0:0:0:
256,192,49926,1,8,0:0:0:0:
256,192,50191,1,8,0:0:0:0:
256,192,50279,1,0,0:0:0:0:
256,192,50456,1,0,0:0:0:0:
256,192,50720,1,8,0:0:0:0:
256,192,50985,1,0,0:0:0:0:
256,192,51338,1,8,0:0:0:0:
256,192,51603,1,8,0:0:0:0:
256,192,51691,1,0,0:0:0:0:
256,192,51867,1,8,0:0:0:0:
256,192,52132,1,0,0:0:0:0:
256,192,52397,1,8,0:0:0:0:
256,192,52573,1,0,0:0:0:0:
256,192,52750,1,8,0:0:0:0:
256,192,53014,1,8,0:0:0:0:
256,192,53103,1,0,0:0:0:0:
256,192,53279,1,8,0:0:0:0:
256,192,53544,1,0,0:0:0:0:
256,192,53809,1,8,0:0:0:0:
256,192,54162,1,0,0:0:0:0:
256,192,54426,1,8,0:0:0:0:
256,192,54514,1,0,0:0:0:0:
256,192,54691,1,0,0:0:0:0:
256,192,54956,1,0,0:0:0:0:
256,192,55220,1,8,0:0:0:0:
256,192,55397,1,0,0:0:0:0:
256,192,55573,1,8,0:0:0:0:
256,192,55838,1,8,0:0:0:0:
256,192,55926,1,0,0:0:0:0:
256,192,56103,1,0,0:0:0:0:
256,192,56367,1,8,0:0:0:0:
256,192,56632,1,8,0:0:0:0:
256,192,56985,1,8,0:0:0:0:
256,192,57250,1,8,0:0:0:0:
256,192,57338,1,0,0:0:0:0:
256,192,57514,1,8,0:0:0:0:
256,192,57779,1,0,0:0:0:0:
256,192,58044,1,8,0:0:0:0:
256,192,58220,1,0,0:0:0:0:
256,192,58397,5,12,0:0:0:0:
256,192,58573,1,0,0:0:0:0:
256,192,58662,1,8,0:0:0:0:
256,192,58750,1,0,0:0:0:0:
256,192,58926,1,8,0:0:0:0:
256,192,59103,1,0,0:0:0:0:
256,192,59191,1,8,0:0:0:0:
256,192,59456,1,8,0:0:0:0:
256,192,59809,1,0,0:0:0:0:
256,192,59985,1,0,0:0:0:0:
256,192,60073,1,0,0:0:0:0:
256,192,60162,1,8,0:0:0:0:
256,192,60338,1,0,0:0:0:0:
256,192,60514,1,0,0:0:0:0:
256,192,60603,1,0,0:0:0:0:
256,192,60867,1,8,0:0:0:0:
256,192,61044,1,0,0:0:0:0:
256,192,61220,1,8,0:0:0:0:
256,192,61397,1,0,0:0:0:0:
256,192,61485,1,8,0:0:0:0:
256,192,61573,1,0,0:0:0:0:
256,192,61750,1,8,0:0:0:0:
256,192,61926,1,0,0:0:0:0:
256,192,62014,1,8,0:0:0:0:
256,192,62279,1,8,0:0:0:0:
256,192,62632,1,8,0:0:0:0:
256,192,62809,1,0,0:0:0:0:
256,192,62897,1,8,0:0:0:0:
256,192,62985,1,0,0:0:0:0:
256,192,63162,1,8,0:0:0:0:
256,192,63338,1,8,0:0:0:0:
256,192,63426,1,8,0:0:0:0:
256,192,63514,1,0,0:0:0:0:
256,192,63691,1,8,0:0:0:0:
256,192,64044,1,0,0:0:0:0:
256,192,64220,1,0,0:0:0:0:
256,192,64309,1,8,0:0:0:0:
256,192,64397,1,0,0:0:0:0:
256,192,64573,1,8,0:0:0:0:
256,192,64750,1,0,0:0:0:0:
256,192,64926,1,0,0:0:0:0:
256,192,65103,1,8,0:0:0:0:
256,192,65456,1,8,0:0:0:0:
256,192,65632,1,0,0:0:0:0:
256,192,65720,1,8,0:0:0:0:
256,192,65809,1,0,0:0:0:0:
256,192,65985,1,8,0:0:0:0:
256,192,66162,1,0,0:0:0:0:
256,192,66338,1,0,0:0:0:0:
256,192,66514,1,8,0:0:0:0:
256,192,66691,1,0,0:0:0:0:
256,192,66867,1,0,0:0:0:0:
256,192,66956,1,8,0:0:0:0:
256,192,67044,1,0,0:0:0:0:
256,192,67132,1,0,0:0:0:0:
256,192,67220,1,8,0:0:0:0:
256,192,67397,1,0,0:0:0:0:
256,192,67485,1,0,0:0:0:0:
256,192,67573,1,8,0:0:0:0:
256,192,67662,1,8,0:0:0:0:
256,192,67750,1,0,0:0:0:0:
256,192,67926,1,8,0:0:0:0:
256,192,68103,1,0,0:0:0:0:
256,192,68279,1,8,0:0:0:0:
256,192,68367,1,8,0:0:0:0:
256,192,68456,1,0,0:0:0:0:
256,192,68544,1,8,0:0:0:0:
256,192,68632,1,0,0:0:0:0:
256,192,68809,1,0,0:0:0:0:
256,192,68897,1,8,0:0:0:0:
256,192,68985,1,0,0:0:0:0:
256,192,69073,1,8,0:0:0:0:
256,192,69162,1,0,0:0:0:0:
256,192,69338,1,8,0:0:0:0:
256,192,69426,1,8,0:0:0:0:
256,192,69514,1,0,0:0:0:0:
256,192,69691,1,8,0:0:0:0:
256,192,69779,1,8,0:0:0:0:
256,192,69956,1,0,0:0:0:0:
256,192,70044,1,0,0:0:0:0:
256,192,70220,1,8,0:0:0:0:
256,192,70309,1,8,0:0:0:0:
256,192,70485,1,8,0:0:0:0:
256,192,70573,1,8,0:0:0:0:
256,192,70750,1,0,0:0:0:0:
256,192,70926,1,8,0:0:0:0:
256,192,71103,1,0,0:0:0:0:
256,192,71191,1,0,0:0:0:0:
256,192,71367,1,0,0:0:0:0:
256,192,71456,1,0,0:0:0:0:
256,192,71632,1,8,0:0:0:0:
256,192,71720,1,8,0:0:0:0:
256,192,71985,1,0,0:0:0:0:
256,192,72162,1,12,0:0:0:0:
256,192,72514,5,12,0:0:0:0:
256,192,72691,1,0,0:0:0:0:
256,192,72779,1,8,0:0:0:0:
256,192,72867,1,0,0:0:0:0:
256,192,72956,1,0,0:0:0:0:
256,192,73044,1,8,0:0:0:0:
256,192,73220,1,8,0:0:0:0:
256,192,73309,1,8,0:0:0:0:
256,192,73397,1,0,0:0:0:0:
256,192,73485,1,8,0:0:0:0:
256,192,73573,1,0,0:0:0:0:
256,192,73750,1,8,0:0:0:0:
256,192,73926,1,0,0:0:0:0:
256,192,74014,1,0,0:0:0:0:
256,192,74103,1,8,0:0:0:0:
256,192,74279,1,0,0:0:0:0:
256,192,74456,1,8,0:0:0:0:
256,192,74809,1,8,0:0:0:0:
256,192,74897,1,0,0:0:0:0:
256,192,74985,1,0,0:0:0:0:
256,192,75162,1,8,0:0:0:0:
256,192,75338,1,0,0:0:0:0:
256,192,75514,1,8,0:0:0:0:
256,192,75603,1,8,0:0:0:0:
256,192,75691,1,0,0:0:0:0:
256,192,75779,1,0,0:0:0:0:
256,192,75867,1,8,0:0:0:0:
256,192,76044,1,0,0:0:0:0:
256,192,76220,1,8,0:0:0:0:
256,192,76397,1,8,0:0:0:0:
256,192,76573,1,0,0:0:0:0:
256,192,76750,1,0,0:0:0:0:
256,192,76926,1,0,0:0:0:0:
256,192,77014,1,8,0:0:0:0:
256,192,77103,1,0,0:0:0:0:
256,192,77191,1,0,0:0:0:0:
256,192,77279,1,8,0:0:0:0:
256,192,77456,1,0,0:0:0:0:
256,192,77544,1,0,0:0:0:0:
256,192,77632,1,8,0:0:0:0:
256,192,77720,1,8,0:0:0:0:
256,192,77809,1,0,0:0:0:0:
256,192,77985,1,0,0:0:0:0:
256,192,78162,1,12,0:0:0:0:
256,192,78426,1,8,0:0:0:0:
256,192,78514,1,0,0:0:0:0:
256,192,78603,1,0,0:0:0:0:
256,192,78691,1,8,0:0:0:0:
256,192,78867,1,0,0:0:0:0:
256,192,79044,1,0,0:0:0:0:
256,192,79220,1,8,0:0:0:0:
256,192,79397,1,8,0:0:0:0:
256,192,79573,1,0,0:0:0:0:
256,192,79750,1,8,0:0:0:0:
256,192,79838,1,0,0:0:0:0:
256,192,79926,1,8,0:0:0:0:
256,192,80014,1,8,0:0:0:0:
256,192,80103,1,0,0:0:0:0:
256,192,80279,1,0,0:0:0:0:
256,192,80367,1,0,0:0:0:0:
256,192,80456,1,8,0:0:0:0:
256,192,80544,1,0,0:0:0:0:
256,192,80632,1,8,0:0:0:0:
256,192,80809,1,8,0:0:0:0:
256,192,80985,1,0,0:0:0:0:
256,192,81162,1,0,0:0:0:0:
256,192,81250,1,8,0:0:0:0:
256,192,81338,1,8,0:0:0:0:
256,192,81514,1,8,0:0:0:0:
256,192,81603,1,0,0:0:0:0:
256,192,81691,1,8,0:0:0:0:
256,192,81779,1,0,0:0:0:0:
256,192,81867,1,8,0:0:0:0:
256,192,81956,1,0,0:0:0:0:
256,192,82044,1,8,0:0:0:0:
256,192,82220,1,8,0:0:0:0:
256,192,82397,1,0,0:0:0:0:
256,192,82485,1,0,0:0:0:0:
256,192,82573,1,8,0:0:0:0:
256,192,82662,1,8,0:0:0:0:
256,192,82750,1,0,0:0:0:0:
256,192,82926,1,0,0:0:0:0:
256,192,83014,1,8,0:0:0:0:
256,192,83103,1,0,0:0:0:0:
256,192,83279,1,0,0:0:0:0:
256,192,83456,1,12,0:0:0:0:
256,192,83809,1,4,0:0:0:0:
256,192,83985,1,8,0:0:0:0:
256,192,84073,1,0,0:0:0:0:
256,192,84162,1,0,0:0:0:0:
256,192,84338,1,8,0:0:0:0:
256,192,84514,1,0,0:0:0:0:
256,192,84603,1,0,0:0:0:0:
256,192,84691,1,8,0:0:0:0:
256,192,84779,1,8,0:0:0:0:
256,192,84867,1,0,0:0:0:0:
256,192,85044,1,8,0:0:0:0:
256,192,85220,1,0,0:0:0:0:
256,192,85397,1,8,0:0:0:0:
256,192,85485,1,0,0:0:0:0:
256,192,85573,1,8,0:0:0:0:
256,192,85662,1,8,0:0:0:0:
256,192,85750,1,0,0:0:0:0:
256,192,85926,1,0,0:0:0:0:
256,192,86103,1,0,0:0:0:0:
256,192,86279,1,8,0:0:0:0:
256,192,86456,1,8,0:0:0:0:
256,192,86632,1,0,0:0:0:0:
256,192,86809,1,8,0:0:0:0:
256,192,86897,1,0,0:0:0:0:
256,192,86985,1,0,0:0:0:0:
256,192,87162,1,8,0:0:0:0:
256,192,87338,1,0,0:0:0:0:
256,192,87426,1,8,0:0:0:0:
256,192,87514,1,0,0:0:0:0:
256,192,87691,1,0,0:0:0:0:
256,192,87867,1,8,0:0:0:0:
256,192,88044,1,8,0:0:0:0:
256,192,88220,1,8,0:0:0:0:
256,192,88309,1,8,0:0:0:0:
256,192,88397,1,0,0:0:0:0:
256,192,88485,1,8,0:0:0:0:
256,192,88573,1,0,0:0:0:0:
256,192,88750,1,0,0:0:0:0:
256,192,88838,1,8,0:0:0:0:
256,192,88926,1,8,0:0:0:0:
256,192,89103,1,0,0:0:0:0:
256,192,89456,1,4,0:0:0:0:
256,192,89632,1,0,0:0:0:0:
256,192,89720,1,8,0:0:0:0:
256,192,89809,1,0,0:0:0:0:
256,192,89985,1,0,0:0:0:0:
256,192,90162,1,12,0:0:0:0:
256,192,90338,1,0,0:0:0:0:
256,192,90426,1,8,0:0:0:0:
256,192,90514,1,0,0:0:0:0:
256,192,90691,1,8,0:0:0:0:
256,192,90867,1,4,0:0:0:0:
256,192,91044,1,8,0:0:0:0:
256,192,91132,1,0,0:0:0:0:
256,192,91220,1,0,0:0:0:0:
256,192,91397,1,8,0:0:0:0:
256,192,91573,1,8,0:0:0:0:
256,192,91662,1,0,0:0:0:0:
256,192,91750,1,8,0:0:0:0:
256,192,91838,1,8,0:0:0:0:
256,192,91926,1,0,0:0:0:0:
256,192,92103,1,8,0:0:0:0:
256,192,92279,1,12,0:0:0:0:
256,192,92544,1,8,0:0:0:0:
256,192,92632,1,0,0:0:0:0:
256,192,92809,1,8,0:0:0:0:
256,192,92985,1,4,0:0:0:0:
256,192,93162,1,8,0:0:0:0:
256,192,93250,1,0,0:0:0:0:
256,192,93338,1,0,0:0:0:0:
256,192,93426,1,0,0:0:0:0:
256,192,93514,1,8,0:0:0:0:
256,192,93867,1,0,0:0:0:0:
256,192,93956,1,8,0:0:0:0:
256,192,94044,1,0,0:0:0:0:
256,192,94220,1,0,0:0:0:0:
256,192,94309,1,0,0:0:0:0:
256,192,94397,1,8,0:0:0:0:
256,192,94573,1,0,0:0:0:0:
256,192,94750,1,12,0:0:0:0:
256,192,95103,5,4,0:0:0:0:
256,192,95456,1,0,0:0:0:0:
256,192,95544,1,0,0:0:0:0:
256,192,95632,1,8,0:0:0:0:
256,192,95809,1,0,0:0:0:0:
256,192,95985,1,0,0:0:0:0:
256,192,96162,1,0,0:0:0:0:
256,192,96250,1,0,0:0:0:0:
256,192,96338,1,8,0:0:0:0:
256,192,96426,1,8,0:0:0:0:
256,192,96514,1,0,0:0:0:0:
256,192,96691,1,8,0:0:0:0:
256,192,96867,1,0,0:0:0:0:
256,192,96956,1,0,0:0:0:0:
256,192,97044,1,0,0:0:0:0:
256,192,97220,1,0,0:0:0:0:
256,192,97397,1,0,0:0:0:0:
256,192,97573,1,8,0:0:0:0:
256,192,97662,1,8,0:0:0:0:
256,192,97750,1,8,0:0:0:0:
256,192,97838,1,8,0:0:0:0:
256,192,97926,1,0,0:0:0:0:
256,192,98279,1,8,0:0:0:0:
256,192,98367,1,8,0:0:0:0:
256,192,98456,1,8,0:0:0:0:
256,192,98632,1,0,0:0:0:0:
256,192,98809,1,8,0:0:0:0:
256,192,98985,1,0,0:0:0:0:
256,192,99162,1,0,0:0:0:0:
256,192,99338,1,8,0:0:0:0:
256,192,99514,1,8,0:0:0:0:
256,192,99603,1,8,0:0:0:0:
256,192,99691,1,0,0:0:0:0:
256,192,99867,1,0,0:0:0:0:
256,192,100044,1,8,0:0:0:0:
256,192,100132,1,0,0:0:0:0:
256,192,100220,1,8,0:0:0:0:
256,192,100397,1,0,0:0:0:0:
256,192,100485,1,0,0:0:0:0:
256,192,100573,1,8,0:0:0:0:
256,192,100662,1,0,0:0:0:0:
256,192,100750,1,12,0:0:0:0:
256,192,101103,1,0,0:0:0:0:
256,192,101191,1,8,0:0:0:0:
256,192,101279,1,0,0:0:0:0:
256,192,101456,1,0,0:0:0:0:
256,192,101632,1,0,0:0:0:0:
256,192,101809,1,0,0:0:0:0:
256,192,101897,1,0,0:0:0:0:
256,192,101985,1,8,0:0:0:0:
256,192,102073,1,8,0:0:0:0:
256,192,102162,1,0,0:0:0:0:
256,192,102338,1,0,0:0:0:0:
256,192,102426,1,8,0:0:0:0:
256,192,102514,1,0,0:0:0:0:
256,192,102603,1,0,0:0:0:0:
256,192,102691,1,8,0:0:0:0:
256,192,102867,1,0,0:0:0:0:
256,192,103044,1,0,0:0:0:0:
256,192,103220,1,8,0:0:0:0:
256,192,103309,1,8,0:0:0:0:
256,192,103397,1,8,0:0:0:0:
256,192,103485,1,8,0:0:0:0:
256,192,103573,1,4,0:0:0:0:
256,192,103926,1,8,0:0:0:0:
256,192,104014,1,0,0:0:0:0:
256,192,104103,1,0,0:0:0:0:
256,192,104279,1,12,0:0:0:0:
256,192,104456,1,0,0:0:0:0:
256,192,104544,1,0,0:0:0:0:
256,192,104632,1,8,0:0:0:0:
256,192,104720,1,0,0:0:0:0:
256,192,104809,1,8,0:0:0:0:
256,192,104985,1,4,0:0:0:0:
256,192,105338,1,0,0:0:0:0:
256,192,105514,1,0,0:0:0:0:
256,192,105691,1,0,0:0:0:0:
256,192,105779,1,0,0:0:0:0:
256,192,105867,1,0,0:0:0:0:
256,192,106044,1,12,0:0:0:0:
256,192,106397,1,4,0:0:0:0:
