osu file format v14

[General]
AudioFilename: audio.mp3
AudioLeadIn: 0
PreviewTime: 71910
Countdown: 0
SampleSet: Normal
StackLeniency: 0.7
Mode: 1
LetterboxInBreaks: 0
WidescreenStoryboard: 0

[Editor]
Bookmarks: 24514,47116
DistanceSpacing: 1
BeatDivisor: 2
GridSize: 32
TimelineZoom: 1.8

[Metadata]
Title:forever under construction
TitleUnicode:forever under construction
Artist:Tomoyuki Uchida
ArtistUnicode:Tomoyuki Uchida
Creator:Jaltzu
Version:futsuu
Source:pop'n music うさぎと猫と少年の夢
Tags:electronic video game instrumental usagi to neko shounen no yume 内田 智之 stella higestudio higemrt ost original soundtrack roufou agu fynbi femboy mapper
BeatmapID:2478005
BeatmapSetID:1188147

[Difficulty]
HPDrainRate:8
CircleSize:2
OverallDifficulty:4
ApproachRate:10
SliderMultiplier:1.4
SliderTickRate:1

[Events]
//Background and Video events
0,0,"sunset-construction.jpg",0,45
//Break Periods
//Storyboard Layer 0 (Background)
//Storyboard Layer 1 (Fail)
//Storyboard Layer 2 (Pass)
//Storyboard Layer 3 (Foreground)
//Storyboard Layer 4 (Overlay)
//Storyboard Sound Samples

[TimingPoints]
515,352.941176470588,4,1,0,45,1,0
1882,-100,4,1,0,60,0,0
11081,-100,4,1,0,64,0,0
11257,-100,4,1,0,66,0,0
11434,-100,4,1,0,68,0,0
11610,-100,4,1,0,70,0,0
11787,-100,4,1,0,60,0,0
12492,-100,4,1,0,80,0,0
13198,-100,4,1,0,60,0,0
34375,-100,4,1,0,50,0,0
35059,-100,4,1,0,60,0,0
35257,-100,4,1,0,65,0,0
35434,-100,4,1,0,70,0,0
45823,-100,4,1,0,65,0,0
46353,-100,4,1,0,60,0,0
47081,-100,4,1,0,50,0,0
49904,-100,4,1,0,55,0,0
52728,-100,4,1,0,60,0,0
55551,-100,4,1,0,65,0,0
58375,-100,4,1,0,70,0,0
68257,-100,4,1,0,80,0,0
69669,-100,4,1,0,90,0,0
70706,-100,4,1,0,80,0,0
71081,-100,4,1,0,90,0,0
72470,-100,4,1,0,80,0,0
72514,-100,4,1,0,80,0,1
95014,-100,4,1,0,60,0,1
95103,-100,4,1,0,60,0,0
104963,-100,4,1,0,50,0,0
105316,-100,4,1,0,45,0,0
105669,-100,4,1,0,50,0,0

[HitObjects]
256,192,515,5,0,0:0:0:0:
256,192,691,1,0,0:0:0:0:
256,192,867,1,8,0:0:0:0:
256,192,1220,1,8,0:0:0:0:
256,192,1397,1,8,0:0:0:0:
256,192,1573,1,4,0:0:0:0:
256,192,1926,1,12,0:0:0:0:
256,192,2279,1,0,0:0:0:0:
256,192,2632,1,8,0:0:0:0:
256,192,3338,1,0,0:0:0:0:
256,192,3691,1,8,0:0:0:0:
256,192,3867,1,8,0:0:0:0:
256,192,4044,1,0,0:0:0:0:
256,192,4397,1,0,0:0:0:0:
256,192,4573,1,8,0:0:0:0:
256,192,4750,1,0,0:0:0:0:
256,192,5103,1,8,0:0:0:0:
256,192,5456,1,8,0:0:0:0:
256,192,5632,1,0,0:0:0:0:
256,192,5809,1,8,0:0:0:0:
256,192,6162,1,0,0:0:0:0:
256,192,6514,1,0,0:0:0:0:
256,192,6691,1,0,0:0:0:0:
256,192,6867,1,12,0:0:0:0:
256,192,7220,1,4,0:0:0:0:
256,192,7573,1,12,0:0:0:0:
256,192,8279,1,0,0:0:0:0:
256,192,8632,1,0,0:0:0:0:
256,192,8809,1,0,0:0:0:0:
256,192,8985,1,12,0:0:0:0:
256,192,9338,1,0,0:0:0:0:
256,192,9514,1,8,0:0:0:0:
256,192,9691,1,0,0:0:0:0:
256,192,10044,1,0,0:0:0:0:
256,192,10220,1,0,0:0:0:0:
256,192,10397,1,12,0:0:0:0:
256,192,10750,1,8,0:0:0:0:
256,192,11103,1,8,0:0:0:0:
256,192,11279,1,8,0:0:0:0:
256,192,11456,1,0,0:0:0:0:
256,192,11632,1,8,0:0:0:0:
256,192,11809,1,4,0:0:0:0:
256,192,12514,1,4,0:0:0:0:
256,192,12867,1,12,0:0:0:0:
256,192,13220,5,4,0:0:0:0:
256,192,13926,1,8,0:0:0:0:
256,192,14103,1,0,0:0:0:0:
256,192,14279,1,8,0:0:0:0:
256,192,14632,1,0,0:0:0:0:
256,192,15338,1,0,0:0:0:0:
256,192,15691,1,8,0:0:0:0:
256,192,15867,1,8,0:0:0:0:
256,192,16044,1,0,0:0:0:0:
256,192,16750,1,8,0:0:0:0:
256,192,16926,1,0,0:0:0:0:
256,192,17103,1,8,0:0:0:0:
256,192,17456,1,0,0:0:0:0:
256,192,17809,1,8,0:0:0:0:
256,192,17985,1,8,0:0:0:0:
256,192,18162,1,0,0:0:0:0:
256,192,18514,1,8,0:0:0:0:
256,192,18867,1,4,0:0:0:0:
256,192,19573,1,0,0:0:0:0:
256,192,19750,1,0,0:0:0:0:
256,192,19926,1,8,0:0:0:0:
256,192,20279,1,0,0:0:0:0:
256,192,20632,1,0,0:0:0:0:
256,192,20985,1,8,0:0:0:0:
256,192,21162,1,0,0:0:0:0:
256,192,21338,1,8,0:0:0:0:
256,192,21514,1,8,0:0:0:0:
256,192,21691,1,0,0:0:0:0:
256,192,22044,1,0,0:0:0:0:
256,192,22397,1,8,0:0:0:0:
256,192,22573,1,0,0:0:0:0:
256,192,22750,1,8,0:0:0:0:
256,192,23103,1,8,0:0:0:0:
256,192,23985,1,4,0:0:0:0:
256,192,24162,1,12,0:0:0:0:
256,192,24514,5,12,0:0:0:0:
256,192,24867,1,0,0:0:0:0:
256,192,25044,1,0,0:0:0:0:
256,192,25220,1,8,0:0:0:0:
256,192,25573,1,0,0:0:0:0:
256,192,25750,1,8,0:0:0:0:
256,192,25926,1,8,0:0:0:0:
256,192,26279,1,0,0:0:0:0:
256,192,26456,1,8,0:0:0:0:
256,192,26632,1,0,0:0:0:0:
256,192,26985,1,8,0:0:0:0:
256,192,27338,1,0,0:0:0:0:
256,192,27867,1,8,0:0:0:0:
256,192,28044,1,0,0:0:0:0:
256,192,28750,1,0,0:0:0:0:
256,192,28926,1,8,0:0:0:0:
256,192,29103,1,0,0:0:0:0:
256,192,29456,1,0,0:0:0:0:
256,192,29632,1,0,0:0:0:0:
256,192,29809,1,8,0:0:0:0:
256,192,29985,1,0,0:0:0:0:
256,192,30162,1,12,0:0:0:0:
256,192,30514,1,0,0:0:0:0:
256,192,30691,1,8,0:0:0:0:
256,192,30867,1,0,0:0:0:0:
256,192,31220,1,0,0:0:0:0:
256,192,31397,1,8,0:0:0:0:
256,192,31573,1,8,0:0:0:0:
256,192,31926,1,8,0:0:0:0:
256,192,32103,1,0,0:0:0:0:
256,192,32279,1,0,0:0:0:0:
256,192,32632,1,0,0:0:0:0:
256,192,32985,1,8,0:0:0:0:
256,192,33514,1,8,0:0:0:0:
256,192,33691,1,0,0:0:0:0:
256,192,34397,1,0,0:0:0:0:
256,192,34573,1,8,0:0:0:0:
256,192,34750,1,8,0:0:0:0:
256,192,35103,1,0,0:0:0:0:
256,192,35279,1,8,0:0:0:0:
256,192,35456,1,8,0:0:0:0:
256,192,35632,1,0,0:0:0:0:
256,192,35809,1,12,0:0:0:0:
256,192,36162,1,0,0:0:0:0:
256,192,36338,1,8,0:0:0:0:
256,192,36514,1,0,0:0:0:0:
256,192,36867,1,0,0:0:0:0:
256,192,37044,1,8,0:0:0:0:
256,192,37220,1,8,0:0:0:0:
256,192,37573,1,0,0:0:0:0:
256,192,37750,1,8,0:0:0:0:
256,192,37926,1,0,0:0:0:0:
256,192,38279,1,0,0:0:0:0:
256,192,38456,1,0,0:0:0:0:
256,192,38632,1,8,0:0:0:0:
256,192,39162,1,8,0:0:0:0:
256,192,39338,1,0,0:0:0:0:
256,192,40044,1,0,0:0:0:0:
256,192,40220,1,0,0:0:0:0:
256,192,40397,1,8,0:0:0:0:
256,192,40750,1,8,0:0:0:0:
256,192,40926,1,0,0:0:0:0:
256,192,41103,1,0,0:0:0:0:
256,192,41279,1,0,0:0:0:0:
256,192,41456,1,12,0:0:0:0:
256,192,41809,1,0,0:0:0:0:
256,192,41985,1,8,0:0:0:0:
256,192,42162,1,8,0:0:0:0:
256,192,42514,1,0,0:0:0:0:
256,192,42691,1,8,0:0:0:0:
256,192,42867,1,4,0:0:0:0:
256,192,43220,1,8,0:0:0:0:
256,192,43397,1,0,0:0:0:0:
256,192,43573,1,0,0:0:0:0:
256,192,43926,1,0,0:0:0:0:
256,192,44103,1,8,0:0:0:0:
256,192,44279,1,4,0:0:0:0:
256,192,44809,1,8,0:0:0:0:
256,192,44985,1,0,0:0:0:0:
256,192,45338,1,0,0:0:0:0:
256,192,45514,1,0,0:0:0:0:
256,192,45691,1,12,0:0:0:0:
256,192,46044,1,0,0:0:0:0:
256,192,46220,1,8,0:0:0:0:
256,192,46397,1,0,0:0:0:0:
256,192,46573,1,0,0:0:0:0:
256,192,46750,1,8,0:0:0:0:
256,192,47103,1,0,0:0:0:0:
256,192,47809,1,0,0:0:0:0:
256,192,48162,1,8,0:0:0:0:
256,192,48514,1,0,0:0:0:0:
256,192,49220,1,0,0:0:0:0:
256,192,49573,1,8,0:0:0:0:
256,192,49750,1,0,0:0:0:0:
256,192,49926,1,0,0:0:0:0:
256,192,50632,1,0,0:0:0:0:
256,192,50985,1,8,0:0:0:0:
256,192,51338,1,8,0:0:0:0:
256,192,52044,1,0,0:0:0:0:
256,192,52397,1,8,0:0:0:0:
256,192,52573,1,8,0:0:0:0:
256,192,52750,1,0,0:0:0:0:
256,192,53456,1,0,0:0:0:0:
256,192,53809,1,8,0:0:0:0:
256,192,54162,1,8,0:0:0:0:
256,192,54867,1,8,0:0:0:0:
256,192,55220,1,8,0:0:0:0:
256,192,55397,1,0,0:0:0:0:
256,192,55573,1,8,0:0:0:0:
256,192,56279,1,0,0:0:0:0:
256,192,56632,1,8,0:0:0:0:
256,192,56985,1,0,0:0:0:0:
256,192,57691,1,0,0:0:0:0:
256,192,58044,1,8,0:0:0:0:
256,192,58220,1,0,0:0:0:0:
256,192,58397,1,12,0:0:0:0:
256,192,58750,1,0,0:0:0:0:
256,192,59103,1,0,0:0:0:0:
256,192,59279,1,8,0:0:0:0:
256,192,59456,1,0,0:0:0:0:
256,192,59809,1,8,0:0:0:0:
256,192,60162,1,0,0:0:0:0:
256,192,60514,1,0,0:0:0:0:
256,192,60691,1,0,0:0:0:0:
256,192,60867,1,8,0:0:0:0:
256,192,61220,1,0,0:0:0:0:
256,192,61573,1,8,0:0:0:0:
256,192,61926,1,0,0:0:0:0:
256,192,62103,1,8,0:0:0:0:
256,192,62279,1,0,0:0:0:0:
256,192,62632,1,8,0:0:0:0:
256,192,63338,1,0,0:0:0:0:
256,192,63514,1,8,0:0:0:0:
256,192,63691,1,8,0:0:0:0:
256,192,63867,1,0,0:0:0:0:
256,192,64044,1,8,0:0:0:0:
256,192,64397,1,8,0:0:0:0:
256,192,64750,1,0,0:0:0:0:
256,192,64926,1,0,0:0:0:0:
256,192,65103,1,8,0:0:0:0:
256,192,65456,1,0,0:0:0:0:
256,192,65809,1,8,0:0:0:0:
256,192,66162,1,8,0:0:0:0:
256,192,66338,1,8,0:0:0:0:
256,192,66514,1,0,0:0:0:0:
256,192,66867,1,8,0:0:0:0:
256,192,67220,1,0,0:0:0:0:
256,192,67397,1,8,0:0:0:0:
256,192,67573,1,0,0:0:0:0:
256,192,68279,1,8,0:0:0:0:
256,192,68456,1,0,0:0:0:0:
256,192,68632,1,8,0:0:0:0:
256,192,68809,1,8,0:0:0:0:
256,192,68985,1,0,0:0:0:0:
256,192,69162,1,0,0:0:0:0:
256,192,69338,1,8,0:0:0:0:
256,192,69691,1,12,0:0:0:0:
256,192,69956,1,4,0:0:0:0:
256,192,70220,1,12,0:0:0:0:
256,192,70485,1,12,0:0:0:0:
256,192,70750,1,0,0:0:0:0:
256,192,71103,1,4,0:0:0:0:
256,192,71367,1,4,0:0:0:0:
256,192,71632,1,12,0:0:0:0:
256,192,72514,5,12,0:0:0:0:
256,192,72867,1,0,0:0:0:0:
256,192,73044,1,8,0:0:0:0:
256,192,73220,1,8,0:0:0:0:
256,192,73397,1,0,0:0:0:0:
256,192,73573,1,8,0:0:0:0:
256,192,73750,1,0,0:0:0:0:
256,192,74103,1,8,0:0:0:0:
256,192,74456,1,8,0:0:0:0:
256,192,74809,1,0,0:0:0:0:
256,192,74985,1,8,0:0:0:0:
256,192,75162,1,8,0:0:0:0:
256,192,75338,1,0,0:0:0:0:
256,192,75691,1,8,0:0:0:0:
256,192,75867,1,0,0:0:0:0:
256,192,76044,1,0,0:0:0:0:
256,192,76220,1,8,0:0:0:0:
256,192,76397,1,8,0:0:0:0:
256,192,76573,1,0,0:0:0:0:
256,192,76926,1,0,0:0:0:0:
256,192,77103,1,8,0:0:0:0:
256,192,77279,1,0,0:0:0:0:
256,192,77632,1,8,0:0:0:0:
256,192,77809,1,0,0:0:0:0:
256,192,77985,1,0,0:0:0:0:
256,192,78162,1,12,0:0:0:0:
256,192,78867,1,0,0:0:0:0:
256,192,79044,1,0,0:0:0:0:
256,192,79220,1,0,0:0:0:0:
256,192,79397,1,8,0:0:0:0:
256,192,79750,1,8,0:0:0:0:
256,192,79926,1,0,0:0:0:0:
256,192,80103,1,8,0:0:0:0:
256,192,80456,1,8,0:0:0:0:
256,192,80632,1,8,0:0:0:0:
256,192,80809,1,0,0:0:0:0:
256,192,80985,1,0,0:0:0:0:
256,192,81338,1,8,0:0:0:0:
256,192,81691,1,8,0:0:0:0:
256,192,81867,1,8,0:0:0:0:
256,192,82044,1,8,0:0:0:0:
256,192,82220,1,0,0:0:0:0:
256,192,82397,1,0,0:0:0:0:
256,192,82573,1,8,0:0:0:0:
256,192,82750,1,0,0:0:0:0:
256,192,83103,1,0,0:0:0:0:
256,192,83279,1,8,0:0:0:0:
256,192,83456,1,8,0:0:0:0:
256,192,83632,1,8,0:0:0:0:
256,192,83809,1,4,0:0:0:0:
256,192,84514,1,0,0:0:0:0:
256,192,84691,1,0,0:0:0:0:
256,192,84867,1,8,0:0:0:0:
256,192,85044,1,8,0:0:0:0:
256,192,85220,1,0,0:0:0:0:
256,192,85573,1,8,0:0:0:0:
256,192,85750,1,0,0:0:0:0:
256,192,85926,1,0,0:0:0:0:
256,192,86103,1,8,0:0:0:0:
256,192,86279,1,8,0:0:0:0:
256,192,86632,1,0,0:0:0:0:
256,192,86809,1,8,0:0:0:0:
256,192,86985,1,0,0:0:0:0:
256,192,87162,1,0,0:0:0:0:
256,192,87514,1,8,0:0:0:0:
256,192,87691,1,0,0:0:0:0:
256,192,87867,1,8,0:0:0:0:
256,192,88220,1,0,0:0:0:0:
256,192,88397,1,8,0:0:0:0:
256,192,88573,1,8,0:0:0:0:
256,192,88750,1,0,0:0:0:0:
256,192,88926,1,0,0:0:0:0:
256,192,89103,1,8,0:0:0:0:
256,192,89456,1,4,0:0:0:0:
256,192,89809,1,0,0:0:0:0:
256,192,89985,1,0,0:0:0:0:
256,192,90162,1,12,0:0:0:0:
256,192,90514,1,0,0:0:0:0:
256,192,90691,1,8,0:0:0:0:
256,192,90867,1,4,0:0:0:0:
256,192,91220,1,0,0:0:0:0:
256,192,91397,1,8,0:0:0:0:
256,192,91750,1,8,0:0:0:0:
256,192,91926,1,0,0:0:0:0:
256,192,92103,1,0,0:0:0:0:
256,192,92279,1,12,0:0:0:0:
256,192,92985,1,4,0:0:0:0:
256,192,93514,1,8,0:0:0:0:
256,192,93867,1,0,0:0:0:0:
256,192,94044,1,8,0:0:0:0:
256,192,94220,1,0,0:0:0:0:
256,192,94397,1,8,0:0:0:0:
256,192,94750,1,12,0:0:0:0:
256,192,95103,5,4,0:0:0:0:
256,192,95809,1,0,0:0:0:0:
256,192,96162,1,0,0:0:0:0:
256,192,96338,1,8,0:0:0:0:
256,192,96514,1,0,0:0:0:0:
256,192,96867,1,0,0:0:0:0:
256,192,97044,1,0,0:0:0:0:
256,192,97220,1,0,0:0:0:0:
256,192,97573,1,8,0:0:0:0:
256,192,97750,1,8,0:0:0:0:
256,192,97926,1,0,0:0:0:0:
256,192,98632,1,0,0:0:0:0:
256,192,98809,1,0,0:0:0:0:
256,192,98985,1,8,0:0:0:0:
256,192,99338,1,8,0:0:0:0:
256,192,99691,1,0,0:0:0:0:
256,192,100044,1,8,0:0:0:0:
256,192,100220,1,8,0:0:0:0:
256,192,100397,1,0,0:0:0:0:
256,192,100573,1,0,0:0:0:0:
256,192,100750,1,12,0:0:0:0:
256,192,101456,1,0,0:0:0:0:
256,192,101809,1,0,0:0:0:0:
256,192,101985,1,8,0:0:0:0:
256,192,102162,1,0,0:0:0:0:
256,192,102514,1,0,0:0:0:0:
256,192,102691,1,0,0:0:0:0:
256,192,102867,1,0,0:0:0:0:
256,192,103220,1,8,0:0:0:0:
256,192,103397,1,8,0:0:0:0:
256,192,103573,1,4,0:0:0:0:
256,192,104279,1,4,0:0:0:0:
256,192,104632,1,8,0:0:0:0:
256,192,104809,1,8,0:0:0:0:
256,192,104985,1,4,0:0:0:0:
256,192,105338,1,0,0:0:0:0:
256,192,105514,1,0,0:0:0:0:
256,192,105691,1,8,0:0:0:0:
256,192,105867,1,0,0:0:0:0:
256,192,106044,1,12,0:0:0:0:
256,192,106397,1,4,0:0:0:0:
