osu file format v14

[General]
AudioFilename: audio.mp3
AudioLeadIn: 0
PreviewTime: -1
Countdown: 0
SampleSet: None
StackLeniency: 0.7
Mode: 1
LetterboxInBreaks: 0
WidescreenStoryboard: 0

[Editor]
Bookmarks: 1083,14797,28511,55939,71368,98796,126224,133081
DistanceSpacing: 1
BeatDivisor: 4
GridSize: 16
TimelineZoom: 2.899999

[Metadata]
Title:Infinite
TitleUnicode:Infinite
Artist:Tomoya Ohtani ft.Tyler Smyth and Andy Bane (Dangerkids)
ArtistUnicode:Tomoya Ohtani ft.Tyler Smyth and Andy Bane (Dangerkids)
Creator:Kioshinxs
Version:Overlapse Oni
Source:
Tags:
BeatmapID:1477694
BeatmapSetID:692727

[Difficulty]
HPDrainRate:7
CircleSize:6
OverallDifficulty:5
ApproachRate:6
SliderMultiplier:1.4
SliderTickRate:3

[Events]
//Background and Video events
0,0,"maxresdefault+(1).jpg",0,0
//Break Periods
//Storyboard Layer 0 (Background)
//Storyboard Layer 1 (Fail)
//Storyboard Layer 2 (Pass)
//Storyboard Layer 3 (Foreground)
//Storyboard Sound Samples

[TimingPoints]
1083,428.571428571429,4,2,0,90,1,0
13083,-52.6315789473684,4,2,0,50,0,0
13225,-55.5555555555556,4,2,0,50,0,0
13368,-58.8235294117647,4,2,0,50,0,0
13511,-62.5,4,2,0,50,0,0
13654,-66.6666666666667,4,2,0,50,0,0
13797,-71.4285714285714,4,2,0,50,0,0
13868,-74.0740740740741,4,2,0,50,0,0
13940,-76.9230769230769,4,2,0,50,0,0
14083,-83.3333333333333,4,2,0,50,0,0
14225,-90.9090909090909,4,2,0,50,0,0
14368,-100,4,2,0,50,0,0
14797,214.285714285714,4,2,0,100,1,1
28189,-105.263157894737,4,2,0,100,0,1
28296,-111.111111111111,4,2,0,100,0,1
28511,-142.857142857143,4,2,0,100,0,0
34832,-133.333333333333,4,2,0,100,0,0
34939,-125,4,2,0,100,0,0
35046,-117.647058823529,4,2,0,100,0,0
35154,-111.111111111111,4,2,0,100,0,0
35261,-105.263157894737,4,2,0,100,0,0
35368,-100,4,2,0,100,0,1
41689,-105.263157894737,4,2,0,100,0,1
41796,-111.111111111111,4,2,0,100,0,1
41904,-117.647058823529,4,2,0,100,0,1
42011,-125,4,2,0,100,0,1
42118,-133.333333333333,4,2,0,100,0,1
42225,-142.857142857143,4,2,0,100,0,0
48520,-133.333333333333,4,2,0,100,0,0
48627,-125,4,2,0,100,0,0
48734,-117.647058823529,4,2,0,100,0,0
48842,-111.111111111111,4,2,0,100,0,0
48949,-105.263157894737,4,2,0,100,0,0
49056,-100,4,2,0,100,0,1
55511,-111.111111111111,4,2,0,100,0,1
55725,-117.647058823529,4,2,0,100,0,1
55939,-125,4,2,0,100,0,0
69011,-125,4,2,0,100,0,0
69118,-133.333333333334,4,2,0,100,0,0
69225,-142.857142857143,4,2,0,100,0,0
69332,-153.846153846154,4,2,0,100,0,0
69439,-166.666666666667,4,2,0,100,0,0
69546,-181.818181818182,4,2,0,100,0,0
69627,-52.6315789473684,4,2,0,50,0,0
69769,-55.5555555555556,4,2,0,50,0,0
69912,-58.8235294117647,4,2,0,50,0,0
70055,-62.5,4,2,0,50,0,0
70198,-66.6666666666667,4,2,0,50,0,0
70341,-71.4285714285714,4,2,0,50,0,0
70412,-74.0740740740741,4,2,0,50,0,0
70484,-76.9230769230769,4,2,0,50,0,0
70627,-83.3333333333333,4,2,0,50,0,0
70769,-90.9090909090909,4,2,0,50,0,0
70912,-100,4,2,0,50,0,0
71368,428.571428571429,4,2,0,100,1,1
71368,-125,4,2,0,100,0,1
83260,-90.9090909090909,4,2,0,100,0,1
83475,-92.5925925925926,4,2,0,100,0,1
83582,-94.3396226415094,4,2,0,100,0,1
83689,-96.1538461538461,4,2,0,100,0,1
83796,-98.0392156862745,4,2,0,100,0,1
83903,-100,4,2,0,100,0,1
84010,-102.040816326531,4,2,0,100,0,1
84118,-104.166666666667,4,2,0,100,0,1
84225,-106.382978723404,4,2,0,100,0,1
84332,-108.695652173913,4,2,0,100,0,1
84439,-111.111111111111,4,2,0,100,0,1
84546,-113.636363636364,4,2,0,100,0,1
84653,-116.279069767442,4,2,0,100,0,1
84760,-119.047619047619,4,2,0,100,0,1
84868,-121.951219512195,4,2,0,100,0,1
85082,-125,4,2,0,100,0,1
97028,-90.9090909090909,4,2,0,100,0,1
97135,-92.5925925925926,4,2,0,100,0,1
97242,-94.3396226415094,4,2,0,100,0,1
97349,-96.1538461538461,4,2,0,100,0,1
97456,-98.0392156862745,4,2,0,100,0,1
97563,-100,4,2,0,100,0,1
97670,-102.040816326531,4,2,0,100,0,1
97778,-104.166666666667,4,2,0,100,0,1
97885,-106.382978723404,4,2,0,100,0,1
97992,-108.695652173913,4,2,0,100,0,1
98099,-111.111111111111,4,2,0,100,0,1
98206,-113.636363636364,4,2,0,100,0,1
98313,-116.279069767442,4,2,0,100,0,1
98420,-119.047619047619,4,2,0,100,0,1
98528,-121.951219512195,4,2,0,100,0,1
98796,214.285714285714,4,2,0,100,1,0

[HitObjects]
160,128,1083,5,0,0:0:0:0:
176,144,1297,1,8,0:0:0:0:
160,128,1511,1,0,0:0:0:0:
176,144,1618,1,0,0:0:0:0:
160,128,1725,1,0,0:0:0:0:
160,128,1940,1,8,0:0:0:0:
176,144,2368,1,8,0:0:0:0:
176,112,2583,1,0,0:0:0:0:
176,112,2797,1,0,0:0:0:0:
176,112,3011,1,8,0:0:0:0:
208,112,3118,1,8,0:0:0:0:
208,112,3333,1,8,0:0:0:0:
208,112,3440,1,0,0:0:0:0:
208,112,3654,1,8,0:0:0:0:
208,112,3868,1,0,0:0:0:0:
208,112,4083,1,0,0:0:0:0:
208,112,4297,1,8,0:0:0:0:
208,96,4368,1,8,0:0:0:0:
224,96,4440,1,8,0:0:0:0:
208,112,4511,1,0,0:0:0:0:
176,80,4725,1,8,0:0:0:0:
176,64,4940,1,0,0:0:0:0:
176,64,5047,1,8,0:0:0:0:
176,64,5154,1,0,0:0:0:0:
176,64,5368,1,8,0:0:0:0:
176,64,5797,1,8,0:0:0:0:
176,64,6011,1,8,0:0:0:0:
176,64,6225,1,0,0:0:0:0:
160,96,6440,1,8,0:0:0:0:
160,96,6547,1,8,0:0:0:0:
160,96,6654,1,0,0:0:0:0:
160,96,6761,1,8,0:0:0:0:
160,96,6868,1,0,0:0:0:0:
208,64,7083,1,8,0:0:0:0:
192,80,7297,1,0,0:0:0:0:
192,80,7511,1,0,0:0:0:0:
176,96,7725,1,0,0:0:0:0:
192,64,7797,1,8,0:0:0:0:
192,64,7868,1,8,0:0:0:0:
176,96,7940,1,0,0:0:0:0:
160,80,8154,1,8,0:0:0:0:
176,96,8368,1,0,0:0:0:0:
176,96,8475,1,0,0:0:0:0:
176,96,8583,1,0,0:0:0:0:
176,96,8797,1,8,0:0:0:0:
208,80,9225,1,8,0:0:0:0:
208,80,9440,1,0,0:0:0:0:
208,80,9654,1,0,0:0:0:0:
144,80,9868,1,8,0:0:0:0:
160,0,9975,1,0,0:0:0:0:
144,80,10190,1,8,0:0:0:0:
176,64,10297,1,0,0:0:0:0:
176,112,10511,1,8,0:0:0:0:
144,80,10725,1,0,0:0:0:0:
144,80,10940,1,0,0:0:0:0:
144,80,11154,1,8,0:0:0:0:
224,96,11368,1,0,0:0:0:0:
160,112,12011,1,0,0:0:0:0:
160,112,12654,1,0,0:0:0:0:
192,112,13083,1,8,0:0:0:0:
192,112,13225,1,0,0:0:0:0:
192,112,13368,1,0,0:0:0:0:
192,112,13511,1,0,0:0:0:0:
192,112,13654,1,0,0:0:0:0:
192,112,13797,1,0,0:0:0:0:
160,128,13868,1,0,0:0:0:0:
192,112,13940,1,8,0:0:0:0:
192,112,14083,1,0,0:0:0:0:
192,112,14225,1,0,0:0:0:0:
144,80,14368,1,12,0:0:0:0:
208,96,14797,5,4,0:0:0:0:
80,176,15011,1,0,0:0:0:0:
80,192,15118,1,8,0:0:0:0:
160,160,15172,1,8,0:0:0:0:
112,176,15225,1,0,0:0:0:0:
112,160,15332,1,0,0:0:0:0:
160,64,15439,1,8,0:0:0:0:
160,64,15493,1,8,0:0:0:0:
160,64,15546,1,0,0:0:0:0:
160,64,15600,1,0,0:0:0:0:
160,112,15654,1,8,0:0:0:0:
128,128,15761,1,0,0:0:0:0:
128,128,15868,1,8,0:0:0:0:
192,80,15975,1,0,0:0:0:0:
176,96,16082,1,8,0:0:0:0:
176,96,16136,1,0,0:0:0:0:
192,96,16189,1,8,0:0:0:0:
192,96,16243,1,0,0:0:0:0:
192,96,16296,1,8,0:0:0:0:
192,112,16350,1,8,0:0:0:0:
192,112,16404,1,8,0:0:0:0:
192,112,16457,1,8,0:0:0:0:
176,96,16511,1,0,0:0:0:0:
192,96,16725,1,0,0:0:0:0:
176,96,16832,1,8,0:0:0:0:
176,96,16886,1,8,0:0:0:0:
176,96,16939,1,0,0:0:0:0:
176,96,17046,1,8,0:0:0:0:
176,96,17154,1,0,0:0:0:0:
176,64,17207,1,8,0:0:0:0:
176,64,17261,1,0,0:0:0:0:
176,64,17314,1,0,0:0:0:0:
176,64,17368,1,8,0:0:0:0:
192,96,17475,1,0,0:0:0:0:
192,96,17582,1,8,0:0:0:0:
192,96,17689,1,0,0:0:0:0:
192,96,17796,1,0,0:0:0:0:
192,96,17850,1,8,0:0:0:0:
192,96,17904,1,0,0:0:0:0:
192,96,17957,1,0,0:0:0:0:
192,96,18011,1,8,0:0:0:0:
192,96,18064,1,8,0:0:0:0:
192,96,18118,1,8,0:0:0:0:
192,96,18171,1,8,0:0:0:0:
192,96,18225,1,0,0:0:0:0:
160,80,18439,1,0,0:0:0:0:
160,80,18546,1,8,0:0:0:0:
160,80,18654,1,0,0:0:0:0:
144,96,18707,1,0,0:0:0:0:
160,80,18761,1,0,0:0:0:0:
176,48,18814,1,0,0:0:0:0:
160,80,18867,1,8,0:0:0:0:
160,80,18975,1,0,0:0:0:0:
160,80,19082,1,8,0:0:0:0:
160,80,19136,1,8,0:0:0:0:
160,80,19189,1,0,0:0:0:0:
160,48,19296,1,8,0:0:0:0:
160,48,19350,1,8,0:0:0:0:
160,32,19404,1,0,0:0:0:0:
160,80,19511,1,8,0:0:0:0:
160,80,19564,1,8,0:0:0:0:
160,80,19618,1,0,0:0:0:0:
224,80,19671,1,0,0:0:0:0:
160,80,19725,1,8,0:0:0:0:
176,48,19779,1,8,0:0:0:0:
176,48,19832,1,8,0:0:0:0:
176,48,19886,1,8,0:0:0:0:
176,48,19939,1,0,0:0:0:0:
192,80,20154,1,8,0:0:0:0:
208,80,20261,1,0,0:0:0:0:
160,64,20368,1,8,0:0:0:0:
160,48,20421,1,0,0:0:0:0:
160,48,20475,1,8,0:0:0:0:
176,16,20582,1,0,0:0:0:0:
192,80,20636,1,0,0:0:0:0:
176,48,20689,1,0,0:0:0:0:
192,80,20743,1,0,0:0:0:0:
176,48,20796,1,8,0:0:0:0:
192,96,20904,1,0,0:0:0:0:
160,80,21011,1,8,0:0:0:0:
160,80,21118,1,0,0:0:0:0:
160,80,21225,1,8,0:0:0:0:
176,80,21279,1,8,0:0:0:0:
192,96,21332,1,8,0:0:0:0:
192,96,21386,1,8,0:0:0:0:
112,96,21439,1,8,0:0:0:0:
192,96,21493,1,8,0:0:0:0:
112,96,21546,1,8,0:0:0:0:
192,96,21600,1,8,0:0:0:0:
192,96,21654,1,0,0:0:0:0:
128,224,21868,1,0,0:0:0:0:
128,224,21975,1,8,0:0:0:0:
128,224,22082,1,0,0:0:0:0:
176,64,22136,1,0,0:0:0:0:
160,128,22189,1,8,0:0:0:0:
192,64,22243,1,8,0:0:0:0:
192,80,22296,1,0,0:0:0:0:
176,96,22404,1,0,0:0:0:0:
160,96,22511,1,8,0:0:0:0:
176,112,22618,1,0,0:0:0:0:
192,64,22671,1,0,0:0:0:0:
176,112,22725,1,8,0:0:0:0:
160,96,22832,1,0,0:0:0:0:
160,96,22939,1,8,0:0:0:0:
176,96,22993,1,8,0:0:0:0:
160,96,23046,1,0,0:0:0:0:
176,96,23100,1,0,0:0:0:0:
160,96,23154,1,8,0:0:0:0:
176,96,23207,1,8,0:0:0:0:
176,96,23261,1,8,0:0:0:0:
176,96,23314,1,8,0:0:0:0:
176,96,23368,1,0,0:0:0:0:
160,96,23582,1,0,0:0:0:0:
192,48,23689,1,0,0:0:0:0:
192,48,23743,1,0,0:0:0:0:
160,96,23796,1,8,0:0:0:0:
176,80,23904,1,0,0:0:0:0:
176,80,24011,1,8,0:0:0:0:
160,32,24064,1,8,0:0:0:0:
160,32,24118,1,0,0:0:0:0:
176,48,24171,1,0,0:0:0:0:
176,32,24225,1,8,0:0:0:0:
176,96,24332,1,0,0:0:0:0:
176,96,24439,1,8,0:0:0:0:
160,96,24546,1,0,0:0:0:0:
160,96,24654,1,8,0:0:0:0:
192,112,24707,1,0,0:0:0:0:
192,112,24761,1,8,0:0:0:0:
208,112,24814,1,0,0:0:0:0:
208,112,24868,1,8,0:0:0:0:
208,112,24921,1,8,0:0:0:0:
192,80,24975,1,8,0:0:0:0:
208,112,25029,1,8,0:0:0:0:
192,80,25082,1,0,0:0:0:0:
192,128,25296,1,0,0:0:0:0:
192,128,25404,1,8,0:0:0:0:
144,64,25457,1,8,0:0:0:0:
192,128,25511,1,0,0:0:0:0:
192,128,25618,1,0,0:0:0:0:
144,80,25671,1,0,0:0:0:0:
192,144,25725,1,8,0:0:0:0:
176,112,25779,1,8,0:0:0:0:
192,144,25832,1,0,0:0:0:0:
192,144,25939,1,8,0:0:0:0:
192,48,25993,1,8,0:0:0:0:
176,112,26046,1,0,0:0:0:0:
176,64,26153,1,8,0:0:0:0:
160,64,26207,1,8,0:0:0:0:
176,48,26261,1,0,0:0:0:0:
160,80,26368,1,8,0:0:0:0:
176,64,26421,1,8,0:0:0:0:
176,64,26475,1,0,0:0:0:0:
176,64,26529,1,0,0:0:0:0:
176,64,26582,1,8,0:0:0:0:
176,64,26636,1,8,0:0:0:0:
176,64,26689,1,8,0:0:0:0:
176,64,26743,1,8,0:0:0:0:
176,64,26796,1,0,0:0:0:0:
176,64,27011,1,8,0:0:0:0:
160,32,27118,1,0,0:0:0:0:
176,64,27171,1,0,0:0:0:0:
160,80,27225,1,8,0:0:0:0:
192,48,27332,1,0,0:0:0:0:
192,48,27439,1,0,0:0:0:0:
176,48,27493,1,0,0:0:0:0:
176,48,27546,1,0,0:0:0:0:
176,48,27600,1,0,0:0:0:0:
176,48,27654,1,8,0:0:0:0:
128,96,27761,1,0,0:0:0:0:
128,96,27868,1,0,0:0:0:0:
176,48,27921,1,0,0:0:0:0:
160,112,27975,1,0,0:0:0:0:
160,112,28082,1,8,0:0:0:0:
144,80,28189,1,8,0:0:0:0:
144,80,28296,1,0,0:0:0:0:
192,80,28511,1,4,0:0:0:0:
128,160,28725,1,0,0:0:0:0:
128,160,28832,1,8,0:0:0:0:
128,160,28939,1,0,0:0:0:0:
128,128,29046,1,8,0:0:0:0:
176,80,29154,1,0,0:0:0:0:
112,64,29261,1,0,0:0:0:0:
112,64,29368,1,8,0:0:0:0:
176,112,29582,1,0,0:0:0:0:
160,80,29689,1,0,0:0:0:0:
160,80,29796,1,8,0:0:0:0:
240,96,29850,1,8,0:0:0:0:
240,96,29904,1,8,0:0:0:0:
240,96,29957,1,8,0:0:0:0:
240,96,30011,1,8,0:0:0:0:
240,96,30064,1,8,0:0:0:0:
240,96,30118,1,8,0:0:0:0:
240,96,30171,1,8,0:0:0:0:
240,96,30225,1,0,0:0:0:0:
192,112,30439,1,8,0:0:0:0:
192,112,30546,1,0,0:0:0:0:
192,112,30654,1,0,0:0:0:0:
128,64,30761,1,8,0:0:0:0:
176,64,30868,1,0,0:0:0:0:
144,96,30975,1,0,0:0:0:0:
144,96,31082,1,8,0:0:0:0:
192,80,31296,1,0,0:0:0:0:
192,80,31404,1,0,0:0:0:0:
192,80,31511,1,8,0:0:0:0:
192,80,31564,1,8,0:0:0:0:
192,64,31618,1,0,0:0:0:0:
192,64,31671,1,0,0:0:0:0:
192,64,31725,1,8,0:0:0:0:
192,64,31779,1,8,0:0:0:0:
192,64,31832,1,8,0:0:0:0:
192,64,31886,1,8,0:0:0:0:
192,64,31939,1,0,0:0:0:0:
176,80,32154,1,0,0:0:0:0:
176,80,32261,1,8,0:0:0:0:
176,80,32368,1,0,0:0:0:0:
176,80,32475,1,8,0:0:0:0:
160,80,32582,1,0,0:0:0:0:
144,64,32689,1,0,0:0:0:0:
160,80,32796,1,8,0:0:0:0:
160,80,33010,1,0,0:0:0:0:
160,80,33117,1,0,0:0:0:0:
144,96,33225,1,8,0:0:0:0:
160,112,33279,1,8,0:0:0:0:
144,96,33332,1,8,0:0:0:0:
160,112,33386,1,8,0:0:0:0:
160,112,33439,1,8,0:0:0:0:
144,96,33493,1,8,0:0:0:0:
160,112,33546,1,8,0:0:0:0:
144,96,33600,1,8,0:0:0:0:
160,112,33654,1,0,0:0:0:0:
160,128,33868,1,8,0:0:0:0:
144,112,33975,1,0,0:0:0:0:
144,112,34082,1,0,0:0:0:0:
144,112,34190,1,8,0:0:0:0:
144,112,34297,1,0,0:0:0:0:
144,112,34404,1,0,0:0:0:0:
144,112,34511,1,8,0:0:0:0:
128,96,34725,1,0,0:0:0:0:
128,96,34832,1,8,0:0:0:0:
160,144,34939,1,0,0:0:0:0:
160,144,35047,1,0,0:0:0:0:
160,144,35154,1,0,0:0:0:0:
208,64,35261,1,0,0:0:0:0:
160,144,35368,1,12,0:0:0:0:
144,128,35582,1,0,0:0:0:0:
144,128,35689,1,8,0:0:0:0:
144,112,35743,1,8,0:0:0:0:
144,128,35796,1,0,0:0:0:0:
144,112,35904,1,8,0:0:0:0:
144,112,36011,1,0,0:0:0:0:
144,112,36064,1,0,0:0:0:0:
144,112,36118,1,0,0:0:0:0:
144,112,36171,1,0,0:0:0:0:
144,112,36225,1,8,0:0:0:0:
176,64,36332,1,0,0:0:0:0:
176,48,36439,1,0,0:0:0:0:
176,48,36546,1,8,0:0:0:0:
176,48,36600,1,0,0:0:0:0:
176,48,36654,1,8,0:0:0:0:
192,96,36761,1,0,0:0:0:0:
144,16,36868,1,8,0:0:0:0:
144,16,36921,1,8,0:0:0:0:
160,16,36975,1,0,0:0:0:0:
144,16,37029,1,0,0:0:0:0:
144,16,37082,1,8,0:0:0:0:
192,64,37189,1,0,0:0:0:0:
208,96,37296,1,0,0:0:0:0:
208,96,37404,1,8,0:0:0:0:
176,64,37457,1,8,0:0:0:0:
208,96,37511,1,0,0:0:0:0:
160,48,37618,1,8,0:0:0:0:
176,80,37725,1,0,0:0:0:0:
176,80,37779,1,0,0:0:0:0:
176,64,37832,1,0,0:0:0:0:
176,80,37886,1,0,0:0:0:0:
176,64,37939,1,8,0:0:0:0:
176,64,38368,1,0,0:0:0:0:
176,64,38582,1,0,0:0:0:0:
176,96,38796,1,8,0:0:0:0:
176,80,38850,1,8,0:0:0:0:
192,112,38904,1,0,0:0:0:0:
192,112,39011,1,0,0:0:0:0:
192,112,39118,1,8,0:0:0:0:
176,80,39171,1,8,0:0:0:0:
192,112,39225,1,0,0:0:0:0:
176,96,39332,1,0,0:0:0:0:
192,112,39439,1,8,0:0:0:0:
176,64,39493,1,0,0:0:0:0:
192,96,39546,1,0,0:0:0:0:
176,64,39600,1,0,0:0:0:0:
192,96,39654,1,8,0:0:0:0:
176,80,39761,1,0,0:0:0:0:
176,80,39868,1,0,0:0:0:0:
176,80,39975,1,0,0:0:0:0:
144,64,40029,1,0,0:0:0:0:
176,80,40082,1,8,0:0:0:0:
176,80,40189,1,0,0:0:0:0:
176,80,40296,1,0,0:0:0:0:
176,48,40404,1,8,0:0:0:0:
144,64,40511,1,0,0:0:0:0:
176,64,40564,1,0,0:0:0:0:
192,64,40618,1,8,0:0:0:0:
192,64,40725,1,0,0:0:0:0:
192,64,40832,1,8,0:0:0:0:
192,48,40886,1,8,0:0:0:0:
192,64,40939,1,0,0:0:0:0:
192,64,41046,1,0,0:0:0:0:
192,64,41154,1,8,0:0:0:0:
176,32,41207,1,8,0:0:0:0:
176,32,41261,1,0,0:0:0:0:
160,48,41314,1,0,0:0:0:0:
176,48,41368,1,8,0:0:0:0:
176,64,41582,1,0,0:0:0:0:
128,80,41689,1,0,0:0:0:0:
176,64,41796,1,8,0:0:0:0:
176,64,41904,1,0,0:0:0:0:
176,64,42011,1,8,0:0:0:0:
176,64,42118,1,8,0:0:0:0:
176,64,42225,1,0,0:0:0:0:
144,192,42439,1,0,0:0:0:0:
160,96,42546,1,0,0:0:0:0:
144,96,42654,1,8,0:0:0:0:
160,96,42761,1,8,0:0:0:0:
160,128,42868,1,0,0:0:0:0:
160,128,43082,1,8,0:0:0:0:
208,128,43296,1,0,0:0:0:0:
208,128,43404,1,0,0:0:0:0:
208,128,43511,1,8,0:0:0:0:
176,64,43564,1,8,0:0:0:0:
176,64,43618,1,8,0:0:0:0:
176,64,43671,1,8,0:0:0:0:
176,64,43725,1,8,0:0:0:0:
176,64,43779,1,8,0:0:0:0:
176,64,43832,1,8,0:0:0:0:
176,64,43886,1,8,0:0:0:0:
176,64,43939,1,0,0:0:0:0:
208,80,44154,1,0,0:0:0:0:
208,80,44261,1,8,0:0:0:0:
208,80,44367,1,0,0:0:0:0:
208,80,44475,1,8,0:0:0:0:
208,80,44582,1,0,0:0:0:0:
160,64,44689,1,0,0:0:0:0:
208,48,44796,1,8,0:0:0:0:
192,96,45011,1,0,0:0:0:0:
192,96,45118,1,0,0:0:0:0:
192,96,45225,1,8,0:0:0:0:
192,64,45279,1,0,0:0:0:0:
192,32,45332,1,8,0:0:0:0:
192,64,45386,1,0,0:0:0:0:
192,32,45439,1,8,0:0:0:0:
192,64,45493,1,8,0:0:0:0:
192,32,45546,1,8,0:0:0:0:
192,64,45600,1,8,0:0:0:0:
192,32,45654,1,0,0:0:0:0:
192,96,45868,1,0,0:0:0:0:
192,96,45975,1,0,0:0:0:0:
192,96,46082,1,8,0:0:0:0:
192,96,46189,1,8,0:0:0:0:
192,96,46296,1,0,0:0:0:0:
160,80,46511,1,8,0:0:0:0:
192,96,46725,1,0,0:0:0:0:
176,96,46832,1,0,0:0:0:0:
176,96,46939,1,8,0:0:0:0:
160,112,46993,1,8,0:0:0:0:
160,112,47046,1,8,0:0:0:0:
128,112,47100,1,8,0:0:0:0:
160,112,47154,1,8,0:0:0:0:
128,112,47207,1,8,0:0:0:0:
160,112,47261,1,8,0:0:0:0:
160,112,47314,1,8,0:0:0:0:
160,112,47368,1,0,0:0:0:0:
176,80,47582,1,0,0:0:0:0:
176,80,47689,1,0,0:0:0:0:
176,80,47796,1,8,0:0:0:0:
176,64,47904,1,8,0:0:0:0:
176,80,48011,1,0,0:0:0:0:
160,96,48117,1,0,0:0:0:0:
160,96,48225,1,8,0:0:0:0:
176,64,48439,1,0,0:0:0:0:
160,96,48546,1,8,0:0:0:0:
160,96,48654,1,0,0:0:0:0:
160,96,48761,1,0,0:0:0:0:
160,96,48868,1,0,0:0:0:0:
160,96,48975,1,0,0:0:0:0:
160,96,49082,1,12,0:0:0:0:
160,96,49296,1,0,0:0:0:0:
160,96,49404,1,8,0:0:0:0:
192,48,49457,1,8,0:0:0:0:
160,80,49511,1,0,0:0:0:0:
160,80,49618,1,8,0:0:0:0:
160,80,49725,1,0,0:0:0:0:
176,16,49779,1,0,0:0:0:0:
160,48,49832,1,0,0:0:0:0:
160,96,49886,1,0,0:0:0:0:
160,48,49939,1,8,0:0:0:0:
176,16,50046,1,0,0:0:0:0:
176,16,50154,1,0,0:0:0:0:
176,16,50261,1,8,0:0:0:0:
176,16,50368,1,0,0:0:0:0:
208,32,50421,1,0,0:0:0:0:
176,80,50475,1,0,0:0:0:0:
176,80,50582,1,8,0:0:0:0:
160,48,50689,1,0,0:0:0:0:
160,32,50743,1,0,0:0:0:0:
160,48,50796,1,8,0:0:0:0:
176,80,50904,1,0,0:0:0:0:
176,80,51011,1,0,0:0:0:0:
160,32,51064,1,0,0:0:0:0:
176,80,51118,1,8,0:0:0:0:
160,64,51171,1,8,0:0:0:0:
192,80,51225,1,0,0:0:0:0:
176,80,51332,1,0,0:0:0:0:
176,80,51439,1,8,0:0:0:0:
160,64,51493,1,8,0:0:0:0:
176,96,51546,1,0,0:0:0:0:
160,32,51600,1,0,0:0:0:0:
160,96,51654,1,8,0:0:0:0:
176,80,51761,1,0,0:0:0:0:
176,80,51868,1,0,0:0:0:0:
176,80,51975,1,8,0:0:0:0:
144,48,52082,1,0,0:0:0:0:
144,48,52136,1,8,0:0:0:0:
144,48,52189,1,0,0:0:0:0:
160,64,52296,1,8,0:0:0:0:
160,80,52404,1,0,0:0:0:0:
176,48,52511,1,8,0:0:0:0:
160,48,52618,1,0,0:0:0:0:
192,80,52671,1,0,0:0:0:0:
160,48,52725,1,0,0:0:0:0:
176,32,52779,1,0,0:0:0:0:
160,48,52833,1,8,0:0:0:0:
192,80,52939,1,0,0:0:0:0:
160,48,52940,1,0,0:0:0:0:
192,80,52993,1,0,0:0:0:0:
160,48,53047,1,0,0:0:0:0:
160,48,53154,1,8,0:0:0:0:
192,64,53261,1,0,0:0:0:0:
176,32,53314,1,0,0:0:0:0:
160,64,53368,1,8,0:0:0:0:
144,96,53475,1,0,0:0:0:0:
160,64,53582,1,0,0:0:0:0:
160,64,53689,1,8,0:0:0:0:
160,64,53796,1,0,0:0:0:0:
176,48,53850,1,8,0:0:0:0:
160,64,53904,1,0,0:0:0:0:
160,16,53957,1,0,0:0:0:0:
160,64,54011,1,8,0:0:0:0:
160,64,54117,1,0,0:0:0:0:
160,64,54225,1,8,0:0:0:0:
144,16,54279,1,8,0:0:0:0:
176,48,54332,1,0,0:0:0:0:
160,64,54439,1,0,0:0:0:0:
144,32,54546,1,8,0:0:0:0:
144,32,54600,1,8,0:0:0:0:
144,32,54654,1,0,0:0:0:0:
160,48,54761,1,0,0:0:0:0:
160,48,54868,1,8,0:0:0:0:
176,48,54921,1,8,0:0:0:0:
176,48,54975,1,0,0:0:0:0:
192,0,55029,1,0,0:0:0:0:
160,32,55082,1,8,0:0:0:0:
176,32,55297,1,0,0:0:0:0:
128,64,55511,1,8,0:0:0:0:
192,48,55725,1,8,0:0:0:0:
192,48,55939,1,0,0:0:0:0:
192,128,56154,1,0,0:0:0:0:
192,128,56261,1,0,0:0:0:0:
192,128,56368,1,8,0:0:0:0:
160,112,56421,1,8,0:0:0:0:
160,112,56475,1,8,0:0:0:0:
160,112,56529,1,8,0:0:0:0:
160,112,56582,1,0,0:0:0:0:
192,80,56796,1,8,0:0:0:0:
192,80,57011,1,0,0:0:0:0:
176,32,57118,1,0,0:0:0:0:
192,80,57225,1,8,0:0:0:0:
176,32,57279,1,8,0:0:0:0:
176,32,57332,1,0,0:0:0:0:
176,32,57386,1,0,0:0:0:0:
176,32,57439,1,8,0:0:0:0:
176,64,57493,1,8,0:0:0:0:
176,64,57546,1,8,0:0:0:0:
176,64,57600,1,8,0:0:0:0:
176,64,57654,1,0,0:0:0:0:
192,64,57867,1,0,0:0:0:0:
192,64,57975,1,0,0:0:0:0:
192,64,58082,1,8,0:0:0:0:
192,64,58189,1,8,0:0:0:0:
192,64,58296,1,0,0:0:0:0:
176,32,58511,1,12,0:0:0:0:
192,64,58618,1,0,0:0:0:0:
192,64,58725,1,0,0:0:0:0:
176,64,58832,1,12,0:0:0:0:
176,48,58939,1,0,0:0:0:0:
176,48,59046,1,0,0:0:0:0:
176,48,59154,1,12,0:0:0:0:
176,80,59368,1,0,0:0:0:0:
144,64,59582,1,8,0:0:0:0:
144,64,59689,1,0,0:0:0:0:
192,16,59796,1,0,0:0:0:0:
144,80,59904,1,8,0:0:0:0:
144,80,60011,1,0,0:0:0:0:
144,80,60225,1,8,0:0:0:0:
192,48,60439,1,0,0:0:0:0:
192,48,60546,1,8,0:0:0:0:
176,32,60654,1,0,0:0:0:0:
176,80,60707,1,0,0:0:0:0:
176,80,60761,1,0,0:0:0:0:
176,80,60814,1,0,0:0:0:0:
176,80,60868,1,8,0:0:0:0:
192,64,60921,1,8,0:0:0:0:
192,64,60975,1,8,0:0:0:0:
192,64,61029,1,8,0:0:0:0:
192,64,61082,1,0,0:0:0:0:
176,112,61296,1,0,0:0:0:0:
144,80,61404,1,0,0:0:0:0:
176,112,61511,1,0,0:0:0:0:
160,128,61617,1,0,0:0:0:0:
176,128,61725,1,0,0:0:0:0:
176,32,61939,1,8,0:0:0:0:
176,80,62154,1,0,0:0:0:0:
176,80,62261,1,0,0:0:0:0:
176,80,62368,1,8,0:0:0:0:
160,96,62421,1,8,0:0:0:0:
144,64,62475,1,0,0:0:0:0:
160,96,62529,1,0,0:0:0:0:
144,64,62582,1,8,0:0:0:0:
160,96,62636,1,8,0:0:0:0:
144,64,62689,1,8,0:0:0:0:
160,96,62743,1,8,0:0:0:0:
160,96,62796,1,0,0:0:0:0:
176,96,63011,1,0,0:0:0:0:
176,96,63118,1,0,0:0:0:0:
176,96,63225,1,8,0:0:0:0:
176,96,63332,1,0,0:0:0:0:
176,96,63439,1,0,0:0:0:0:
144,80,63654,1,8,0:0:0:0:
160,80,63868,1,0,0:0:0:0:
160,80,63975,1,0,0:0:0:0:
160,80,64082,1,8,0:0:0:0:
160,64,64136,1,8,0:0:0:0:
160,80,64189,1,0,0:0:0:0:
160,80,64243,1,0,0:0:0:0:
160,64,64296,1,8,0:0:0:0:
160,64,64404,1,8,0:0:0:0:
160,64,64511,1,0,0:0:0:0:
176,48,64725,1,0,0:0:0:0:
176,48,64832,1,0,0:0:0:0:
176,48,64939,1,8,0:0:0:0:
176,48,65046,1,8,0:0:0:0:
176,48,65154,1,0,0:0:0:0:
160,64,65368,1,12,0:0:0:0:
160,96,65475,1,0,0:0:0:0:
176,80,65582,1,0,0:0:0:0:
176,80,65689,1,12,0:0:0:0:
176,80,65796,1,0,0:0:0:0:
160,96,65904,1,0,0:0:0:0:
160,96,66011,1,12,0:0:0:0:
192,80,66225,1,0,0:0:0:0:
176,112,66439,1,0,0:0:0:0:
176,112,66546,1,0,0:0:0:0:
176,112,66654,1,8,0:0:0:0:
176,112,66761,1,8,0:0:0:0:
176,112,66868,1,0,0:0:0:0:
160,32,66975,1,0,0:0:0:0:
160,48,67082,1,8,0:0:0:0:
208,64,67296,1,0,0:0:0:0:
208,64,67404,1,0,0:0:0:0:
192,64,67511,1,8,0:0:0:0:
160,80,67564,1,8,0:0:0:0:
160,96,67618,1,8,0:0:0:0:
160,80,67671,1,8,0:0:0:0:
160,96,67725,1,8,0:0:0:0:
160,96,67779,1,8,0:0:0:0:
160,80,67832,1,8,0:0:0:0:
160,96,67886,1,8,0:0:0:0:
160,80,67939,1,0,0:0:0:0:
176,96,68154,1,0,0:0:0:0:
160,32,68261,1,0,0:0:0:0:
160,112,68368,1,0,0:0:0:0:
176,96,68475,1,0,0:0:0:0:
208,80,68582,1,0,0:0:0:0:
208,96,68796,1,8,0:0:0:0:
208,96,69011,1,0,0:0:0:0:
208,96,69118,1,0,0:0:0:0:
208,96,69225,1,8,0:0:0:0:
192,96,69332,1,8,0:0:0:0:
192,96,69439,1,0,0:0:0:0:
176,96,69546,1,0,0:0:0:0:
176,96,69654,1,8,0:0:0:0:
176,128,69796,1,0,0:0:0:0:
176,128,69939,1,0,0:0:0:0:
176,128,70082,1,0,0:0:0:0:
176,128,70225,1,0,0:0:0:0:
176,128,70368,1,0,0:0:0:0:
176,112,70439,1,0,0:0:0:0:
176,112,70511,1,8,0:0:0:0:
176,112,70654,1,0,0:0:0:0:
176,112,70796,1,0,0:0:0:0:
176,112,70939,1,8,0:0:0:0:
208,160,71368,1,4,0:0:0:0:
176,144,71582,1,0,0:0:0:0:
160,96,71796,1,0,0:0:0:0:
160,96,72010,1,0,0:0:0:0:
160,96,72225,1,8,0:0:0:0:
160,144,73082,1,0,0:0:0:0:
160,144,73296,1,0,0:0:0:0:
160,144,73510,1,0,0:0:0:0:
160,144,73725,1,0,0:0:0:0:
160,144,73939,1,8,0:0:0:0:
160,112,74796,1,0,0:0:0:0:
160,112,75010,1,0,0:0:0:0:
160,112,75225,1,0,0:0:0:0:
160,112,75439,1,0,0:0:0:0:
160,112,75653,1,8,0:0:0:0:
176,96,76510,1,0,0:0:0:0:
176,96,76725,1,0,0:0:0:0:
176,96,76939,1,0,0:0:0:0:
176,96,77153,1,0,0:0:0:0:
176,96,77368,1,8,0:0:0:0:
160,112,77475,1,8,0:0:0:0:
160,112,77582,1,0,0:0:0:0:
176,144,77796,1,0,0:0:0:0:
176,144,78010,1,8,0:0:0:0:
176,144,78225,1,4,0:0:0:0:
176,160,78439,1,0,0:0:0:0:
176,160,78653,1,0,0:0:0:0:
176,160,78868,1,0,0:0:0:0:
176,160,79082,1,8,0:0:0:0:
208,176,79939,1,0,0:0:0:0:
208,176,80153,1,0,0:0:0:0:
208,176,80368,1,0,0:0:0:0:
208,176,80582,1,0,0:0:0:0:
208,176,80796,1,8,0:0:0:0:
192,160,81653,1,0,0:0:0:0:
192,160,81868,1,0,0:0:0:0:
192,160,82082,1,0,0:0:0:0:
192,160,82296,1,0,0:0:0:0:
192,160,82510,1,8,0:0:0:0:
176,160,83368,1,8,0:0:0:0:
176,128,83475,1,8,0:0:0:0:
176,176,83582,1,0,0:0:0:0:
176,128,83689,1,0,0:0:0:0:
176,176,83796,1,0,0:0:0:0:
176,128,83903,1,0,0:0:0:0:
176,128,84010,1,8,0:0:0:0:
160,128,84118,1,8,0:0:0:0:
160,128,84225,1,0,0:0:0:0:
176,48,84332,1,0,0:0:0:0:
176,48,84439,1,0,0:0:0:0:
176,48,84546,1,0,0:0:0:0:
160,48,84653,1,8,0:0:0:0:
160,48,84760,1,8,0:0:0:0:
160,48,84868,1,0,0:0:0:0:
160,48,85082,1,4,0:0:0:0:
176,80,85296,1,0,0:0:0:0:
176,80,85510,1,0,0:0:0:0:
176,80,85725,1,0,0:0:0:0:
176,80,85939,1,8,0:0:0:0:
176,80,86796,1,0,0:0:0:0:
176,80,87010,1,0,0:0:0:0:
176,80,87225,1,0,0:0:0:0:
176,112,87439,1,0,0:0:0:0:
176,112,87653,1,8,0:0:0:0:
176,112,88510,1,0,0:0:0:0:
176,112,88725,1,0,0:0:0:0:
176,112,88939,1,0,0:0:0:0:
176,112,89153,1,0,0:0:0:0:
176,112,89368,1,8,0:0:0:0:
160,112,90225,1,0,0:0:0:0:
160,112,90439,1,0,0:0:0:0:
160,112,90653,1,0,0:0:0:0:
160,112,90868,1,0,0:0:0:0:
160,112,91082,1,8,0:0:0:0:
160,112,91189,1,8,0:0:0:0:
160,112,91296,1,0,0:0:0:0:
192,128,91510,1,0,0:0:0:0:
192,128,91725,1,8,0:0:0:0:
192,128,91939,1,4,0:0:0:0:
208,80,92153,1,0,0:0:0:0:
208,80,92368,1,0,0:0:0:0:
208,96,92582,1,0,0:0:0:0:
192,96,92796,1,8,0:0:0:0:
192,96,93653,1,0,0:0:0:0:
192,96,93868,1,0,0:0:0:0:
192,96,94082,1,0,0:0:0:0:
192,96,94296,1,0,0:0:0:0:
192,112,94510,1,8,0:0:0:0:
208,160,95368,1,0,0:0:0:0:
208,176,95582,1,0,0:0:0:0:
208,176,95796,1,0,0:0:0:0:
208,176,96010,1,0,0:0:0:0:
208,176,96225,1,8,0:0:0:0:
192,192,97082,1,8,0:0:0:0:
192,192,97189,1,8,0:0:0:0:
192,192,97296,1,0,0:0:0:0:
192,192,97403,1,0,0:0:0:0:
192,192,97510,1,0,0:0:0:0:
176,192,97618,1,0,0:0:0:0:
176,192,97725,1,8,0:0:0:0:
176,192,97832,1,8,0:0:0:0:
176,192,97939,1,0,0:0:0:0:
176,192,98046,1,0,0:0:0:0:
192,176,98153,1,0,0:0:0:0:
192,176,98260,1,0,0:0:0:0:
192,192,98368,1,8,0:0:0:0:
208,176,98475,1,8,0:0:0:0:
208,176,98582,1,0,0:0:0:0:
192,192,98796,1,4,0:0:0:0:
224,112,99010,1,0,0:0:0:0:
224,112,99117,1,8,0:0:0:0:
192,48,99171,1,8,0:0:0:0:
160,64,99224,1,0,0:0:0:0:
192,64,99331,1,8,0:0:0:0:
224,112,99438,1,0,0:0:0:0:
192,48,99492,1,0,0:0:0:0:
192,64,99546,1,0,0:0:0:0:
192,64,99599,1,0,0:0:0:0:
224,112,99653,1,8,0:0:0:0:
192,48,99867,1,0,0:0:0:0:
192,48,99974,1,8,0:0:0:0:
192,80,100081,1,0,0:0:0:0:
176,64,100188,1,0,0:0:0:0:
192,64,100296,1,8,0:0:0:0:
192,80,100510,1,0,0:0:0:0:
192,80,100617,1,8,0:0:0:0:
176,48,100671,1,8,0:0:0:0:
192,80,100724,1,0,0:0:0:0:
176,80,100831,1,0,0:0:0:0:
176,80,100938,1,8,0:0:0:0:
192,48,101046,1,0,0:0:0:0:
176,48,101099,1,0,0:0:0:0:
176,64,101153,1,8,0:0:0:0:
176,48,101206,1,8,0:0:0:0:
176,64,101260,1,0,0:0:0:0:
192,48,101367,1,8,0:0:0:0:
208,96,101581,1,0,0:0:0:0:
208,96,101688,1,0,0:0:0:0:
208,112,101796,1,8,0:0:0:0:
208,112,102010,1,8,0:0:0:0:
208,112,102224,1,0,0:0:0:0:
160,112,102438,1,0,0:0:0:0:
160,128,102546,1,0,0:0:0:0:
160,112,102653,1,8,0:0:0:0:
192,64,102706,1,8,0:0:0:0:
160,112,102760,1,0,0:0:0:0:
192,48,102813,1,0,0:0:0:0:
160,112,102867,1,8,0:0:0:0:
160,112,102974,1,0,0:0:0:0:
176,48,103028,1,0,0:0:0:0:
160,112,103081,1,8,0:0:0:0:
192,80,103296,1,0,0:0:0:0:
192,80,103403,1,0,0:0:0:0:
176,80,103510,1,8,0:0:0:0:
208,112,103617,1,8,0:0:0:0:
160,48,103724,1,0,0:0:0:0:
160,64,103938,1,8,0:0:0:0:
144,96,103992,1,8,0:0:0:0:
160,64,104046,1,0,0:0:0:0:
160,64,104153,1,0,0:0:0:0:
176,64,104260,1,8,0:0:0:0:
176,64,104313,1,8,0:0:0:0:
176,64,104367,1,0,0:0:0:0:
176,96,104474,1,0,0:0:0:0:
176,96,104581,1,8,0:0:0:0:
160,80,104635,1,8,0:0:0:0:
160,80,104688,1,0,0:0:0:0:
176,48,104742,1,0,0:0:0:0:
192,32,104795,1,8,0:0:0:0:
176,80,104903,1,8,0:0:0:0:
176,80,105010,1,0,0:0:0:0:
192,64,105224,1,0,0:0:0:0:
192,64,105438,1,0,0:0:0:0:
192,64,105653,1,0,0:0:0:0:
160,96,105760,1,8,0:0:0:0:
192,48,105813,1,8,0:0:0:0:
160,96,105867,1,0,0:0:0:0:
160,96,105974,1,0,0:0:0:0:
176,48,106081,1,8,0:0:0:0:
192,48,106135,1,8,0:0:0:0:
176,48,106188,1,0,0:0:0:0:
176,48,106242,1,0,0:0:0:0:
176,48,106295,1,8,0:0:0:0:
176,48,106402,1,0,0:0:0:0:
192,80,106510,1,8,0:0:0:0:
192,80,106724,1,0,0:0:0:0:
192,80,106831,1,0,0:0:0:0:
192,80,106938,1,8,0:0:0:0:
192,80,107045,1,0,0:0:0:0:
192,80,107153,1,0,0:0:0:0:
192,96,107367,1,8,0:0:0:0:
192,64,107420,1,8,0:0:0:0:
192,96,107474,1,0,0:0:0:0:
192,96,107581,1,0,0:0:0:0:
192,96,107688,1,8,0:0:0:0:
176,16,107742,1,8,0:0:0:0:
176,112,107795,1,0,0:0:0:0:
176,112,107903,1,0,0:0:0:0:
176,128,108010,1,8,0:0:0:0:
160,32,108063,1,8,0:0:0:0:
176,128,108117,1,0,0:0:0:0:
176,48,108170,1,0,0:0:0:0:
176,128,108225,1,8,0:0:0:0:
192,96,108438,1,0,0:0:0:0:
192,96,108545,1,0,0:0:0:0:
192,96,108653,1,8,0:0:0:0:
176,112,108867,1,0,0:0:0:0:
176,112,109081,1,8,0:0:0:0:
160,48,109135,1,8,0:0:0:0:
176,48,109188,1,0,0:0:0:0:
160,128,109295,1,8,0:0:0:0:
192,16,109349,1,8,0:0:0:0:
160,128,109403,1,0,0:0:0:0:
160,0,109456,1,0,0:0:0:0:
160,128,109510,1,8,0:0:0:0:
160,128,109617,1,0,0:0:0:0:
192,48,109670,1,0,0:0:0:0:
176,48,109724,1,8,0:0:0:0:
160,144,109831,1,0,0:0:0:0:
160,144,109938,1,8,0:0:0:0:
144,80,110153,1,0,0:0:0:0:
144,80,110367,1,8,0:0:0:0:
112,80,110581,1,0,0:0:0:0:
144,112,110688,1,0,0:0:0:0:
144,112,110795,1,8,0:0:0:0:
224,80,110849,1,0,0:0:0:0:
208,48,110903,1,8,0:0:0:0:
224,80,110956,1,8,0:0:0:0:
144,112,111010,1,0,0:0:0:0:
176,96,111117,1,0,0:0:0:0:
176,96,111224,1,0,0:0:0:0:
176,80,111278,1,0,0:0:0:0:
176,96,111331,1,0,0:0:0:0:
176,96,111438,1,8,0:0:0:0:
160,80,111492,1,0,0:0:0:0:
176,96,111545,1,8,0:0:0:0:
160,80,111599,1,8,0:0:0:0:
192,80,111653,1,0,0:0:0:0:
192,80,111760,1,0,0:0:0:0:
160,80,111867,1,0,0:0:0:0:
160,80,111920,1,0,0:0:0:0:
176,112,111974,1,0,0:0:0:0:
176,112,112081,1,8,0:0:0:0:
160,80,112135,1,0,0:0:0:0:
176,112,112189,1,8,0:0:0:0:
160,80,112242,1,8,0:0:0:0:
176,112,112296,1,0,0:0:0:0:
160,48,112510,1,4,0:0:0:0:
224,112,112724,1,0,0:0:0:0:
224,112,112831,1,8,0:0:0:0:
192,48,112885,1,8,0:0:0:0:
160,64,112938,1,0,0:0:0:0:
192,64,113045,1,8,0:0:0:0:
208,48,113099,1,8,0:0:0:0:
224,112,113153,1,0,0:0:0:0:
192,48,113206,1,0,0:0:0:0:
192,64,113260,1,0,0:0:0:0:
192,64,113313,1,0,0:0:0:0:
224,112,113367,1,8,0:0:0:0:
192,32,113474,1,0,0:0:0:0:
192,48,113581,1,0,0:0:0:0:
192,48,113688,1,8,0:0:0:0:
192,48,113742,1,8,0:0:0:0:
192,80,113795,1,0,0:0:0:0:
176,64,113903,1,0,0:0:0:0:
192,64,114010,1,8,0:0:0:0:
192,80,114224,1,0,0:0:0:0:
160,32,114278,1,0,0:0:0:0:
192,80,114331,1,8,0:0:0:0:
176,48,114385,1,8,0:0:0:0:
192,80,114438,1,0,0:0:0:0:
176,80,114545,1,0,0:0:0:0:
176,80,114653,1,8,0:0:0:0:
160,64,114706,1,8,0:0:0:0:
192,48,114760,1,0,0:0:0:0:
176,64,114867,1,8,0:0:0:0:
176,48,114920,1,8,0:0:0:0:
176,64,114974,1,0,0:0:0:0:
192,48,115081,1,8,0:0:0:0:
208,96,115295,1,0,0:0:0:0:
208,96,115403,1,0,0:0:0:0:
208,112,115510,1,8,0:0:0:0:
192,48,115617,1,0,0:0:0:0:
208,112,115724,1,8,0:0:0:0:
208,112,115938,1,0,0:0:0:0:
192,32,116045,1,8,0:0:0:0:
160,112,116153,1,0,0:0:0:0:
192,32,116206,1,0,0:0:0:0:
160,128,116260,1,0,0:0:0:0:
160,112,116367,1,8,0:0:0:0:
192,64,116420,1,8,0:0:0:0:
160,112,116474,1,0,0:0:0:0:
192,48,116528,1,0,0:0:0:0:
160,112,116581,1,8,0:0:0:0:
160,112,116688,1,0,0:0:0:0:
176,48,116742,1,0,0:0:0:0:
160,112,116795,1,8,0:0:0:0:
192,80,117010,1,0,0:0:0:0:
192,80,117117,1,0,0:0:0:0:
176,32,117170,1,0,0:0:0:0:
176,80,117224,1,8,0:0:0:0:
208,112,117331,1,8,0:0:0:0:
160,48,117438,1,0,0:0:0:0:
160,64,117653,1,8,0:0:0:0:
144,96,117706,1,8,0:0:0:0:
160,64,117760,1,0,0:0:0:0:
176,48,117813,1,0,0:0:0:0:
160,64,117867,1,0,0:0:0:0:
176,64,117974,1,8,0:0:0:0:
176,64,118028,1,8,0:0:0:0:
176,64,118081,1,0,0:0:0:0:
176,48,118135,1,0,0:0:0:0:
176,96,118188,1,0,0:0:0:0:
176,96,118295,1,8,0:0:0:0:
160,80,118349,1,8,0:0:0:0:
160,80,118403,1,0,0:0:0:0:
176,48,118456,1,0,0:0:0:0:
192,32,118510,1,8,0:0:0:0:
176,80,118617,1,8,0:0:0:0:
176,80,118724,1,0,0:0:0:0:
192,64,118938,1,8,0:0:0:0:
192,64,119153,1,0,0:0:0:0:
192,64,119367,1,0,0:0:0:0:
176,16,119420,1,0,0:0:0:0:
160,96,119474,1,0,0:0:0:0:
192,48,119528,1,0,0:0:0:0:
160,96,119581,1,8,0:0:0:0:
160,96,119688,1,0,0:0:0:0:
208,32,119742,1,0,0:0:0:0:
176,48,119795,1,8,0:0:0:0:
192,48,119849,1,8,0:0:0:0:
176,48,119903,1,0,0:0:0:0:
176,48,119956,1,0,0:0:0:0:
176,48,120010,1,8,0:0:0:0:
176,48,120117,1,0,0:0:0:0:
192,80,120224,1,8,0:0:0:0:
192,80,120438,1,0,0:0:0:0:
192,80,120545,1,0,0:0:0:0:
192,80,120653,1,8,0:0:0:0:
192,80,120760,1,8,0:0:0:0:
192,80,120867,1,0,0:0:0:0:
192,96,121081,1,8,0:0:0:0:
192,64,121135,1,8,0:0:0:0:
192,96,121188,1,0,0:0:0:0:
176,32,121242,1,0,0:0:0:0:
192,96,121295,1,0,0:0:0:0:
192,96,121403,1,8,0:0:0:0:
176,16,121456,1,8,0:0:0:0:
176,112,121510,1,0,0:0:0:0:
176,32,121563,1,0,0:0:0:0:
176,112,121617,1,0,0:0:0:0:
176,128,121724,1,8,0:0:0:0:
160,32,121778,1,8,0:0:0:0:
176,128,121831,1,0,0:0:0:0:
176,48,121885,1,0,0:0:0:0:
176,128,121938,1,8,0:0:0:0:
192,96,122153,1,0,0:0:0:0:
192,96,122260,1,0,0:0:0:0:
192,96,122367,1,8,0:0:0:0:
144,16,122474,1,8,0:0:0:0:
176,112,122581,1,0,0:0:0:0:
176,112,122795,1,8,0:0:0:0:
160,48,122849,1,8,0:0:0:0:
176,48,122903,1,0,0:0:0:0:
160,16,122956,1,0,0:0:0:0:
160,128,123010,1,8,0:0:0:0:
192,16,123063,1,8,0:0:0:0:
160,128,123117,1,0,0:0:0:0:
160,0,123170,1,0,0:0:0:0:
160,128,123224,1,8,0:0:0:0:
160,128,123331,1,0,0:0:0:0:
192,48,123385,1,0,0:0:0:0:
176,48,123438,1,8,0:0:0:0:
160,144,123545,1,0,0:0:0:0:
160,144,123653,1,8,0:0:0:0:
144,80,123867,1,0,0:0:0:0:
144,80,124081,1,8,0:0:0:0:
112,80,124295,1,0,0:0:0:0:
144,112,124403,1,0,0:0:0:0:
144,112,124510,1,8,0:0:0:0:
224,96,124563,1,0,0:0:0:0:
208,48,124617,1,8,0:0:0:0:
224,96,124670,1,8,0:0:0:0:
144,112,124724,1,0,0:0:0:0:
176,96,124831,1,0,0:0:0:0:
224,96,124885,1,0,0:0:0:0:
176,96,124938,1,8,0:0:0:0:
224,96,124992,1,8,0:0:0:0:
176,96,125045,1,0,0:0:0:0:
176,96,125153,1,8,0:0:0:0:
208,64,125206,1,0,0:0:0:0:
176,96,125260,1,8,0:0:0:0:
208,64,125313,1,8,0:0:0:0:
192,80,125367,1,0,0:0:0:0:
192,80,125474,1,0,0:0:0:0:
208,64,125528,1,0,0:0:0:0:
176,112,125581,1,8,0:0:0:0:
208,64,125635,1,8,0:0:0:0:
176,112,125688,1,0,0:0:0:0:
176,112,125795,1,8,0:0:0:0:
192,48,125849,1,0,0:0:0:0:
176,112,125903,1,8,0:0:0:0:
192,48,125956,1,8,0:0:0:0:
176,112,126010,1,0,0:0:0:0:
192,16,126224,1,4,0:0:0:0:
