osu file format v14

[General]
AudioFilename: audio.mp3
AudioLeadIn: 0
PreviewTime: 21085
Countdown: 0
SampleSet: Normal
StackLeniency: 0.6
Mode: 1
LetterboxInBreaks: 0
WidescreenStoryboard: 0

[Editor]
DistanceSpacing: 0.8
BeatDivisor: 4
GridSize: 32
TimelineZoom: 2.62

[Metadata]
Title:Moonlight Battlefield - Aqua Road (short ver)
TitleUnicode:Moonlight Battlefield - Aqua Road (short ver)
Artist:Tomoya Ohtani feat. nana hatori
ArtistUnicode:Tomoya Ohtani feat. nana hatori
Creator:Kunieda
Version:Oni
Source:Sonic Forces
Tags:drum and bass dnb sonic the hedgehog vocals avatar stage on the edge
BeatmapID:1453448
BeatmapSetID:682248

[Difficulty]
HPDrainRate:5
CircleSize:5
OverallDifficulty:5
ApproachRate:5
SliderMultiplier:1.4
SliderTickRate:1

[Events]
//Background and Video events
0,0,"54943763_p0.png",0,0
//Break Periods
//Storyboard Layer 0 (Background)
//Storyboard Layer 1 (Fail)
//Storyboard Layer 2 (Pass)
//Storyboard Layer 3 (Foreground)
//Storyboard Sound Samples

[TimingPoints]
107,327.868852459016,4,1,0,100,1,0
21090,-100,4,1,0,100,0,1
42074,-100,4,1,0,100,0,0
63057,-100,4,1,0,100,0,1
73549,-100,4,1,0,100,0,0

[HitObjects]
256,192,10598,5,4,0:0:0:0:
256,192,10762,1,0,0:0:0:0:
256,192,10926,1,8,0:0:0:0:
256,192,11090,1,4,0:0:0:0:
256,192,11254,1,0,0:0:0:0:
256,192,11336,1,8,0:0:0:0:
256,192,11418,1,0,0:0:0:0:
256,192,11582,1,8,0:0:0:0:
256,192,11746,1,8,0:0:0:0:
256,192,11828,1,8,0:0:0:0:
256,192,11910,1,0,0:0:0:0:
256,192,12074,1,0,0:0:0:0:
256,192,12238,1,8,0:0:0:0:
256,192,12402,1,0,0:0:0:0:
256,192,12484,1,8,0:0:0:0:
256,192,12566,1,0,0:0:0:0:
256,192,12729,1,0,0:0:0:0:
256,192,12893,1,8,0:0:0:0:
256,192,13057,1,0,0:0:0:0:
256,192,13221,1,4,0:0:0:0:
256,192,13385,1,0,0:0:0:0:
256,192,13549,1,8,0:0:0:0:
256,192,13713,1,4,0:0:0:0:
256,192,13877,1,0,0:0:0:0:
256,192,14041,1,0,0:0:0:0:
256,192,14123,1,8,0:0:0:0:
256,192,14205,1,0,0:0:0:0:
256,192,14369,1,0,0:0:0:0:
256,192,14533,1,8,0:0:0:0:
256,192,14615,1,0,0:0:0:0:
256,192,14697,1,0,0:0:0:0:
256,192,14861,1,8,0:0:0:0:
256,192,15025,1,8,0:0:0:0:
256,192,15188,1,0,0:0:0:0:
256,192,15270,1,0,0:0:0:0:
256,192,15352,1,0,0:0:0:0:
256,192,15516,1,8,0:0:0:0:
256,192,15598,1,8,0:0:0:0:
256,192,15680,1,8,0:0:0:0:
256,192,15844,1,8,0:0:0:0:
256,192,16008,1,8,0:0:0:0:
256,192,16090,1,0,0:0:0:0:
256,192,16172,1,0,0:0:0:0:
256,192,16336,1,8,0:0:0:0:
256,192,16500,1,0,0:0:0:0:
256,192,16664,1,0,0:0:0:0:
256,192,16746,1,8,0:0:0:0:
256,192,16828,1,0,0:0:0:0:
256,192,16992,1,8,0:0:0:0:
256,192,17156,1,0,0:0:0:0:
256,192,17320,1,0,0:0:0:0:
256,192,17402,1,0,0:0:0:0:
256,192,17484,1,8,0:0:0:0:
256,192,17647,1,8,0:0:0:0:
256,192,17811,1,0,0:0:0:0:
256,192,17976,1,0,0:0:0:0:
256,192,18058,1,0,0:0:0:0:
256,192,18139,1,8,0:0:0:0:
256,192,18303,1,8,0:0:0:0:
256,192,18467,1,0,0:0:0:0:
256,192,18632,1,0,0:0:0:0:
256,192,18796,1,0,0:0:0:0:
256,192,18959,1,0,0:0:0:0:
256,192,19123,1,0,0:0:0:0:
256,192,19287,1,0,0:0:0:0:
256,192,19451,1,0,0:0:0:0:
256,192,19615,1,0,0:0:0:0:
256,192,19779,1,8,0:0:0:0:
256,192,19861,1,0,0:0:0:0:
256,192,19943,1,8,0:0:0:0:
256,192,20025,1,0,0:0:0:0:
256,192,20106,1,8,0:0:0:0:
256,192,20188,1,0,0:0:0:0:
256,192,20270,1,8,0:0:0:0:
256,192,20352,1,0,0:0:0:0:
256,192,21090,1,4,0:0:0:0:
256,192,21254,1,0,0:0:0:0:
256,192,21336,1,0,0:0:0:0:
256,192,21418,1,8,0:0:0:0:
256,192,21582,1,4,0:0:0:0:
256,192,21746,1,0,0:0:0:0:
256,192,21828,1,8,0:0:0:0:
256,192,21910,1,0,0:0:0:0:
256,192,22074,1,8,0:0:0:0:
256,192,22156,1,0,0:0:0:0:
256,192,22238,1,0,0:0:0:0:
256,192,22402,1,8,0:0:0:0:
256,192,22566,1,0,0:0:0:0:
256,192,22729,1,8,0:0:0:0:
256,192,22893,1,0,0:0:0:0:
256,192,22975,1,8,0:0:0:0:
256,192,23057,1,0,0:0:0:0:
256,192,23221,1,0,0:0:0:0:
256,192,23385,1,8,0:0:0:0:
256,192,23549,1,0,0:0:0:0:
256,192,23713,1,12,0:0:0:0:
256,192,23877,1,0,0:0:0:0:
256,192,23959,1,0,0:0:0:0:
256,192,24041,1,0,0:0:0:0:
256,192,24205,1,12,0:0:0:0:
256,192,24369,1,0,0:0:0:0:
256,192,24451,1,0,0:0:0:0:
256,192,24533,1,0,0:0:0:0:
256,192,24697,1,8,0:0:0:0:
256,192,24779,1,0,0:0:0:0:
256,192,24861,1,0,0:0:0:0:
256,192,25025,1,8,0:0:0:0:
256,192,25188,1,0,0:0:0:0:
256,192,25352,1,8,0:0:0:0:
256,192,25516,1,0,0:0:0:0:
256,192,25598,1,0,0:0:0:0:
256,192,25680,1,0,0:0:0:0:
256,192,25844,1,0,0:0:0:0:
256,192,26008,1,8,0:0:0:0:
256,192,26172,1,0,0:0:0:0:
256,192,26336,1,0,0:0:0:0:
256,192,26500,1,0,0:0:0:0:
256,192,26582,1,0,0:0:0:0:
256,192,26664,1,8,0:0:0:0:
256,192,26828,1,0,0:0:0:0:
256,192,26992,1,8,0:0:0:0:
256,192,27074,1,8,0:0:0:0:
256,192,27156,1,0,0:0:0:0:
256,192,27320,1,8,0:0:0:0:
256,192,27484,1,0,0:0:0:0:
256,192,27566,1,0,0:0:0:0:
256,192,27647,1,8,0:0:0:0:
256,192,27811,1,0,0:0:0:0:
256,192,27975,1,8,0:0:0:0:
256,192,28139,1,0,0:0:0:0:
256,192,28221,1,0,0:0:0:0:
256,192,28303,1,0,0:0:0:0:
256,192,28467,1,0,0:0:0:0:
256,192,28631,1,8,0:0:0:0:
256,192,28795,1,0,0:0:0:0:
256,192,28959,1,0,0:0:0:0:
256,192,29123,1,0,0:0:0:0:
256,192,29287,1,8,0:0:0:0:
256,192,29451,1,0,0:0:0:0:
256,192,29533,1,8,0:0:0:0:
256,192,29697,1,0,0:0:0:0:
256,192,29779,1,0,0:0:0:0:
256,192,29943,1,8,0:0:0:0:
256,192,30025,1,0,0:0:0:0:
256,192,30106,1,0,0:0:0:0:
256,192,30270,1,8,0:0:0:0:
256,192,30434,1,0,0:0:0:0:
256,192,30516,1,8,0:0:0:0:
256,192,30598,1,0,0:0:0:0:
256,192,30762,1,8,0:0:0:0:
256,192,30926,1,0,0:0:0:0:
256,192,31090,1,0,0:0:0:0:
256,192,31254,1,8,0:0:0:0:
256,192,31336,1,8,0:0:0:0:
256,192,31418,1,0,0:0:0:0:
256,192,31582,1,4,0:0:0:0:
256,192,31746,1,0,0:0:0:0:
256,192,31828,1,0,0:0:0:0:
256,192,31910,1,8,0:0:0:0:
256,192,32074,1,4,0:0:0:0:
256,192,32238,1,0,0:0:0:0:
256,192,32320,1,8,0:0:0:0:
256,192,32402,1,0,0:0:0:0:
256,192,32566,1,8,0:0:0:0:
256,192,32648,1,0,0:0:0:0:
256,192,32730,1,0,0:0:0:0:
256,192,32894,1,8,0:0:0:0:
256,192,33058,1,0,0:0:0:0:
256,192,33221,1,8,0:0:0:0:
256,192,33385,1,0,0:0:0:0:
256,192,33467,1,8,0:0:0:0:
256,192,33549,1,0,0:0:0:0:
256,192,33713,1,0,0:0:0:0:
256,192,33877,1,8,0:0:0:0:
256,192,34041,1,0,0:0:0:0:
256,192,34205,1,12,0:0:0:0:
256,192,34369,1,0,0:0:0:0:
256,192,34451,1,0,0:0:0:0:
256,192,34533,1,0,0:0:0:0:
256,192,34697,1,12,0:0:0:0:
256,192,34861,1,0,0:0:0:0:
256,192,34943,1,0,0:0:0:0:
256,192,35025,1,0,0:0:0:0:
256,192,35189,1,8,0:0:0:0:
256,192,35271,1,0,0:0:0:0:
256,192,35353,1,0,0:0:0:0:
256,192,35517,1,8,0:0:0:0:
256,192,35680,1,0,0:0:0:0:
256,192,35844,1,8,0:0:0:0:
256,192,36008,1,0,0:0:0:0:
256,192,36090,1,0,0:0:0:0:
256,192,36172,1,0,0:0:0:0:
256,192,36336,1,0,0:0:0:0:
256,192,36500,1,8,0:0:0:0:
256,192,36664,1,0,0:0:0:0:
256,192,36828,1,0,0:0:0:0:
256,192,36992,1,0,0:0:0:0:
256,192,37074,1,0,0:0:0:0:
256,192,37156,1,8,0:0:0:0:
256,192,37320,1,0,0:0:0:0:
256,192,37484,1,8,0:0:0:0:
256,192,37566,1,8,0:0:0:0:
256,192,37648,1,0,0:0:0:0:
256,192,37812,1,8,0:0:0:0:
256,192,37976,1,0,0:0:0:0:
256,192,38058,1,0,0:0:0:0:
256,192,38139,1,8,0:0:0:0:
256,192,38303,1,0,0:0:0:0:
256,192,38467,1,8,0:0:0:0:
256,192,38631,1,0,0:0:0:0:
256,192,38713,1,0,0:0:0:0:
256,192,38795,1,0,0:0:0:0:
256,192,38959,1,0,0:0:0:0:
256,192,39123,1,8,0:0:0:0:
256,192,39287,1,0,0:0:0:0:
256,192,39451,1,0,0:0:0:0:
256,192,39615,1,0,0:0:0:0:
256,192,39779,1,8,0:0:0:0:
256,192,39943,1,0,0:0:0:0:
256,192,40025,1,8,0:0:0:0:
256,192,40189,1,0,0:0:0:0:
256,192,40271,1,0,0:0:0:0:
256,192,40435,1,8,0:0:0:0:
256,192,40517,1,0,0:0:0:0:
256,192,40598,1,0,0:0:0:0:
256,192,40762,1,8,0:0:0:0:
256,192,40926,1,0,0:0:0:0:
256,192,41008,1,8,0:0:0:0:
256,192,41090,1,0,0:0:0:0:
256,192,41254,1,8,0:0:0:0:
256,192,41418,1,0,0:0:0:0:
256,192,41582,1,0,0:0:0:0:
256,192,41746,1,8,0:0:0:0:
256,192,41828,1,8,0:0:0:0:
256,192,41910,1,0,0:0:0:0:
256,192,42074,1,12,0:0:0:0:
256,192,42402,1,8,0:0:0:0:
256,192,42484,1,0,0:0:0:0:
256,192,42566,1,8,0:0:0:0:
256,192,42729,1,0,0:0:0:0:
256,192,42893,1,8,0:0:0:0:
256,192,42975,1,8,0:0:0:0:
256,192,43057,1,0,0:0:0:0:
256,192,43221,1,8,0:0:0:0:
256,192,43385,1,0,0:0:0:0:
256,192,43467,1,8,0:0:0:0:
256,192,43549,1,0,0:0:0:0:
256,192,43713,1,8,0:0:0:0:
256,192,43877,1,0,0:0:0:0:
256,192,43959,1,0,0:0:0:0:
256,192,44041,1,8,0:0:0:0:
256,192,44205,1,0,0:0:0:0:
256,192,44369,1,8,0:0:0:0:
256,192,44533,1,0,0:0:0:0:
256,192,44697,1,0,0:0:0:0:
256,192,44861,1,8,0:0:0:0:
256,192,45024,1,8,0:0:0:0:
256,192,45106,1,0,0:0:0:0:
256,192,45188,1,8,0:0:0:0:
256,192,45352,1,0,0:0:0:0:
256,192,45516,1,8,0:0:0:0:
256,192,45598,1,8,0:0:0:0:
256,192,45680,1,0,0:0:0:0:
256,192,45844,1,8,0:0:0:0:
256,192,46008,1,0,0:0:0:0:
256,192,46172,1,8,0:0:0:0:
256,192,46254,1,0,0:0:0:0:
256,192,46336,1,8,0:0:0:0:
256,192,46500,1,8,0:0:0:0:
256,192,46664,1,0,0:0:0:0:
256,192,46746,1,0,0:0:0:0:
256,192,46828,1,0,0:0:0:0:
256,192,46992,1,8,0:0:0:0:
256,192,47156,1,0,0:0:0:0:
256,192,47320,1,0,0:0:0:0:
256,192,47484,1,8,0:0:0:0:
256,192,47647,1,8,0:0:0:0:
256,192,47729,1,0,0:0:0:0:
256,192,47811,1,8,0:0:0:0:
256,192,47975,1,0,0:0:0:0:
256,192,48139,1,8,0:0:0:0:
256,192,48221,1,8,0:0:0:0:
256,192,48303,1,0,0:0:0:0:
256,192,48467,1,8,0:0:0:0:
256,192,48631,1,0,0:0:0:0:
256,192,48795,1,0,0:0:0:0:
256,192,48877,1,0,0:0:0:0:
256,192,48959,1,8,0:0:0:0:
256,192,49123,1,8,0:0:0:0:
256,192,49287,1,8,0:0:0:0:
256,192,49451,1,0,0:0:0:0:
256,192,49615,1,8,0:0:0:0:
256,192,49779,1,0,0:0:0:0:
256,192,49943,1,0,0:0:0:0:
256,192,50107,1,8,0:0:0:0:
256,192,50270,1,8,0:0:0:0:
256,192,50352,1,0,0:0:0:0:
256,192,50434,1,8,0:0:0:0:
256,192,50598,1,0,0:0:0:0:
256,192,50762,1,8,0:0:0:0:
256,192,50844,1,8,0:0:0:0:
256,192,50926,1,0,0:0:0:0:
256,192,51090,1,8,0:0:0:0:
256,192,51254,1,0,0:0:0:0:
256,192,51418,1,0,0:0:0:0:
256,192,51500,1,8,0:0:0:0:
256,192,51582,1,8,0:0:0:0:
256,192,51746,1,8,0:0:0:0:
256,192,51910,1,8,0:0:0:0:
256,192,52074,1,0,0:0:0:0:
256,192,52156,1,0,0:0:0:0:
256,192,52238,1,8,0:0:0:0:
256,192,52566,1,4,0:0:0:0:
256,192,52893,1,8,0:0:0:0:
256,192,52975,1,0,0:0:0:0:
256,192,53057,1,8,0:0:0:0:
256,192,53220,1,0,0:0:0:0:
256,192,53384,1,8,0:0:0:0:
256,192,53466,1,8,0:0:0:0:
256,192,53548,1,0,0:0:0:0:
256,192,53712,1,8,0:0:0:0:
256,192,53876,1,0,0:0:0:0:
256,192,54041,1,8,0:0:0:0:
256,192,54123,1,0,0:0:0:0:
256,192,54205,1,8,0:0:0:0:
256,192,54368,1,8,0:0:0:0:
256,192,54532,1,8,0:0:0:0:
256,192,54696,1,0,0:0:0:0:
256,192,54860,1,8,0:0:0:0:
256,192,55024,1,0,0:0:0:0:
256,192,55188,1,0,0:0:0:0:
256,192,55352,1,8,0:0:0:0:
256,192,55517,1,8,0:0:0:0:
256,192,55597,1,0,0:0:0:0:
256,192,55679,1,8,0:0:0:0:
256,192,55843,1,0,0:0:0:0:
256,192,56007,1,8,0:0:0:0:
256,192,56089,1,8,0:0:0:0:
256,192,56171,1,0,0:0:0:0:
256,192,56335,1,8,0:0:0:0:
256,192,56500,1,0,0:0:0:0:
256,192,56663,1,8,0:0:0:0:
256,192,56828,1,8,0:0:0:0:
256,192,56910,1,0,0:0:0:0:
256,192,56991,1,0,0:0:0:0:
256,192,57155,1,0,0:0:0:0:
256,192,57319,1,8,0:0:0:0:
256,192,57484,1,0,0:0:0:0:
256,192,57566,1,8,0:0:0:0:
256,192,57648,1,8,0:0:0:0:
256,192,57811,1,0,0:0:0:0:
256,192,57975,1,8,0:0:0:0:
256,192,58138,1,8,0:0:0:0:
256,192,58220,1,0,0:0:0:0:
256,192,58302,1,8,0:0:0:0:
256,192,58466,1,0,0:0:0:0:
256,192,58630,1,8,0:0:0:0:
256,192,58712,1,8,0:0:0:0:
256,192,58794,1,0,0:0:0:0:
256,192,58958,1,8,0:0:0:0:
256,192,59122,1,0,0:0:0:0:
256,192,59286,1,8,0:0:0:0:
256,192,59368,1,0,0:0:0:0:
256,192,59450,1,0,0:0:0:0:
256,192,59614,1,8,0:0:0:0:
256,192,59778,1,8,0:0:0:0:
256,192,59942,1,0,0:0:0:0:
256,192,60106,1,8,0:0:0:0:
256,192,60270,1,0,0:0:0:0:
256,192,60434,1,0,0:0:0:0:
256,192,60598,1,8,0:0:0:0:
256,192,60761,1,8,0:0:0:0:
256,192,60843,1,0,0:0:0:0:
256,192,60925,1,8,0:0:0:0:
256,192,61089,1,0,0:0:0:0:
256,192,61253,1,8,0:0:0:0:
256,192,61335,1,8,0:0:0:0:
256,192,61417,1,0,0:0:0:0:
256,192,61581,1,8,0:0:0:0:
256,192,61745,1,0,0:0:0:0:
256,192,61909,1,0,0:0:0:0:
256,192,61991,1,8,0:0:0:0:
256,192,62073,1,8,0:0:0:0:
256,192,62237,1,8,0:0:0:0:
256,192,62401,1,8,0:0:0:0:
256,192,62565,1,0,0:0:0:0:
256,192,62647,1,0,0:0:0:0:
256,192,62729,1,8,0:0:0:0:
256,192,62893,1,0,0:0:0:0:
256,192,63057,1,4,0:0:0:0:
256,192,63221,1,8,0:0:0:0:
256,192,63385,1,8,0:0:0:0:
256,192,63467,1,8,0:0:0:0:
256,192,63549,1,0,0:0:0:0:
256,192,63713,1,8,0:0:0:0:
256,192,63877,1,0,0:0:0:0:
256,192,63959,1,0,0:0:0:0:
256,192,64041,1,8,0:0:0:0:
256,192,64205,1,0,0:0:0:0:
256,192,64287,1,0,0:0:0:0:
256,192,64369,1,0,0:0:0:0:
256,192,64533,1,0,0:0:0:0:
256,192,64697,1,8,0:0:0:0:
256,192,64861,1,0,0:0:0:0:
256,192,65025,1,0,0:0:0:0:
256,192,65107,1,0,0:0:0:0:
256,192,65189,1,8,0:0:0:0:
256,192,65353,1,0,0:0:0:0:
256,192,65680,1,0,0:0:0:0:
256,192,65844,1,0,0:0:0:0:
256,192,66008,1,8,0:0:0:0:
256,192,66090,1,8,0:0:0:0:
256,192,66172,1,0,0:0:0:0:
256,192,66336,1,8,0:0:0:0:
256,192,66500,1,0,0:0:0:0:
256,192,66582,1,0,0:0:0:0:
256,192,66664,1,8,0:0:0:0:
256,192,66828,1,0,0:0:0:0:
256,192,66910,1,0,0:0:0:0:
256,192,66992,1,0,0:0:0:0:
256,192,67156,1,0,0:0:0:0:
256,192,67320,1,8,0:0:0:0:
256,192,67484,1,0,0:0:0:0:
256,192,67648,1,0,0:0:0:0:
256,192,67730,1,0,0:0:0:0:
256,192,67812,1,8,0:0:0:0:
256,192,67976,1,8,0:0:0:0:
256,192,68303,1,4,0:0:0:0:
256,192,68467,1,8,0:0:0:0:
256,192,68631,1,8,0:0:0:0:
256,192,68713,1,8,0:0:0:0:
256,192,68795,1,0,0:0:0:0:
256,192,68959,1,8,0:0:0:0:
256,192,69123,1,0,0:0:0:0:
256,192,69205,1,0,0:0:0:0:
256,192,69287,1,8,0:0:0:0:
256,192,69451,1,0,0:0:0:0:
256,192,69533,1,0,0:0:0:0:
256,192,69615,1,0,0:0:0:0:
256,192,69779,1,0,0:0:0:0:
256,192,69943,1,8,0:0:0:0:
256,192,70107,1,0,0:0:0:0:
256,192,70271,1,0,0:0:0:0:
256,192,70353,1,0,0:0:0:0:
256,192,70435,1,8,0:0:0:0:
256,192,70599,1,8,0:0:0:0:
256,192,70926,1,0,0:0:0:0:
256,192,71090,1,8,0:0:0:0:
256,192,71254,1,8,0:0:0:0:
256,192,71336,1,8,0:0:0:0:
256,192,71418,1,0,0:0:0:0:
256,192,71582,1,8,0:0:0:0:
256,192,71746,1,0,0:0:0:0:
256,192,71828,1,0,0:0:0:0:
256,192,71910,1,8,0:0:0:0:
256,192,72074,1,0,0:0:0:0:
256,192,72156,1,0,0:0:0:0:
256,192,72238,1,0,0:0:0:0:
256,192,72402,1,0,0:0:0:0:
256,192,72566,1,8,0:0:0:0:
256,192,72730,1,0,0:0:0:0:
256,192,72894,1,0,0:0:0:0:
256,192,73058,1,0,0:0:0:0:
256,192,73139,1,0,0:0:0:0:
256,192,73222,1,8,0:0:0:0:
256,192,73549,1,4,0:0:0:0:
256,192,73713,1,0,0:0:0:0:
256,192,73877,1,8,0:0:0:0:
256,192,73959,1,0,0:0:0:0:
256,192,74041,1,8,0:0:0:0:
256,192,74204,1,0,0:0:0:0:
256,192,74368,1,8,0:0:0:0:
256,192,74450,1,8,0:0:0:0:
256,192,74532,1,0,0:0:0:0:
256,192,74696,1,8,0:0:0:0:
256,192,74860,1,0,0:0:0:0:
256,192,75024,1,8,0:0:0:0:
256,192,75107,1,8,0:0:0:0:
256,192,75188,1,0,0:0:0:0:
256,192,75353,1,8,0:0:0:0:
256,192,75516,1,8,0:0:0:0:
256,192,75680,1,0,0:0:0:0:
256,192,75844,1,8,0:0:0:0:
256,192,76008,1,0,0:0:0:0:
256,192,76172,1,0,0:0:0:0:
256,192,76336,1,8,0:0:0:0:
256,192,76499,1,8,0:0:0:0:
256,192,76581,1,0,0:0:0:0:
256,192,76663,1,8,0:0:0:0:
256,192,76827,1,0,0:0:0:0:
256,192,76991,1,8,0:0:0:0:
256,192,77073,1,8,0:0:0:0:
256,192,77155,1,0,0:0:0:0:
256,192,77319,1,8,0:0:0:0:
256,192,77483,1,0,0:0:0:0:
256,192,77648,1,8,0:0:0:0:
256,192,77811,1,0,0:0:0:0:
256,192,77894,1,0,0:0:0:0:
256,192,77976,1,8,0:0:0:0:
256,192,78139,1,0,0:0:0:0:
256,192,78303,1,8,0:0:0:0:
256,192,78467,1,0,0:0:0:0:
256,192,78631,1,8,0:0:0:0:
256,192,78713,1,0,0:0:0:0:
256,192,78795,1,0,0:0:0:0:
256,192,78959,1,8,0:0:0:0:
256,192,79122,1,8,0:0:0:0:
256,192,79204,1,0,0:0:0:0:
256,192,79286,1,8,0:0:0:0:
256,192,79450,1,0,0:0:0:0:
256,192,79614,1,8,0:0:0:0:
256,192,79696,1,8,0:0:0:0:
256,192,79778,1,0,0:0:0:0:
256,192,79942,1,8,0:0:0:0:
256,192,80106,1,0,0:0:0:0:
256,192,80270,1,0,0:0:0:0:
256,192,80352,1,8,0:0:0:0:
256,192,80434,1,8,0:0:0:0:
256,192,80598,1,8,0:0:0:0:
256,192,80762,1,8,0:0:0:0:
256,192,80926,1,0,0:0:0:0:
256,192,81090,1,8,0:0:0:0:
256,192,81254,1,0,0:0:0:0:
256,192,81418,1,0,0:0:0:0:
256,192,81582,1,8,0:0:0:0:
256,192,81745,1,8,0:0:0:0:
256,192,81827,1,0,0:0:0:0:
256,192,81909,1,8,0:0:0:0:
256,192,82073,1,0,0:0:0:0:
256,192,82237,1,8,0:0:0:0:
256,192,82319,1,8,0:0:0:0:
256,192,82401,1,0,0:0:0:0:
256,192,82565,1,8,0:0:0:0:
256,192,82729,1,0,0:0:0:0:
256,192,82893,1,0,0:0:0:0:
256,192,82975,1,8,0:0:0:0:
256,192,83057,1,8,0:0:0:0:
256,192,83221,1,8,0:0:0:0:
256,192,83385,1,8,0:0:0:0:
256,192,83549,1,0,0:0:0:0:
256,192,83631,1,0,0:0:0:0:
256,192,83713,1,8,0:0:0:0:
256,192,83877,1,0,0:0:0:0:
256,192,84041,1,4,0:0:0:0:
256,192,84369,1,8,0:0:0:0:
256,192,84533,1,4,0:0:0:0:
256,192,84861,1,0,0:0:0:0:
256,192,85025,1,8,0:0:0:0:
256,192,85352,1,0,0:0:0:0:
256,192,85516,1,0,0:0:0:0:
256,192,85598,1,0,0:0:0:0:
256,192,85680,1,8,0:0:0:0:
256,192,85844,1,0,0:0:0:0:
256,192,86172,1,0,0:0:0:0:
256,192,86336,1,8,0:0:0:0:
256,192,86664,1,8,0:0:0:0:
256,192,86828,1,0,0:0:0:0:
256,192,86992,1,8,0:0:0:0:
256,192,87074,1,8,0:0:0:0:
256,192,87156,1,0,0:0:0:0:
256,192,87484,1,0,0:0:0:0:
256,192,87811,1,0,0:0:0:0:
256,192,88139,1,0,0:0:0:0:
256,192,88303,1,8,0:0:0:0:
256,192,88467,1,0,0:0:0:0:
256,192,88549,1,8,0:0:0:0:
256,192,88631,1,0,0:0:0:0:
256,192,88795,1,0,0:0:0:0:
256,192,89287,1,4,0:0:0:0:
256,192,89451,1,0,0:0:0:0:
256,192,89533,1,0,0:0:0:0:
256,192,89615,1,8,0:0:0:0:
256,192,89779,1,4,0:0:0:0:
256,192,90106,1,0,0:0:0:0:
256,192,90270,1,8,0:0:0:0:
256,192,90352,1,0,0:0:0:0:
256,192,90434,1,8,0:0:0:0:
256,192,90598,1,0,0:0:0:0:
256,192,90680,1,8,0:0:0:0:
256,192,90844,1,8,0:0:0:0:
256,192,90926,1,0,0:0:0:0:
256,192,91090,1,8,0:0:0:0:
256,192,91254,1,0,0:0:0:0:
256,192,91336,1,8,0:0:0:0:
256,192,91418,1,0,0:0:0:0:
256,192,91582,1,0,0:0:0:0:
256,192,91746,1,0,0:0:0:0:
256,192,91910,1,8,0:0:0:0:
256,192,92074,1,8,0:0:0:0:
256,192,92156,1,0,0:0:0:0:
256,192,92238,1,8,0:0:0:0:
256,192,92402,1,8,0:0:0:0:
256,192,92484,1,8,0:0:0:0:
256,192,92566,1,0,0:0:0:0:
256,192,92729,1,8,0:0:0:0:
256,192,92893,1,0,0:0:0:0:
256,192,92975,1,8,0:0:0:0:
256,192,93057,1,8,0:0:0:0:
256,192,93221,1,8,0:0:0:0:
256,192,93385,1,0,0:0:0:0:
256,192,93549,1,0,0:0:0:0:
256,192,93631,1,0,0:0:0:0:
256,192,93713,1,8,0:0:0:0:
256,192,94041,1,0,0:0:0:0:
256,192,94205,1,8,0:0:0:0:
256,192,94533,1,4,0:0:0:0:
256,192,94861,1,8,0:0:0:0:
256,192,95025,1,4,0:0:0:0:
256,192,95352,1,0,0:0:0:0:
256,192,95516,1,8,0:0:0:0:
256,192,95843,1,0,0:0:0:0:
256,192,96007,1,0,0:0:0:0:
256,192,96089,1,0,0:0:0:0:
256,192,96171,1,8,0:0:0:0:
256,192,96335,1,0,0:0:0:0:
256,192,96663,1,0,0:0:0:0:
256,192,96827,1,8,0:0:0:0:
256,192,97155,1,8,0:0:0:0:
256,192,97319,1,0,0:0:0:0:
256,192,97483,1,8,0:0:0:0:
256,192,97565,1,8,0:0:0:0:
256,192,97647,1,0,0:0:0:0:
256,192,97975,1,0,0:0:0:0:
256,192,98302,1,0,0:0:0:0:
256,192,98467,1,0,0:0:0:0:
256,192,98549,1,0,0:0:0:0:
256,192,98631,1,0,0:0:0:0:
256,192,98795,1,8,0:0:0:0:
256,192,98959,1,0,0:0:0:0:
288,192,99287,1,0,0:0:0:0:
256,192,99450,1,8,0:0:0:0:
256,192,99532,1,0,0:0:0:0:
256,192,99614,1,8,0:0:0:0:
256,192,99778,1,0,0:0:0:0:
256,192,99943,1,0,0:0:0:0:
256,192,100106,1,8,0:0:0:0:
256,192,100270,1,0,0:0:0:0:
256,192,100353,1,8,0:0:0:0:
256,192,100434,1,0,0:0:0:0:
256,192,100598,1,8,0:0:0:0:
256,192,100762,1,0,0:0:0:0:
256,192,100926,1,0,0:0:0:0:
256,192,101008,1,0,0:0:0:0:
256,192,101090,1,8,0:0:0:0:
256,160,101254,1,8,0:0:0:0:
256,192,101418,1,0,0:0:0:0:
256,192,101500,1,8,0:0:0:0:
256,192,101582,1,8,0:0:0:0:
256,192,101746,1,0,0:0:0:0:
256,192,101910,1,8,0:0:0:0:
256,192,102074,1,8,0:0:0:0:
256,192,102156,1,0,0:0:0:0:
256,192,102238,1,8,0:0:0:0:
256,192,102402,1,0,0:0:0:0:
256,192,102566,1,0,0:0:0:0:
256,192,102729,1,0,0:0:0:0:
256,192,102893,1,0,0:0:0:0:
256,192,103057,1,0,0:0:0:0:
256,192,103221,1,0,0:0:0:0:
256,192,103385,1,0,0:0:0:0:
256,192,103549,1,0,0:0:0:0:
256,192,103713,12,0,104861,0:0:0:0:
256,192,105025,5,4,0:0:0:0:
