osu file format v14

[General]
AudioFilename: audio.mp3
AudioLeadIn: 0
PreviewTime: 21085
Countdown: 0
SampleSet: Normal
StackLeniency: 0.6
Mode: 1
LetterboxInBreaks: 0
WidescreenStoryboard: 1

[Editor]
DistanceSpacing: 0.8
BeatDivisor: 4
GridSize: 32
TimelineZoom: 2.62

[Metadata]
Title:Moonlight Battlefield - Aqua Road (short ver)
TitleUnicode:Moonlight Battlefield - Aqua Road (short ver)
Artist:Tomoya Ohtani feat. nana hatori
ArtistUnicode:Tomoya Ohtani feat. nana hatori
Creator:Kunieda
Version:Muzukashii
Source:Sonic Forces
Tags:drum and bass dnb sonic the hedgehog vocals avatar stage on the edge
BeatmapID:1455084
BeatmapSetID:682248

[Difficulty]
HPDrainRate:5
CircleSize:5
OverallDifficulty:5
ApproachRate:5
SliderMultiplier:1.4
SliderTickRate:1

[Events]
//Background and Video events
0,0,"54943763_p0.png",0,0
//Break Periods
//Storyboard Layer 0 (Background)
//Storyboard Layer 1 (Fail)
//Storyboard Layer 2 (Pass)
//Storyboard Layer 3 (Foreground)
//Storyboard Sound Samples

[TimingPoints]
107,327.868852459016,4,1,0,100,1,0
21090,-100,4,1,0,100,0,1
42074,-100,4,1,0,100,0,0
63057,-100,4,1,0,100,0,1
73549,-100,4,1,0,100,0,0

[HitObjects]
256,192,10598,5,4,0:0:0:0:
256,192,10926,1,8,0:0:0:0:
256,192,11090,1,0,0:0:0:0:
256,192,11418,1,0,0:0:0:0:
256,192,11582,1,8,0:0:0:0:
256,192,11910,1,0,0:0:0:0:
256,192,12074,1,0,0:0:0:0:
256,192,12238,1,8,0:0:0:0:
256,192,12566,1,0,0:0:0:0:
256,192,12730,1,0,0:0:0:0:
256,192,12894,1,8,0:0:0:0:
256,192,13221,1,4,0:0:0:0:
256,192,13549,1,8,0:0:0:0:
256,192,13713,1,4,0:0:0:0:
256,192,14041,1,0,0:0:0:0:
256,192,14205,1,8,0:0:0:0:
256,192,14533,1,0,0:0:0:0:
256,192,14697,1,0,0:0:0:0:
256,192,14861,1,8,0:0:0:0:
256,192,15189,1,0,0:0:0:0:
256,192,15353,1,0,0:0:0:0:
256,192,15517,1,8,0:0:0:0:
256,192,15680,1,8,0:0:0:0:
256,192,15844,1,4,0:0:0:0:
256,192,16172,1,8,0:0:0:0:
256,192,16336,1,4,0:0:0:0:
256,192,16664,1,0,0:0:0:0:
256,192,16828,1,8,0:0:0:0:
256,192,17156,1,0,0:0:0:0:
256,192,17320,1,0,0:0:0:0:
256,192,17484,1,8,0:0:0:0:
256,192,17812,1,0,0:0:0:0:
256,192,17976,1,0,0:0:0:0:
256,192,18140,1,8,0:0:0:0:
256,192,18467,1,0,0:0:0:0:
256,192,18631,1,0,0:0:0:0:
256,192,18795,1,0,0:0:0:0:
256,192,18959,1,0,0:0:0:0:
256,192,19123,1,0,0:0:0:0:
256,192,19287,1,0,0:0:0:0:
256,192,19451,1,0,0:0:0:0:
256,192,19615,1,0,0:0:0:0:
256,192,19779,2,0,L|224:160,7,36.8439703748835
256,192,21090,1,4,0:0:0:0:
256,192,21418,1,8,0:0:0:0:
256,192,21582,1,4,0:0:0:0:
256,192,21910,1,0,0:0:0:0:
256,192,22074,1,8,0:0:0:0:
256,192,22238,1,8,0:0:0:0:
256,192,22402,1,0,0:0:0:0:
256,192,22730,1,8,0:0:0:0:
256,192,22894,1,0,0:0:0:0:
256,192,23221,1,0,0:0:0:0:
256,192,23385,1,8,0:0:0:0:
256,192,23549,1,0,0:0:0:0:
256,192,23713,1,4,0:0:0:0:
256,192,24041,1,8,0:0:0:0:
256,192,24205,1,4,0:0:0:0:
256,192,24533,1,0,0:0:0:0:
256,192,24697,1,8,0:0:0:0:
256,192,24861,1,8,0:0:0:0:
256,192,25025,1,0,0:0:0:0:
256,192,25353,1,8,0:0:0:0:
256,192,25517,1,0,0:0:0:0:
256,192,25844,1,0,0:0:0:0:
256,192,26008,1,8,0:0:0:0:
256,192,26172,1,0,0:0:0:0:
256,192,26500,1,8,0:0:0:0:
256,192,26664,1,0,0:0:0:0:
256,192,26828,1,8,0:0:0:0:
256,192,27156,1,8,0:0:0:0:
256,192,27320,1,0,0:0:0:0:
256,192,27402,1,0,0:0:0:0:
256,192,27484,1,0,0:0:0:0:
256,192,27648,1,8,0:0:0:0:
256,192,27812,1,8,0:0:0:0:
256,192,27976,1,0,0:0:0:0:
256,192,28139,1,0,0:0:0:0:
256,192,28467,1,8,0:0:0:0:
256,192,28631,1,0,0:0:0:0:
256,192,28795,1,8,0:0:0:0:
256,192,29123,1,8,0:0:0:0:
256,192,29287,1,8,0:0:0:0:
256,192,29451,1,8,0:0:0:0:
256,192,29533,1,8,0:0:0:0:
256,192,29779,1,8,0:0:0:0:
256,192,29943,1,0,0:0:0:0:
256,192,30107,1,8,0:0:0:0:
256,192,30271,1,0,0:0:0:0:
256,192,30517,1,8,0:0:0:0:
256,192,30762,1,8,0:0:0:0:
256,192,31090,1,0,0:0:0:0:
256,192,31254,1,8,0:0:0:0:
256,192,31336,1,8,0:0:0:0:
256,192,31418,1,0,0:0:0:0:
256,192,31582,1,4,0:0:0:0:
256,192,31910,1,8,0:0:0:0:
256,192,32074,1,4,0:0:0:0:
256,192,32402,1,0,0:0:0:0:
256,192,32566,1,8,0:0:0:0:
256,192,32730,1,8,0:0:0:0:
256,192,32894,1,0,0:0:0:0:
256,192,33222,1,8,0:0:0:0:
256,192,33386,1,0,0:0:0:0:
256,192,33713,1,0,0:0:0:0:
256,192,33877,1,8,0:0:0:0:
256,192,34041,1,0,0:0:0:0:
256,192,34205,1,4,0:0:0:0:
256,192,34533,1,8,0:0:0:0:
256,192,34697,1,4,0:0:0:0:
256,192,35025,1,0,0:0:0:0:
256,192,35189,1,8,0:0:0:0:
256,192,35353,1,8,0:0:0:0:
256,192,35517,1,0,0:0:0:0:
256,192,35845,1,8,0:0:0:0:
256,192,36009,1,0,0:0:0:0:
256,192,36336,1,0,0:0:0:0:
256,192,36500,1,8,0:0:0:0:
256,192,36664,1,0,0:0:0:0:
256,192,36992,1,8,0:0:0:0:
256,192,37156,1,0,0:0:0:0:
256,192,37320,1,8,0:0:0:0:
256,192,37648,1,8,0:0:0:0:
256,192,37812,1,0,0:0:0:0:
256,192,37894,1,0,0:0:0:0:
256,192,37976,1,0,0:0:0:0:
256,192,38140,1,8,0:0:0:0:
256,192,38304,1,8,0:0:0:0:
256,192,38468,1,0,0:0:0:0:
256,192,38631,1,0,0:0:0:0:
256,192,38959,1,8,0:0:0:0:
256,192,39123,1,0,0:0:0:0:
256,192,39287,1,8,0:0:0:0:
256,192,39615,1,8,0:0:0:0:
256,192,39779,1,8,0:0:0:0:
256,192,39943,1,8,0:0:0:0:
256,192,40025,1,8,0:0:0:0:
256,192,40271,1,8,0:0:0:0:
256,192,40435,1,0,0:0:0:0:
256,192,40599,1,8,0:0:0:0:
256,192,40763,1,0,0:0:0:0:
256,192,41009,1,8,0:0:0:0:
256,192,41254,1,8,0:0:0:0:
256,192,41582,1,0,0:0:0:0:
256,192,41746,1,8,0:0:0:0:
256,192,41828,1,8,0:0:0:0:
256,192,41910,1,0,0:0:0:0:
256,192,42074,1,4,0:0:0:0:
256,192,42402,1,8,0:0:0:0:
256,192,42566,1,0,0:0:0:0:
256,192,42894,1,8,0:0:0:0:
256,192,42976,1,8,0:0:0:0:
256,192,43058,1,0,0:0:0:0:
256,192,43221,1,8,0:0:0:0:
256,192,43549,1,0,0:0:0:0:
256,192,43631,1,0,0:0:0:0:
256,192,43713,1,0,0:0:0:0:
256,192,43877,1,8,0:0:0:0:
256,192,44205,1,0,0:0:0:0:
256,192,44369,1,8,0:0:0:0:
256,192,44533,1,0,0:0:0:0:
256,192,44697,1,0,0:0:0:0:
256,192,45025,1,8,0:0:0:0:
256,192,45189,1,0,0:0:0:0:
256,192,45517,1,8,0:0:0:0:
256,192,45599,1,8,0:0:0:0:
256,192,45681,1,0,0:0:0:0:
256,192,45844,1,8,0:0:0:0:
256,192,46172,1,0,0:0:0:0:
256,192,46254,1,0,0:0:0:0:
256,192,46336,1,0,0:0:0:0:
256,192,46500,1,8,0:0:0:0:
256,192,46828,1,0,0:0:0:0:
256,192,46992,1,8,0:0:0:0:
256,192,47156,1,0,0:0:0:0:
256,192,47320,1,0,0:0:0:0:
256,192,47648,1,8,0:0:0:0:
256,192,47812,1,0,0:0:0:0:
256,192,48140,1,8,0:0:0:0:
256,192,48222,1,8,0:0:0:0:
256,192,48304,1,0,0:0:0:0:
256,192,48467,1,8,0:0:0:0:
256,192,48795,1,0,0:0:0:0:
256,192,48877,1,0,0:0:0:0:
256,192,48959,1,0,0:0:0:0:
256,192,49123,1,8,0:0:0:0:
256,192,49451,1,0,0:0:0:0:
256,192,49615,1,8,0:0:0:0:
256,192,49779,1,0,0:0:0:0:
256,192,49943,1,0,0:0:0:0:
256,192,50271,1,8,0:0:0:0:
256,192,50435,1,0,0:0:0:0:
256,192,50763,1,8,0:0:0:0:
256,192,50845,1,8,0:0:0:0:
256,192,50927,1,0,0:0:0:0:
256,192,51090,1,8,0:0:0:0:
256,192,51418,1,0,0:0:0:0:
256,192,51500,1,0,0:0:0:0:
256,192,51582,1,0,0:0:0:0:
256,192,51746,1,8,0:0:0:0:
256,192,52074,1,0,0:0:0:0:
256,192,52156,1,0,0:0:0:0:
256,192,52238,1,8,0:0:0:0:
256,192,52402,1,0,0:0:0:0:
256,192,52566,1,4,0:0:0:0:
256,192,52894,1,8,0:0:0:0:
256,192,53058,1,0,0:0:0:0:
256,192,53386,1,8,0:0:0:0:
256,192,53468,1,8,0:0:0:0:
256,192,53550,1,0,0:0:0:0:
256,192,53713,1,8,0:0:0:0:
256,192,54041,1,0,0:0:0:0:
256,192,54123,1,0,0:0:0:0:
256,192,54205,1,0,0:0:0:0:
256,192,54369,1,8,0:0:0:0:
256,192,54697,1,0,0:0:0:0:
256,192,54861,1,8,0:0:0:0:
256,192,55025,1,0,0:0:0:0:
256,192,55189,1,0,0:0:0:0:
256,192,55517,1,8,0:0:0:0:
256,192,55681,1,0,0:0:0:0:
256,192,56009,1,8,0:0:0:0:
256,192,56091,1,8,0:0:0:0:
256,192,56173,1,0,0:0:0:0:
256,192,56336,1,8,0:0:0:0:
256,192,56664,1,0,0:0:0:0:
256,192,56746,1,0,0:0:0:0:
256,192,56828,1,0,0:0:0:0:
256,192,56992,1,8,0:0:0:0:
256,192,57320,1,0,0:0:0:0:
256,192,57484,1,8,0:0:0:0:
256,192,57648,1,0,0:0:0:0:
256,192,57812,1,0,0:0:0:0:
256,192,58139,1,8,0:0:0:0:
256,192,58303,1,0,0:0:0:0:
256,192,58631,1,8,0:0:0:0:
256,192,58713,1,8,0:0:0:0:
256,192,58795,1,0,0:0:0:0:
256,192,58958,1,8,0:0:0:0:
256,192,59286,1,0,0:0:0:0:
256,192,59368,1,0,0:0:0:0:
256,192,59450,1,0,0:0:0:0:
256,192,59614,1,8,0:0:0:0:
256,192,59942,1,0,0:0:0:0:
256,192,60106,1,8,0:0:0:0:
256,192,60270,1,0,0:0:0:0:
256,192,60434,1,0,0:0:0:0:
256,192,60762,1,8,0:0:0:0:
256,192,60926,1,0,0:0:0:0:
256,192,61254,1,8,0:0:0:0:
256,192,61336,1,8,0:0:0:0:
256,192,61418,1,0,0:0:0:0:
256,192,61581,1,8,0:0:0:0:
256,192,61909,1,0,0:0:0:0:
256,192,61991,1,0,0:0:0:0:
256,192,62073,1,0,0:0:0:0:
256,192,62237,1,8,0:0:0:0:
256,192,62565,1,0,0:0:0:0:
256,192,62648,1,0,0:0:0:0:
256,192,62729,1,8,0:0:0:0:
256,192,62893,1,0,0:0:0:0:
256,192,63057,1,4,0:0:0:0:
256,192,63385,1,8,0:0:0:0:
256,192,63549,1,0,0:0:0:0:
256,192,63877,1,8,0:0:0:0:
256,192,63959,1,8,0:0:0:0:
256,192,64041,1,0,0:0:0:0:
256,192,64204,1,8,0:0:0:0:
256,192,64532,1,0,0:0:0:0:
256,192,64614,1,0,0:0:0:0:
256,192,64696,1,0,0:0:0:0:
256,192,64860,1,8,0:0:0:0:
256,192,65188,1,0,0:0:0:0:
256,192,65352,1,8,0:0:0:0:
256,192,65516,1,0,0:0:0:0:
256,192,65680,1,0,0:0:0:0:
256,192,66008,1,8,0:0:0:0:
256,192,66172,1,0,0:0:0:0:
256,192,66500,1,8,0:0:0:0:
256,192,66582,1,8,0:0:0:0:
256,192,66664,1,0,0:0:0:0:
256,192,66827,1,8,0:0:0:0:
256,192,67155,1,0,0:0:0:0:
256,192,67237,1,0,0:0:0:0:
256,192,67319,1,0,0:0:0:0:
256,192,67483,1,8,0:0:0:0:
256,192,67811,1,0,0:0:0:0:
256,192,67975,1,8,0:0:0:0:
256,192,68139,1,0,0:0:0:0:
256,192,68303,1,4,0:0:0:0:
256,192,68631,1,8,0:0:0:0:
256,192,68795,1,0,0:0:0:0:
256,192,69123,1,8,0:0:0:0:
256,192,69205,1,8,0:0:0:0:
256,192,69287,1,0,0:0:0:0:
256,192,69450,1,8,0:0:0:0:
256,192,69778,1,0,0:0:0:0:
256,192,69860,1,0,0:0:0:0:
256,192,69942,1,0,0:0:0:0:
256,192,70106,1,8,0:0:0:0:
256,192,70434,1,0,0:0:0:0:
256,192,70598,1,8,0:0:0:0:
256,192,70762,1,0,0:0:0:0:
256,192,70926,1,0,0:0:0:0:
256,192,71254,1,8,0:0:0:0:
256,192,71418,1,0,0:0:0:0:
256,192,71746,1,8,0:0:0:0:
256,192,71828,1,8,0:0:0:0:
256,192,71910,1,0,0:0:0:0:
256,192,72073,1,8,0:0:0:0:
256,192,72401,1,0,0:0:0:0:
256,192,72483,1,0,0:0:0:0:
256,192,72565,1,0,0:0:0:0:
256,192,72729,1,8,0:0:0:0:
256,192,73057,1,0,0:0:0:0:
256,192,73139,1,0,0:0:0:0:
256,192,73221,1,8,0:0:0:0:
256,192,73385,1,0,0:0:0:0:
256,192,73549,1,4,0:0:0:0:
256,192,73877,1,8,0:0:0:0:
256,192,74041,1,0,0:0:0:0:
256,192,74369,1,8,0:0:0:0:
256,192,74451,1,8,0:0:0:0:
256,192,74533,1,0,0:0:0:0:
256,192,74696,1,8,0:0:0:0:
256,192,75024,1,0,0:0:0:0:
256,192,75106,1,0,0:0:0:0:
256,192,75188,1,0,0:0:0:0:
256,192,75352,1,8,0:0:0:0:
256,192,75680,1,0,0:0:0:0:
256,192,75844,1,8,0:0:0:0:
256,192,76008,1,0,0:0:0:0:
256,192,76172,1,0,0:0:0:0:
256,192,76500,1,8,0:0:0:0:
256,192,76664,1,0,0:0:0:0:
256,192,76992,1,8,0:0:0:0:
256,192,77074,1,8,0:0:0:0:
256,192,77156,1,0,0:0:0:0:
256,192,77319,1,8,0:0:0:0:
256,192,77647,1,0,0:0:0:0:
256,192,77729,1,0,0:0:0:0:
256,192,77811,1,0,0:0:0:0:
256,192,77975,1,8,0:0:0:0:
256,192,78303,1,0,0:0:0:0:
256,192,78467,1,8,0:0:0:0:
256,192,78631,1,0,0:0:0:0:
256,192,78795,1,0,0:0:0:0:
256,192,79122,1,8,0:0:0:0:
256,192,79286,1,0,0:0:0:0:
256,192,79614,1,8,0:0:0:0:
256,192,79696,1,8,0:0:0:0:
256,192,79778,1,0,0:0:0:0:
256,192,79941,1,8,0:0:0:0:
256,192,80269,1,0,0:0:0:0:
256,192,80351,1,0,0:0:0:0:
256,192,80433,1,0,0:0:0:0:
256,192,80597,1,8,0:0:0:0:
256,192,80925,1,0,0:0:0:0:
256,192,81089,1,8,0:0:0:0:
256,192,81253,1,0,0:0:0:0:
256,192,81417,1,0,0:0:0:0:
256,192,81745,1,8,0:0:0:0:
256,192,81909,1,0,0:0:0:0:
256,192,82237,1,8,0:0:0:0:
256,192,82319,1,8,0:0:0:0:
256,192,82401,1,0,0:0:0:0:
256,192,82564,1,8,0:0:0:0:
256,192,82892,1,0,0:0:0:0:
256,192,82974,1,0,0:0:0:0:
256,192,83056,1,0,0:0:0:0:
256,192,83220,1,8,0:0:0:0:
256,192,83548,1,0,0:0:0:0:
256,192,83631,1,0,0:0:0:0:
256,192,83712,1,8,0:0:0:0:
256,192,83876,1,0,0:0:0:0:
256,192,84040,1,4,0:0:0:0:
256,192,84369,1,8,0:0:0:0:
256,192,84533,1,4,0:0:0:0:
256,192,85353,1,8,0:0:0:0:
256,192,85517,1,0,0:0:0:0:
256,192,85844,1,8,0:0:0:0:
256,192,86664,1,0,0:0:0:0:
256,192,86992,1,8,0:0:0:0:
256,192,87156,1,0,0:0:0:0:
256,192,87484,1,8,0:0:0:0:
256,192,87812,1,8,0:0:0:0:
256,192,88139,1,0,0:0:0:0:
256,192,88303,1,0,0:0:0:0:
256,192,88467,1,8,0:0:0:0:
256,192,88549,1,8,0:0:0:0:
256,192,88631,1,8,0:0:0:0:
256,192,88795,1,8,0:0:0:0:
256,192,89287,1,4,0:0:0:0:
256,192,89615,1,8,0:0:0:0:
256,192,89779,1,4,0:0:0:0:
256,192,90271,1,8,0:0:0:0:
256,192,90435,1,8,0:0:0:0:
256,192,90598,1,0,0:0:0:0:
256,192,90762,1,0,0:0:0:0:
256,192,90844,1,0,0:0:0:0:
256,192,90926,1,8,0:0:0:0:
256,192,91090,1,0,0:0:0:0:
256,192,91254,1,8,0:0:0:0:
256,192,91336,1,8,0:0:0:0:
256,192,91418,1,0,0:0:0:0:
256,192,91910,1,0,0:0:0:0:
256,192,92074,1,0,0:0:0:0:
256,192,92238,1,8,0:0:0:0:
256,192,92402,1,0,0:0:0:0:
256,192,92730,1,8,0:0:0:0:
256,192,92894,1,0,0:0:0:0:
256,192,93058,1,8,0:0:0:0:
256,192,93713,1,8,0:0:0:0:
256,192,94533,1,4,0:0:0:0:
256,192,94861,1,8,0:0:0:0:
256,192,95025,1,4,0:0:0:0:
256,192,95844,1,8,0:0:0:0:
256,192,96008,1,0,0:0:0:0:
256,192,96336,1,8,0:0:0:0:
256,192,96664,1,0,0:0:0:0:
256,192,96828,1,8,0:0:0:0:
256,192,96992,1,0,0:0:0:0:
256,192,97156,1,0,0:0:0:0:
256,192,97484,1,8,0:0:0:0:
256,192,97648,1,0,0:0:0:0:
256,192,97976,1,8,0:0:0:0:
256,192,98303,1,8,0:0:0:0:
256,192,98959,1,8,0:0:0:0:
256,192,99287,1,0,0:0:0:0:
256,192,99451,1,8,0:0:0:0:
256,192,99615,1,0,0:0:0:0:
256,192,99779,1,0,0:0:0:0:
256,192,99943,1,0,0:0:0:0:
256,192,100107,1,8,0:0:0:0:
256,192,100271,1,8,0:0:0:0:
256,192,100353,1,8,0:0:0:0:
256,192,100435,1,0,0:0:0:0:
256,192,100598,1,0,0:0:0:0:
256,192,100762,1,0,0:0:0:0:
256,192,101090,1,0,0:0:0:0:
256,192,101254,1,8,0:0:0:0:
256,192,101418,1,0,0:0:0:0:
256,192,101582,1,0,0:0:0:0:
256,192,101664,1,0,0:0:0:0:
256,192,101746,1,8,0:0:0:0:
256,192,101910,1,8,0:0:0:0:
256,192,102074,1,0,0:0:0:0:
256,192,102402,1,0,0:0:0:0:
256,192,102566,1,0,0:0:0:0:
256,192,102730,1,0,0:0:0:0:
256,192,102894,1,0,0:0:0:0:
256,192,103058,1,0,0:0:0:0:
256,192,103221,1,0,0:0:0:0:
256,192,103385,1,0,0:0:0:0:
256,192,103549,1,0,0:0:0:0:
256,192,103713,12,0,104861,0:0:0:0:
256,192,105025,5,4,0:0:0:0:
