osu file format v14

[General]
AudioFilename: audio.mp3
AudioLeadIn: 0
PreviewTime: 21085
Countdown: 0
SampleSet: Normal
StackLeniency: 0.6
Mode: 1
LetterboxInBreaks: 0
WidescreenStoryboard: 1

[Editor]
DistanceSpacing: 0.8
BeatDivisor: 4
GridSize: 32
TimelineZoom: 2.62

[Metadata]
Title:Moonlight Battlefield - Aqua Road (short ver)
TitleUnicode:Moonlight Battlefield - Aqua Road (short ver)
Artist:Tomoya Ohtani feat. nana hatori
ArtistUnicode:Tomoya Ohtani feat. nana hatori
Creator:Kunieda
Version:Kantan
Source:Sonic Forces
Tags:drum and bass dnb sonic the hedgehog vocals avatar stage on the edge
BeatmapID:1455682
BeatmapSetID:682248

[Difficulty]
HPDrainRate:5
CircleSize:5
OverallDifficulty:5
ApproachRate:5
SliderMultiplier:1.4
SliderTickRate:1

[Events]
//Background and Video events
0,0,"54943763_p0.png",0,0
//Break Periods
//Storyboard Layer 0 (Background)
//Storyboard Layer 1 (Fail)
//Storyboard Layer 2 (Pass)
//Storyboard Layer 3 (Foreground)
//Storyboard Sound Samples

[TimingPoints]
107,327.868852459016,4,1,0,100,1,0
21090,-100,4,1,0,100,0,1
42074,-100,4,1,0,100,0,0
63057,-100,4,1,0,100,0,1
73549,-100,4,1,0,100,0,0

[HitObjects]
256,192,10598,5,4,0:0:0:0:
256,192,11090,1,4,0:0:0:0:
256,192,11910,1,0,0:0:0:0:
256,192,12566,1,8,0:0:0:0:
256,192,13221,1,4,0:0:0:0:
256,192,13713,1,4,0:0:0:0:
256,192,15189,1,12,0:0:0:0:
256,192,15844,1,4,0:0:0:0:
256,192,16336,1,12,0:0:0:0:
256,192,17156,1,0,0:0:0:0:
256,192,17812,1,0,0:0:0:0:
256,192,18467,1,0,0:0:0:0:
256,192,19123,1,0,0:0:0:0:
256,192,19779,2,0,L|256:128,6,36.8439703748835
256,192,21090,1,4,0:0:0:0:
256,192,21582,1,8,0:0:0:0:
256,192,22402,1,0,0:0:0:0:
256,192,23058,1,8,0:0:0:0:
256,192,23713,1,12,0:0:0:0:
256,192,24205,1,12,0:0:0:0:
256,192,25025,1,8,0:0:0:0:
256,192,25680,1,0,0:0:0:0:
256,192,26336,1,0,0:0:0:0:
256,192,26992,1,8,0:0:0:0:
256,192,27648,1,8,0:0:0:0:
256,192,28959,1,4,0:0:0:0:
256,192,29451,1,4,0:0:0:0:
256,192,30271,1,0,0:0:0:0:
256,192,30926,1,8,0:0:0:0:
256,192,31582,1,4,0:0:0:0:
256,192,32074,1,8,0:0:0:0:
256,192,32894,1,0,0:0:0:0:
256,192,33550,1,8,0:0:0:0:
256,192,34205,1,12,0:0:0:0:
256,192,34697,1,12,0:0:0:0:
256,192,35517,1,8,0:0:0:0:
256,192,36172,1,0,0:0:0:0:
256,192,36828,1,0,0:0:0:0:
256,192,37484,1,8,0:0:0:0:
256,192,38140,1,8,0:0:0:0:
256,192,39451,1,4,0:0:0:0:
256,192,39943,1,4,0:0:0:0:
256,192,40763,1,0,0:0:0:0:
256,192,41418,1,8,0:0:0:0:
256,192,42074,1,4,0:0:0:0:
256,192,42730,1,8,0:0:0:0:
256,192,43385,2,0,L|96:256,2,147.375881499534
256,192,44697,1,0,0:0:0:0:
256,192,45353,1,8,0:0:0:0:
256,192,46008,2,0,L|96:256,2,147.375881499534
256,192,47320,1,0,0:0:0:0:
256,192,47976,1,8,0:0:0:0:
256,192,48631,2,0,L|96:256,2,147.375881499534
256,192,49943,1,0,0:0:0:0:
256,192,50599,1,8,0:0:0:0:
256,192,51254,2,0,L|96:256,2,147.375881499534
256,192,52566,1,4,0:0:0:0:
256,192,53222,1,8,0:0:0:0:
256,192,53877,2,0,L|96:256,2,147.375881499534
256,192,55189,1,0,0:0:0:0:
256,192,55845,1,8,0:0:0:0:
256,192,56500,2,0,L|96:256,2,147.375881499534
256,192,57812,1,0,0:0:0:0:
256,192,58468,1,8,0:0:0:0:
256,192,59123,2,0,L|96:256,2,147.375881499534
256,192,60435,1,0,0:0:0:0:
256,192,61091,1,8,0:0:0:0:
256,192,61746,2,0,L|96:256,2,147.375881499534
256,192,63058,1,4,0:0:0:0:
256,192,63714,1,8,0:0:0:0:
256,192,64369,2,0,L|96:256,2,147.375881499534
256,192,65681,1,0,0:0:0:0:
256,192,66337,1,8,0:0:0:0:
256,192,66992,2,0,L|96:256,2,147.375881499534
256,192,68303,1,4,0:0:0:0:
256,192,68959,1,8,0:0:0:0:
256,192,69614,2,0,L|96:256,2,147.375881499534
256,192,70926,1,0,0:0:0:0:
256,192,71582,1,8,0:0:0:0:
256,192,72237,2,0,L|96:256,2,147.375881499534
256,192,73549,1,4,0:0:0:0:
256,192,74205,1,8,0:0:0:0:
256,192,74860,2,0,L|96:256,2,147.375881499534
256,192,76172,1,0,0:0:0:0:
256,192,76828,1,8,0:0:0:0:
256,192,77483,2,0,L|96:256,2,147.375881499534
256,192,78795,1,0,0:0:0:0:
256,192,79451,1,8,0:0:0:0:
256,192,80106,2,0,L|96:256,2,147.375881499534
256,192,81418,1,0,0:0:0:0:
256,192,82074,1,8,0:0:0:0:
256,192,82729,2,0,L|96:256,2,147.375881499534
256,192,84041,1,4,0:0:0:0:
256,192,84533,1,8,0:0:0:0:
256,192,85353,1,0,0:0:0:0:
256,192,85844,1,8,0:0:0:0:
256,192,86664,1,0,0:0:0:0:
256,192,87320,1,8,0:0:0:0:
256,192,88467,1,0,0:0:0:0:
256,192,89287,1,12,0:0:0:0:
256,192,89779,1,12,0:0:0:0:
256,192,90271,1,8,0:0:0:0:
256,192,90598,2,0,L|128:96,2,147.375881499534
256,192,91910,1,0,0:0:0:0:
256,192,92566,1,8,0:0:0:0:
256,192,93221,1,0,0:0:0:0:
256,192,93877,1,8,0:0:0:0:
256,192,94533,1,4,0:0:0:0:
256,192,95025,1,4,0:0:0:0:
256,192,95844,1,8,0:0:0:0:
256,192,96500,1,0,0:0:0:0:
256,192,97156,2,0,P|160:96|128:96,2,147.375881499534
288,160,98467,1,0,0:0:0:0:
224,160,99123,1,0,0:0:0:0:
288,160,99779,1,0,0:0:0:0:
256,160,100435,1,0,0:0:0:0:
256,160,101090,1,0,0:0:0:0:
256,192,101746,1,8,0:0:0:0:
256,192,102402,2,0,L|128:96,2,147.375881499534
256,192,103713,12,0,105025,0:0:0:0:
