osu file format v14

[General]
AudioFilename: audio.mp3
AudioLeadIn: 0
PreviewTime: 21085
Countdown: 0
SampleSet: Normal
StackLeniency: 0.6
Mode: 1
LetterboxInBreaks: 0
WidescreenStoryboard: 1

[Editor]
DistanceSpacing: 0.8
BeatDivisor: 4
GridSize: 32
TimelineZoom: 2.62

[Metadata]
Title:Moonlight Battlefield - Aqua Road (short ver)
TitleUnicode:Moonlight Battlefield - Aqua Road (short ver)
Artist:Tomoya Ohtani feat. nana hatori
ArtistUnicode:Tomoya Ohtani feat. nana hatori
Creator:Kunieda
Version:Inner Oni
Source:Sonic Forces
Tags:drum and bass dnb sonic the hedgehog vocals avatar stage on the edge
BeatmapID:1442685
BeatmapSetID:682248

[Difficulty]
HPDrainRate:5
CircleSize:5
OverallDifficulty:5
ApproachRate:5
SliderMultiplier:1.4
SliderTickRate:1

[Events]
//Background and Video events
0,0,"54943763_p0.png",0,0
//Break Periods
//Storyboard Layer 0 (Background)
//Storyboard Layer 1 (Fail)
//Storyboard Layer 2 (Pass)
//Storyboard Layer 3 (Foreground)
//Storyboard Sound Samples

[TimingPoints]
107,327.868852459016,4,1,0,100,1,0
21090,-100,4,1,0,100,0,1
42074,-100,4,1,0,100,0,0
63057,-100,4,1,0,100,0,1
73549,-100,4,1,0,100,0,0

[HitObjects]
256,192,10598,5,4,0:0:0:0:
256,192,10762,1,0,0:0:0:0:
256,192,10844,1,8,0:0:0:0:
256,192,10926,1,0,0:0:0:0:
256,192,11090,1,12,0:0:0:0:
256,192,11254,1,8,0:0:0:0:
256,192,11336,1,8,0:0:0:0:
256,192,11418,1,0,0:0:0:0:
256,192,11500,1,0,0:0:0:0:
256,192,11582,1,8,0:0:0:0:
256,192,11746,1,0,0:0:0:0:
256,192,11910,1,8,0:0:0:0:
256,192,12074,1,0,0:0:0:0:
256,192,12156,1,8,0:0:0:0:
256,192,12238,1,0,0:0:0:0:
224,192,12320,1,0,0:0:0:0:
256,192,12402,1,8,0:0:0:0:
256,192,12566,1,0,0:0:0:0:
256,192,12730,1,0,0:0:0:0:
256,192,12812,1,0,0:0:0:0:
256,192,12894,1,0,0:0:0:0:
256,192,12976,1,8,0:0:0:0:
256,192,13058,1,0,0:0:0:0:
256,192,13221,1,4,0:0:0:0:
256,192,13385,1,0,0:0:0:0:
256,192,13467,1,0,0:0:0:0:
256,192,13549,1,8,0:0:0:0:
256,192,13713,1,4,0:0:0:0:
256,192,13877,1,8,0:0:0:0:
256,192,13959,1,8,0:0:0:0:
256,192,14041,1,0,0:0:0:0:
256,192,14123,1,0,0:0:0:0:
256,192,14205,1,8,0:0:0:0:
256,192,14369,1,0,0:0:0:0:
256,192,14533,1,8,0:0:0:0:
256,192,14697,1,8,0:0:0:0:
256,192,14779,1,0,0:0:0:0:
256,192,14861,1,8,0:0:0:0:
224,192,14943,1,0,0:0:0:0:
256,192,15025,1,8,0:0:0:0:
256,192,15107,1,0,0:0:0:0:
256,192,15189,1,8,0:0:0:0:
256,192,15353,1,8,0:0:0:0:
256,192,15435,1,0,0:0:0:0:
256,192,15517,1,8,0:0:0:0:
256,192,15599,1,8,0:0:0:0:
256,192,15681,1,0,0:0:0:0:
256,192,15844,1,4,0:0:0:0:
256,192,16008,1,0,0:0:0:0:
256,192,16090,1,0,0:0:0:0:
256,192,16172,1,8,0:0:0:0:
256,192,16336,1,4,0:0:0:0:
256,192,16500,1,8,0:0:0:0:
256,192,16582,1,8,0:0:0:0:
256,192,16664,1,0,0:0:0:0:
256,192,16746,1,0,0:0:0:0:
256,192,16828,1,8,0:0:0:0:
256,192,16910,1,0,0:0:0:0:
256,192,16992,1,8,0:0:0:0:
256,192,17074,1,8,0:0:0:0:
256,192,17156,1,0,0:0:0:0:
256,192,17320,1,8,0:0:0:0:
256,192,17483,1,8,0:0:0:0:
256,192,17565,1,0,0:0:0:0:
256,192,17647,1,8,0:0:0:0:
256,192,17729,1,8,0:0:0:0:
256,192,17811,1,0,0:0:0:0:
256,192,17975,1,0,0:0:0:0:
256,192,18138,1,0,0:0:0:0:
256,192,18220,1,0,0:0:0:0:
256,192,18302,1,8,0:0:0:0:
256,192,18384,1,8,0:0:0:0:
256,192,18466,1,0,0:0:0:0:
256,192,18630,1,0,0:0:0:0:
256,192,18794,1,0,0:0:0:0:
256,192,18876,1,8,0:0:0:0:
256,192,18958,1,0,0:0:0:0:
256,192,19040,1,8,0:0:0:0:
256,192,19122,1,0,0:0:0:0:
256,192,19286,1,8,0:0:0:0:
256,192,19450,1,8,0:0:0:0:
256,192,19532,1,0,0:0:0:0:
224,192,19614,1,8,0:0:0:0:
256,192,19778,1,0,0:0:0:0:
256,192,19860,1,0,0:0:0:0:
256,192,19942,1,0,0:0:0:0:
256,192,20024,1,8,0:0:0:0:
256,192,20106,1,0,0:0:0:0:
256,192,20188,1,8,0:0:0:0:
256,192,20270,1,8,0:0:0:0:
256,192,20352,1,0,0:0:0:0:
256,192,21090,1,4,0:0:0:0:
256,192,21254,1,0,0:0:0:0:
256,192,21336,1,8,0:0:0:0:
256,192,21418,1,0,0:0:0:0:
256,192,21582,1,4,0:0:0:0:
256,192,21746,1,0,0:0:0:0:
256,192,21828,1,0,0:0:0:0:
256,192,21910,1,8,0:0:0:0:
256,192,22074,1,0,0:0:0:0:
256,192,22156,1,8,0:0:0:0:
256,192,22238,1,0,0:0:0:0:
256,192,22320,1,0,0:0:0:0:
256,192,22402,1,8,0:0:0:0:
256,192,22566,1,8,0:0:0:0:
256,192,22730,1,0,0:0:0:0:
256,192,22894,1,8,0:0:0:0:
256,192,22976,1,8,0:0:0:0:
256,192,23058,1,0,0:0:0:0:
256,192,23221,1,0,0:0:0:0:
256,192,23303,1,8,0:0:0:0:
256,192,23385,1,0,0:0:0:0:
256,192,23467,1,0,0:0:0:0:
256,192,23549,1,8,0:0:0:0:
256,192,23713,1,4,0:0:0:0:
256,192,23877,1,0,0:0:0:0:
256,192,23959,1,0,0:0:0:0:
256,192,24041,1,8,0:0:0:0:
256,192,24205,1,4,0:0:0:0:
256,192,24369,1,0,0:0:0:0:
256,192,24451,1,0,0:0:0:0:
256,192,24533,1,8,0:0:0:0:
256,192,24697,1,0,0:0:0:0:
256,192,24779,1,8,0:0:0:0:
256,192,24861,1,0,0:0:0:0:
256,192,24943,1,0,0:0:0:0:
256,192,25025,1,8,0:0:0:0:
256,192,25188,1,8,0:0:0:0:
256,192,25270,1,8,0:0:0:0:
256,192,25352,1,0,0:0:0:0:
256,192,25516,1,0,0:0:0:0:
256,192,25597,1,8,0:0:0:0:
256,192,25680,1,8,0:0:0:0:
256,192,25843,1,8,0:0:0:0:
256,192,25925,1,8,0:0:0:0:
256,192,26007,1,0,0:0:0:0:
256,192,26089,1,0,0:0:0:0:
256,192,26171,1,8,0:0:0:0:
256,192,26335,1,0,0:0:0:0:
256,192,26499,1,0,0:0:0:0:
256,192,26581,1,0,0:0:0:0:
256,192,26663,1,8,0:0:0:0:
256,192,26827,1,0,0:0:0:0:
256,192,26991,1,8,0:0:0:0:
256,192,27073,1,8,0:0:0:0:
256,192,27155,1,0,0:0:0:0:
256,192,27237,1,0,0:0:0:0:
256,192,27319,1,8,0:0:0:0:
256,192,27483,1,0,0:0:0:0:
256,192,27647,1,8,0:0:0:0:
256,192,27811,1,8,0:0:0:0:
256,192,27893,1,8,0:0:0:0:
256,192,27975,1,0,0:0:0:0:
256,192,28057,1,0,0:0:0:0:
256,192,28139,1,8,0:0:0:0:
256,192,28221,1,8,0:0:0:0:
256,192,28303,1,0,0:0:0:0:
256,192,28467,1,0,0:0:0:0:
256,192,28631,1,8,0:0:0:0:
256,192,28713,1,8,0:0:0:0:
256,192,28795,1,0,0:0:0:0:
256,192,28959,1,0,0:0:0:0:
256,192,29123,1,0,0:0:0:0:
256,192,29205,1,0,0:0:0:0:
256,192,29287,1,8,0:0:0:0:
256,192,29451,1,0,0:0:0:0:
256,192,29533,1,8,0:0:0:0:
256,192,29697,1,0,0:0:0:0:
256,192,29779,1,0,0:0:0:0:
256,192,29943,1,0,0:0:0:0:
256,192,30025,1,8,0:0:0:0:
256,192,30106,1,0,0:0:0:0:
256,192,30188,1,0,0:0:0:0:
256,192,30270,1,8,0:0:0:0:
256,192,30434,1,8,0:0:0:0:
256,192,30516,1,8,0:0:0:0:
256,192,30598,1,0,0:0:0:0:
256,192,30762,1,0,0:0:0:0:
256,192,30925,1,0,0:0:0:0:
256,192,31007,1,0,0:0:0:0:
256,192,31089,1,8,0:0:0:0:
256,192,31171,1,8,0:0:0:0:
256,192,31253,1,0,0:0:0:0:
256,192,31417,1,0,0:0:0:0:
256,192,31581,1,12,0:0:0:0:
256,192,31746,1,0,0:0:0:0:
256,192,31828,1,8,0:0:0:0:
256,192,31910,1,0,0:0:0:0:
256,192,32074,1,4,0:0:0:0:
256,192,32238,1,0,0:0:0:0:
256,192,32320,1,0,0:0:0:0:
256,192,32402,1,8,0:0:0:0:
256,192,32566,1,0,0:0:0:0:
256,192,32647,1,8,0:0:0:0:
256,192,32729,1,0,0:0:0:0:
256,192,32811,1,0,0:0:0:0:
256,192,32893,1,8,0:0:0:0:
256,192,33057,1,8,0:0:0:0:
256,192,33221,1,0,0:0:0:0:
256,192,33385,1,8,0:0:0:0:
256,192,33467,1,8,0:0:0:0:
256,192,33549,1,0,0:0:0:0:
256,192,33713,1,0,0:0:0:0:
256,192,33795,1,8,0:0:0:0:
256,192,33877,1,0,0:0:0:0:
256,192,33959,1,0,0:0:0:0:
256,192,34041,1,8,0:0:0:0:
256,192,34205,1,4,0:0:0:0:
256,192,34369,1,0,0:0:0:0:
256,192,34451,1,0,0:0:0:0:
256,192,34533,1,8,0:0:0:0:
256,192,34697,1,4,0:0:0:0:
256,192,34861,1,0,0:0:0:0:
256,192,34943,1,0,0:0:0:0:
256,192,35025,1,8,0:0:0:0:
256,192,35188,1,0,0:0:0:0:
256,192,35270,1,8,0:0:0:0:
256,192,35352,1,0,0:0:0:0:
256,192,35434,1,0,0:0:0:0:
256,192,35516,1,8,0:0:0:0:
256,192,35680,1,8,0:0:0:0:
256,192,35762,1,8,0:0:0:0:
256,192,35844,1,0,0:0:0:0:
256,192,36008,1,0,0:0:0:0:
256,192,36089,1,8,0:0:0:0:
256,192,36172,1,8,0:0:0:0:
256,192,36335,1,8,0:0:0:0:
256,192,36417,1,8,0:0:0:0:
256,192,36499,1,0,0:0:0:0:
256,192,36581,1,0,0:0:0:0:
256,192,36663,1,8,0:0:0:0:
256,192,36828,1,0,0:0:0:0:
256,192,36991,1,0,0:0:0:0:
256,192,37073,1,0,0:0:0:0:
256,192,37155,1,8,0:0:0:0:
256,192,37319,1,0,0:0:0:0:
256,192,37484,1,8,0:0:0:0:
256,192,37566,1,8,0:0:0:0:
256,192,37647,1,0,0:0:0:0:
256,192,37729,1,0,0:0:0:0:
256,192,37811,1,8,0:0:0:0:
256,192,37975,1,0,0:0:0:0:
256,192,38139,1,8,0:0:0:0:
256,192,38303,1,8,0:0:0:0:
256,192,38385,1,8,0:0:0:0:
256,192,38467,1,0,0:0:0:0:
256,192,38549,1,0,0:0:0:0:
256,192,38630,1,8,0:0:0:0:
256,192,38712,1,8,0:0:0:0:
256,192,38794,1,0,0:0:0:0:
256,192,38959,1,0,0:0:0:0:
256,192,39123,1,8,0:0:0:0:
256,192,39205,1,8,0:0:0:0:
256,192,39287,1,0,0:0:0:0:
256,192,39451,1,0,0:0:0:0:
256,192,39615,1,0,0:0:0:0:
256,192,39697,1,0,0:0:0:0:
256,192,39779,1,8,0:0:0:0:
256,192,39943,1,0,0:0:0:0:
256,192,40025,1,8,0:0:0:0:
256,192,40189,1,0,0:0:0:0:
256,192,40271,1,0,0:0:0:0:
256,192,40435,1,0,0:0:0:0:
256,192,40517,1,8,0:0:0:0:
256,192,40599,1,0,0:0:0:0:
256,192,40681,1,0,0:0:0:0:
256,192,40763,1,8,0:0:0:0:
256,192,40927,1,8,0:0:0:0:
256,192,41009,1,8,0:0:0:0:
256,192,41090,1,0,0:0:0:0:
256,192,41254,1,0,0:0:0:0:
256,192,41418,1,0,0:0:0:0:
256,192,41500,1,0,0:0:0:0:
256,192,41582,1,8,0:0:0:0:
256,192,41664,1,8,0:0:0:0:
256,192,41746,1,0,0:0:0:0:
256,192,41910,1,0,0:0:0:0:
256,192,42074,1,4,0:0:0:0:
256,192,42402,1,8,0:0:0:0:
256,192,42484,1,0,0:0:0:0:
256,192,42566,1,8,0:0:0:0:
256,192,42729,1,8,0:0:0:0:
256,192,42811,1,8,0:0:0:0:
256,192,42893,1,0,0:0:0:0:
256,192,42975,1,0,0:0:0:0:
256,192,43057,1,8,0:0:0:0:
256,192,43221,1,0,0:0:0:0:
256,192,43385,1,8,0:0:0:0:
256,192,43467,1,0,0:0:0:0:
256,192,43549,1,0,0:0:0:0:
256,192,43631,1,0,0:0:0:0:
256,192,43713,1,8,0:0:0:0:
256,192,43877,1,0,0:0:0:0:
256,192,44041,1,8,0:0:0:0:
256,192,44205,1,0,0:0:0:0:
256,192,44369,1,8,0:0:0:0:
256,192,44451,1,8,0:0:0:0:
256,192,44533,1,0,0:0:0:0:
256,192,44697,1,0,0:0:0:0:
256,192,44861,1,0,0:0:0:0:
256,192,44943,1,0,0:0:0:0:
256,192,45025,1,8,0:0:0:0:
256,192,45106,1,0,0:0:0:0:
256,192,45188,1,8,0:0:0:0:
256,192,45352,1,8,0:0:0:0:
256,192,45434,1,8,0:0:0:0:
256,192,45516,1,0,0:0:0:0:
256,192,45598,1,0,0:0:0:0:
256,192,45680,1,8,0:0:0:0:
256,192,45844,1,0,0:0:0:0:
256,192,46008,1,8,0:0:0:0:
256,192,46090,1,0,0:0:0:0:
256,192,46172,1,0,0:0:0:0:
256,192,46254,1,0,0:0:0:0:
256,192,46336,1,8,0:0:0:0:
256,192,46500,1,0,0:0:0:0:
256,192,46664,1,8,0:0:0:0:
256,192,46828,1,0,0:0:0:0:
256,192,46992,1,8,0:0:0:0:
256,192,47074,1,8,0:0:0:0:
256,192,47156,1,0,0:0:0:0:
256,192,47320,1,0,0:0:0:0:
256,192,47484,1,0,0:0:0:0:
256,192,47566,1,0,0:0:0:0:
256,192,47647,1,8,0:0:0:0:
256,192,47729,1,0,0:0:0:0:
256,192,47811,1,8,0:0:0:0:
256,192,47975,1,8,0:0:0:0:
256,192,48057,1,8,0:0:0:0:
256,192,48139,1,0,0:0:0:0:
256,192,48221,1,0,0:0:0:0:
256,192,48303,1,8,0:0:0:0:
256,192,48467,1,0,0:0:0:0:
256,192,48631,1,8,0:0:0:0:
256,192,48713,1,0,0:0:0:0:
256,192,48795,1,0,0:0:0:0:
256,192,48877,1,0,0:0:0:0:
256,192,48959,1,8,0:0:0:0:
256,192,49123,1,0,0:0:0:0:
256,192,49287,1,8,0:0:0:0:
256,192,49451,1,0,0:0:0:0:
256,192,49615,1,8,0:0:0:0:
256,192,49697,1,8,0:0:0:0:
256,192,49779,1,0,0:0:0:0:
256,192,49943,1,0,0:0:0:0:
256,192,50106,1,0,0:0:0:0:
256,192,50188,1,0,0:0:0:0:
256,192,50270,1,8,0:0:0:0:
256,192,50352,1,0,0:0:0:0:
256,192,50434,1,8,0:0:0:0:
256,192,50599,1,8,0:0:0:0:
256,192,50681,1,0,0:0:0:0:
256,192,50763,1,0,0:0:0:0:
256,192,50845,1,8,0:0:0:0:
256,192,50927,1,0,0:0:0:0:
256,192,51090,1,0,0:0:0:0:
256,192,51254,1,8,0:0:0:0:
256,192,51336,1,0,0:0:0:0:
256,192,51418,1,0,0:0:0:0:
256,192,51500,1,0,0:0:0:0:
256,192,51582,1,8,0:0:0:0:
256,192,51746,1,0,0:0:0:0:
256,192,51910,1,8,0:0:0:0:
256,192,52074,1,0,0:0:0:0:
256,192,52156,1,0,0:0:0:0:
256,192,52238,1,8,0:0:0:0:
256,192,52292,1,8,0:0:0:0:
256,192,52347,1,8,0:0:0:0:
256,192,52401,1,0,0:0:0:0:
256,192,52566,1,4,0:0:0:0:
256,192,52729,1,0,0:0:0:0:
256,192,52811,1,0,0:0:0:0:
256,192,52893,1,8,0:0:0:0:
256,192,52975,1,0,0:0:0:0:
256,192,53057,1,8,0:0:0:0:
256,192,53221,1,8,0:0:0:0:
256,192,53303,1,8,0:0:0:0:
256,192,53385,1,0,0:0:0:0:
256,192,53467,1,0,0:0:0:0:
256,192,53549,1,8,0:0:0:0:
256,192,53713,1,0,0:0:0:0:
256,192,53877,1,8,0:0:0:0:
256,192,53959,1,0,0:0:0:0:
256,192,54041,1,0,0:0:0:0:
256,192,54123,1,0,0:0:0:0:
256,192,54205,1,8,0:0:0:0:
256,192,54369,1,0,0:0:0:0:
256,192,54533,1,8,0:0:0:0:
256,192,54697,1,0,0:0:0:0:
256,192,54861,1,8,0:0:0:0:
256,192,54943,1,8,0:0:0:0:
256,192,55025,1,0,0:0:0:0:
256,192,55188,1,0,0:0:0:0:
256,192,55352,1,0,0:0:0:0:
256,192,55434,1,0,0:0:0:0:
256,192,55516,1,8,0:0:0:0:
256,192,55598,1,0,0:0:0:0:
256,192,55680,1,8,0:0:0:0:
256,192,55844,1,8,0:0:0:0:
256,192,55926,1,8,0:0:0:0:
256,192,56008,1,0,0:0:0:0:
256,192,56090,1,0,0:0:0:0:
256,192,56172,1,8,0:0:0:0:
256,192,56336,1,0,0:0:0:0:
256,192,56500,1,8,0:0:0:0:
256,192,56582,1,0,0:0:0:0:
256,192,56664,1,0,0:0:0:0:
256,192,56746,1,0,0:0:0:0:
256,192,56828,1,8,0:0:0:0:
256,192,56992,1,0,0:0:0:0:
256,192,57156,1,8,0:0:0:0:
256,192,57320,1,0,0:0:0:0:
256,192,57484,1,8,0:0:0:0:
256,192,57566,1,8,0:0:0:0:
256,192,57648,1,0,0:0:0:0:
256,192,57812,1,0,0:0:0:0:
256,192,57976,1,0,0:0:0:0:
256,192,58058,1,0,0:0:0:0:
256,192,58140,1,8,0:0:0:0:
256,192,58222,1,0,0:0:0:0:
256,192,58304,1,8,0:0:0:0:
256,192,58467,1,8,0:0:0:0:
256,192,58549,1,8,0:0:0:0:
256,192,58631,1,0,0:0:0:0:
256,192,58713,1,0,0:0:0:0:
256,192,58795,1,8,0:0:0:0:
256,192,58958,1,0,0:0:0:0:
256,192,59122,1,8,0:0:0:0:
256,192,59204,1,0,0:0:0:0:
256,192,59286,1,0,0:0:0:0:
256,192,59368,1,0,0:0:0:0:
256,192,59450,1,8,0:0:0:0:
256,192,59614,1,0,0:0:0:0:
256,192,59778,1,8,0:0:0:0:
256,192,59942,1,0,0:0:0:0:
256,192,60106,1,8,0:0:0:0:
256,192,60188,1,8,0:0:0:0:
256,192,60270,1,0,0:0:0:0:
256,192,60434,1,0,0:0:0:0:
256,192,60598,1,0,0:0:0:0:
256,192,60680,1,0,0:0:0:0:
256,192,60762,1,8,0:0:0:0:
256,192,60844,1,0,0:0:0:0:
256,192,60926,1,8,0:0:0:0:
256,192,61090,1,8,0:0:0:0:
256,192,61172,1,0,0:0:0:0:
256,192,61254,1,0,0:0:0:0:
256,192,61336,1,8,0:0:0:0:
256,192,61418,1,0,0:0:0:0:
256,192,61581,1,0,0:0:0:0:
256,192,61746,1,8,0:0:0:0:
256,192,61828,1,0,0:0:0:0:
256,192,61910,1,0,0:0:0:0:
256,192,61992,1,0,0:0:0:0:
256,192,62074,1,8,0:0:0:0:
256,192,62238,1,0,0:0:0:0:
256,192,62402,1,8,0:0:0:0:
256,192,62566,1,0,0:0:0:0:
256,192,62647,1,0,0:0:0:0:
256,192,62729,1,8,0:0:0:0:
256,192,62785,1,8,0:0:0:0:
256,192,62840,1,8,0:0:0:0:
256,192,62894,1,0,0:0:0:0:
256,192,63057,1,4,0:0:0:0:
256,192,63221,1,8,0:0:0:0:
256,192,63303,1,0,0:0:0:0:
256,192,63385,1,0,0:0:0:0:
256,192,63467,1,8,0:0:0:0:
256,192,63549,1,0,0:0:0:0:
256,192,63631,1,0,0:0:0:0:
256,192,63713,1,8,0:0:0:0:
256,192,63877,1,0,0:0:0:0:
256,192,64041,1,8,0:0:0:0:
256,192,64123,1,0,0:0:0:0:
256,192,64205,1,8,0:0:0:0:
256,192,64287,1,8,0:0:0:0:
256,192,64369,1,0,0:0:0:0:
256,192,64533,1,0,0:0:0:0:
256,192,64697,1,8,0:0:0:0:
256,192,64778,1,0,0:0:0:0:
256,192,64860,1,8,0:0:0:0:
256,192,64942,1,8,0:0:0:0:
256,192,65024,1,0,0:0:0:0:
256,192,65188,1,0,0:0:0:0:
256,192,65352,1,0,0:0:0:0:
256,192,65434,1,8,0:0:0:0:
256,192,65516,1,8,0:0:0:0:
256,192,65597,1,8,0:0:0:0:
256,192,65679,1,0,0:0:0:0:
256,192,65844,1,0,0:0:0:0:
256,192,66008,1,0,0:0:0:0:
256,192,66090,1,8,0:0:0:0:
256,192,66172,1,8,0:0:0:0:
256,192,66254,1,0,0:0:0:0:
256,192,66336,1,0,0:0:0:0:
256,192,66500,1,0,0:0:0:0:
256,192,66664,1,8,0:0:0:0:
256,192,66746,1,8,0:0:0:0:
256,192,66828,1,0,0:0:0:0:
256,192,66910,1,0,0:0:0:0:
256,192,66992,1,8,0:0:0:0:
256,192,67156,1,0,0:0:0:0:
256,192,67320,1,8,0:0:0:0:
256,192,67402,1,0,0:0:0:0:
256,192,67484,1,8,0:0:0:0:
256,192,67566,1,0,0:0:0:0:
256,192,67647,1,0,0:0:0:0:
256,192,67811,1,0,0:0:0:0:
256,192,67893,1,0,0:0:0:0:
256,192,67975,1,8,0:0:0:0:
256,192,68057,1,8,0:0:0:0:
256,192,68138,1,0,0:0:0:0:
256,192,68303,1,12,0:0:0:0:
256,192,68467,1,8,0:0:0:0:
256,192,68549,1,0,0:0:0:0:
256,192,68631,1,0,0:0:0:0:
256,192,68713,1,8,0:0:0:0:
256,192,68795,1,0,0:0:0:0:
256,192,68877,1,0,0:0:0:0:
256,192,68959,1,8,0:0:0:0:
256,192,69123,1,0,0:0:0:0:
256,192,69287,1,8,0:0:0:0:
256,192,69368,1,0,0:0:0:0:
256,192,69450,1,8,0:0:0:0:
256,192,69532,1,8,0:0:0:0:
256,192,69614,1,0,0:0:0:0:
256,192,69778,1,0,0:0:0:0:
256,192,69942,1,8,0:0:0:0:
256,192,70024,1,0,0:0:0:0:
256,192,70106,1,8,0:0:0:0:
256,192,70188,1,8,0:0:0:0:
256,192,70270,1,0,0:0:0:0:
256,192,70434,1,0,0:0:0:0:
256,192,70598,1,0,0:0:0:0:
256,192,70680,1,8,0:0:0:0:
256,192,70762,1,8,0:0:0:0:
256,192,70843,1,8,0:0:0:0:
256,192,70925,1,0,0:0:0:0:
256,192,71089,1,0,0:0:0:0:
256,192,71253,1,0,0:0:0:0:
256,192,71335,1,8,0:0:0:0:
256,192,71417,1,8,0:0:0:0:
256,192,71499,1,0,0:0:0:0:
256,192,71582,1,0,0:0:0:0:
256,192,71746,1,0,0:0:0:0:
256,192,71910,1,8,0:0:0:0:
256,192,71992,1,8,0:0:0:0:
256,192,72074,1,0,0:0:0:0:
256,192,72156,1,0,0:0:0:0:
256,192,72238,1,8,0:0:0:0:
256,192,72402,1,0,0:0:0:0:
256,192,72565,1,8,0:0:0:0:
256,192,72647,1,0,0:0:0:0:
256,192,72729,1,8,0:0:0:0:
256,192,72811,1,8,0:0:0:0:
256,192,72893,1,0,0:0:0:0:
256,192,72975,1,8,0:0:0:0:
256,192,73057,1,0,0:0:0:0:
256,192,73139,1,0,0:0:0:0:
256,192,73221,1,8,0:0:0:0:
256,192,73276,1,8,0:0:0:0:
256,192,73331,1,8,0:0:0:0:
256,192,73385,1,0,0:0:0:0:
256,192,73549,1,4,0:0:0:0:
256,192,73877,1,8,0:0:0:0:
256,192,73959,1,0,0:0:0:0:
256,192,74041,1,8,0:0:0:0:
256,192,74205,1,8,0:0:0:0:
256,192,74287,1,8,0:0:0:0:
256,192,74369,1,0,0:0:0:0:
256,192,74451,1,0,0:0:0:0:
256,192,74533,1,8,0:0:0:0:
256,192,74697,1,0,0:0:0:0:
256,192,74860,1,8,0:0:0:0:
256,192,74942,1,0,0:0:0:0:
256,192,75024,1,0,0:0:0:0:
256,192,75106,1,0,0:0:0:0:
256,192,75188,1,8,0:0:0:0:
256,192,75352,1,0,0:0:0:0:
256,192,75516,1,8,0:0:0:0:
256,192,75680,1,0,0:0:0:0:
256,192,75844,1,8,0:0:0:0:
256,192,75926,1,8,0:0:0:0:
256,192,76008,1,0,0:0:0:0:
256,192,76172,1,0,0:0:0:0:
256,192,76336,1,0,0:0:0:0:
256,192,76418,1,0,0:0:0:0:
256,192,76500,1,8,0:0:0:0:
256,192,76582,1,0,0:0:0:0:
256,192,76664,1,8,0:0:0:0:
256,192,76828,1,8,0:0:0:0:
256,192,76910,1,8,0:0:0:0:
256,192,76992,1,0,0:0:0:0:
256,192,77074,1,0,0:0:0:0:
256,192,77156,1,8,0:0:0:0:
256,192,77319,1,0,0:0:0:0:
256,192,77483,1,8,0:0:0:0:
256,192,77565,1,0,0:0:0:0:
256,192,77647,1,0,0:0:0:0:
256,192,77729,1,0,0:0:0:0:
256,192,77811,1,8,0:0:0:0:
256,192,77975,1,0,0:0:0:0:
256,192,78139,1,8,0:0:0:0:
256,192,78303,1,0,0:0:0:0:
256,192,78467,1,8,0:0:0:0:
256,192,78549,1,8,0:0:0:0:
256,192,78631,1,0,0:0:0:0:
256,192,78795,1,0,0:0:0:0:
256,192,78959,1,0,0:0:0:0:
256,192,79041,1,0,0:0:0:0:
256,192,79123,1,8,0:0:0:0:
256,192,79205,1,0,0:0:0:0:
256,192,79287,1,8,0:0:0:0:
256,192,79451,1,8,0:0:0:0:
256,192,79533,1,8,0:0:0:0:
256,192,79615,1,0,0:0:0:0:
256,192,79697,1,0,0:0:0:0:
256,192,79779,1,8,0:0:0:0:
256,192,79942,1,0,0:0:0:0:
256,192,80106,1,8,0:0:0:0:
256,192,80188,1,0,0:0:0:0:
256,192,80270,1,0,0:0:0:0:
256,192,80352,1,0,0:0:0:0:
256,192,80434,1,8,0:0:0:0:
256,192,80598,1,0,0:0:0:0:
256,192,80762,1,8,0:0:0:0:
256,192,80926,1,0,0:0:0:0:
256,192,81090,1,8,0:0:0:0:
256,192,81172,1,8,0:0:0:0:
256,192,81254,1,0,0:0:0:0:
256,192,81418,1,0,0:0:0:0:
256,192,81582,1,0,0:0:0:0:
256,192,81664,1,0,0:0:0:0:
256,192,81746,1,8,0:0:0:0:
256,192,81828,1,0,0:0:0:0:
256,192,81910,1,8,0:0:0:0:
256,192,82073,1,8,0:0:0:0:
256,192,82155,1,0,0:0:0:0:
256,192,82237,1,0,0:0:0:0:
256,192,82319,1,8,0:0:0:0:
256,192,82401,1,0,0:0:0:0:
256,192,82566,1,0,0:0:0:0:
256,192,82730,1,8,0:0:0:0:
256,192,82812,1,0,0:0:0:0:
256,192,82894,1,0,0:0:0:0:
256,192,82976,1,0,0:0:0:0:
256,192,83058,1,8,0:0:0:0:
256,192,83220,1,0,0:0:0:0:
256,192,83384,1,8,0:0:0:0:
256,192,83548,1,0,0:0:0:0:
256,192,83631,1,0,0:0:0:0:
256,192,83712,1,8,0:0:0:0:
256,192,83768,1,8,0:0:0:0:
256,192,83823,1,8,0:0:0:0:
256,192,83876,1,0,0:0:0:0:
256,192,84040,1,4,0:0:0:0:
256,192,84205,1,0,0:0:0:0:
256,192,84287,1,0,0:0:0:0:
256,192,84369,1,8,0:0:0:0:
256,192,84533,1,4,0:0:0:0:
256,192,84861,1,0,0:0:0:0:
256,192,85025,1,8,0:0:0:0:
256,192,85353,1,8,0:0:0:0:
256,192,85517,1,8,0:0:0:0:
256,192,85598,1,8,0:0:0:0:
256,192,85680,1,0,0:0:0:0:
256,192,85844,1,0,0:0:0:0:
256,192,86172,1,8,0:0:0:0:
256,192,86254,1,0,0:0:0:0:
256,192,86336,1,8,0:0:0:0:
256,192,86500,1,0,0:0:0:0:
256,192,86664,1,8,0:0:0:0:
256,192,86746,1,0,0:0:0:0:
256,192,86828,1,0,0:0:0:0:
256,192,86910,1,0,0:0:0:0:
256,192,86992,1,8,0:0:0:0:
256,192,87074,1,0,0:0:0:0:
256,192,87156,1,8,0:0:0:0:
256,192,87238,1,0,0:0:0:0:
256,192,87320,1,0,0:0:0:0:
256,192,87402,1,0,0:0:0:0:
288,192,87484,1,8,0:0:0:0:
256,192,87566,1,8,0:0:0:0:
256,192,87648,1,0,0:0:0:0:
256,192,87812,1,0,0:0:0:0:
256,192,88140,1,8,0:0:0:0:
256,192,88303,1,0,0:0:0:0:
256,192,88467,1,0,0:0:0:0:
256,192,88549,1,0,0:0:0:0:
256,192,88631,1,8,0:0:0:0:
256,192,88795,1,0,0:0:0:0:
256,192,89287,1,4,0:0:0:0:
256,192,89451,1,0,0:0:0:0:
256,192,89533,1,0,0:0:0:0:
256,192,89615,1,8,0:0:0:0:
256,192,89779,1,4,0:0:0:0:
256,192,89943,1,8,0:0:0:0:
256,192,90106,1,0,0:0:0:0:
256,192,90270,1,8,0:0:0:0:
256,192,90434,1,0,0:0:0:0:
256,192,90516,1,0,0:0:0:0:
256,192,90598,1,8,0:0:0:0:
256,192,90762,1,0,0:0:0:0:
256,192,90844,1,8,0:0:0:0:
256,192,91008,1,8,0:0:0:0:
256,192,91090,1,0,0:0:0:0:
256,192,91254,1,8,0:0:0:0:
256,192,91336,1,0,0:0:0:0:
256,192,91418,1,0,0:0:0:0:
256,192,91910,1,8,0:0:0:0:
256,192,91992,1,0,0:0:0:0:
256,192,92074,1,8,0:0:0:0:
256,192,92156,1,8,0:0:0:0:
256,192,92238,1,0,0:0:0:0:
256,192,92320,1,0,0:0:0:0:
256,192,92402,1,8,0:0:0:0:
256,192,92566,1,8,0:0:0:0:
256,192,92729,1,8,0:0:0:0:
256,192,92811,1,8,0:0:0:0:
256,192,92893,1,0,0:0:0:0:
256,192,93057,1,0,0:0:0:0:
256,192,93221,1,0,0:0:0:0:
256,192,93303,1,8,0:0:0:0:
256,192,93385,1,0,0:0:0:0:
256,192,93467,1,0,0:0:0:0:
256,192,93549,1,8,0:0:0:0:
256,192,93713,1,0,0:0:0:0:
256,192,93877,1,8,0:0:0:0:
256,192,93959,1,0,0:0:0:0:
256,192,94041,1,8,0:0:0:0:
256,192,94123,1,0,0:0:0:0:
256,192,94205,1,8,0:0:0:0:
256,192,94369,1,0,0:0:0:0:
256,192,94533,1,4,0:0:0:0:
256,192,94697,1,0,0:0:0:0:
256,192,94779,1,0,0:0:0:0:
256,192,94861,1,8,0:0:0:0:
256,192,95025,1,4,0:0:0:0:
256,192,95353,1,0,0:0:0:0:
256,192,95517,1,8,0:0:0:0:
256,192,95845,1,8,0:0:0:0:
256,192,96009,1,8,0:0:0:0:
256,192,96090,1,8,0:0:0:0:
256,192,96172,1,0,0:0:0:0:
256,192,96336,1,0,0:0:0:0:
256,192,96664,1,8,0:0:0:0:
256,192,96746,1,0,0:0:0:0:
256,192,96828,1,8,0:0:0:0:
256,192,96992,1,0,0:0:0:0:
256,192,97156,1,8,0:0:0:0:
256,192,97238,1,0,0:0:0:0:
256,192,97320,1,0,0:0:0:0:
256,192,97402,1,0,0:0:0:0:
256,192,97484,1,8,0:0:0:0:
256,192,97566,1,0,0:0:0:0:
256,192,97648,1,8,0:0:0:0:
256,192,97730,1,0,0:0:0:0:
256,192,97812,1,0,0:0:0:0:
256,192,97894,1,0,0:0:0:0:
288,192,97976,1,8,0:0:0:0:
256,192,98058,1,8,0:0:0:0:
256,192,98140,1,0,0:0:0:0:
256,192,98304,1,0,0:0:0:0:
256,192,98795,1,0,0:0:0:0:
256,192,98959,1,8,0:0:0:0:
256,192,99451,1,8,0:0:0:0:
256,192,99615,1,0,0:0:0:0:
256,192,99779,1,0,0:0:0:0:
256,192,99943,1,8,0:0:0:0:
256,192,100107,1,0,0:0:0:0:
256,192,100189,1,0,0:0:0:0:
256,192,100271,1,8,0:0:0:0:
256,192,100353,1,0,0:0:0:0:
256,192,100435,1,8,0:0:0:0:
256,192,100517,1,8,0:0:0:0:
256,192,100598,1,0,0:0:0:0:
256,192,100762,1,0,0:0:0:0:
256,192,100844,1,0,0:0:0:0:
256,192,100926,1,8,0:0:0:0:
256,192,101008,1,8,0:0:0:0:
256,192,101090,1,0,0:0:0:0:
256,192,101254,1,0,0:0:0:0:
256,192,101418,1,8,0:0:0:0:
256,192,101500,1,0,0:0:0:0:
256,192,101582,1,8,0:0:0:0:
256,192,101664,1,8,0:0:0:0:
256,192,101746,1,0,0:0:0:0:
256,192,101828,1,0,0:0:0:0:
256,192,101910,1,0,0:0:0:0:
256,192,102074,1,8,0:0:0:0:
256,192,102156,1,0,0:0:0:0:
256,192,102238,1,8,0:0:0:0:
256,192,102320,1,8,0:0:0:0:
256,192,102402,1,0,0:0:0:0:
256,192,102566,1,8,0:0:0:0:
256,192,102730,1,0,0:0:0:0:
256,192,102894,1,8,0:0:0:0:
256,192,103058,1,0,0:0:0:0:
256,192,103221,1,8,0:0:0:0:
256,192,103385,1,0,0:0:0:0:
256,192,103549,1,8,0:0:0:0:
256,192,103713,1,0,0:0:0:0:
256,192,103795,1,8,0:0:0:0:
256,192,103877,1,0,0:0:0:0:
256,192,103959,1,8,0:0:0:0:
256,192,104041,1,0,0:0:0:0:
256,192,104123,1,0,0:0:0:0:
256,192,104205,1,0,0:0:0:0:
256,192,104287,1,8,0:0:0:0:
256,192,104369,1,8,0:0:0:0:
256,192,104451,1,8,0:0:0:0:
256,192,104533,1,0,0:0:0:0:
256,192,104615,1,0,0:0:0:0:
256,192,104697,1,8,0:0:0:0:
256,192,104779,1,8,0:0:0:0:
256,192,104861,1,8,0:0:0:0:
256,192,105025,1,12,0:0:0:0:
