osu file format v14

[General]
AudioFilename: audio.mp3
AudioLeadIn: 0
PreviewTime: 21085
Countdown: 0
SampleSet: Normal
StackLeniency: 0.6
Mode: 1
LetterboxInBreaks: 0
WidescreenStoryboard: 1

[Editor]
DistanceSpacing: 0.8
BeatDivisor: 4
GridSize: 32
TimelineZoom: 2.62

[Metadata]
Title:Moonlight Battlefield - Aqua Road (short ver)
TitleUnicode:Moonlight Battlefield - Aqua Road (short ver)
Artist:Tomoya Ohtani feat. nana hatori
ArtistUnicode:Tomoya Ohtani feat. nana hatori
Creator:Kunieda
Version:Futsuu
Source:Sonic Forces
Tags:drum and bass dnb sonic the hedgehog vocals avatar stage on the edge
BeatmapID:1455681
BeatmapSetID:682248

[Difficulty]
HPDrainRate:5
CircleSize:5
OverallDifficulty:5
ApproachRate:5
SliderMultiplier:1.4
SliderTickRate:1

[Events]
//Background and Video events
0,0,"54943763_p0.png",0,0
//Break Periods
//Storyboard Layer 0 (Background)
//Storyboard Layer 1 (Fail)
//Storyboard Layer 2 (Pass)
//Storyboard Layer 3 (Foreground)
//Storyboard Sound Samples

[TimingPoints]
107,327.868852459016,4,1,0,100,1,0
21090,-100,4,1,0,100,0,1
42074,-100,4,1,0,100,0,0
63057,-100,4,1,0,100,0,1
73549,-100,4,1,0,100,0,0

[HitObjects]
256,192,10598,5,4,0:0:0:0:
256,192,11090,1,12,0:0:0:0:
256,192,11910,1,0,0:0:0:0:
256,192,12074,1,0,0:0:0:0:
256,192,12238,1,8,0:0:0:0:
256,192,12566,1,0,0:0:0:0:
256,192,12730,1,0,0:0:0:0:
256,192,12894,1,8,0:0:0:0:
256,192,13221,1,4,0:0:0:0:
256,192,13713,1,4,0:0:0:0:
256,192,14533,1,0,0:0:0:0:
256,192,14861,1,8,0:0:0:0:
256,192,15189,1,8,0:0:0:0:
256,192,15844,1,0,0:0:0:0:
256,192,16336,1,8,0:0:0:0:
256,192,17155,1,0,0:0:0:0:
256,192,17483,1,8,0:0:0:0:
256,192,17811,1,0,0:0:0:0:
256,192,17975,1,0,0:0:0:0:
256,192,18139,1,8,0:0:0:0:
256,192,18467,1,0,0:0:0:0:
256,192,18795,1,0,0:0:0:0:
256,192,19123,1,0,0:0:0:0:
256,192,19451,1,0,0:0:0:0:
256,192,19779,2,0,L|224:128,7,36.8439703748835
256,192,21090,1,4,0:0:0:0:
256,192,21582,1,8,0:0:0:0:
256,192,22074,1,8,0:0:0:0:
256,192,22238,1,8,0:0:0:0:
256,192,22402,1,0,0:0:0:0:
256,192,22894,1,8,0:0:0:0:
256,192,23221,1,0,0:0:0:0:
256,192,23385,1,8,0:0:0:0:
256,192,23713,1,4,0:0:0:0:
256,192,24205,1,4,0:0:0:0:
256,192,24697,1,8,0:0:0:0:
256,192,24861,1,8,0:0:0:0:
256,192,25025,1,0,0:0:0:0:
256,192,25517,1,8,0:0:0:0:
256,192,25844,1,0,0:0:0:0:
256,192,26008,1,8,0:0:0:0:
256,192,26336,1,0,0:0:0:0:
256,192,26664,1,0,0:0:0:0:
256,192,26828,1,8,0:0:0:0:
256,192,27156,1,0,0:0:0:0:
256,192,27320,1,8,0:0:0:0:
256,192,27648,1,0,0:0:0:0:
256,192,28139,1,0,0:0:0:0:
256,192,28466,1,0,0:0:0:0:
256,192,28630,1,8,0:0:0:0:
256,192,28959,1,4,0:0:0:0:
256,192,29451,1,4,0:0:0:0:
256,192,29943,1,8,0:0:0:0:
256,192,30271,1,8,0:0:0:0:
256,192,30435,1,0,0:0:0:0:
256,192,30598,1,8,0:0:0:0:
256,192,30926,1,8,0:0:0:0:
256,192,31582,1,4,0:0:0:0:
256,192,32074,1,8,0:0:0:0:
256,192,32566,1,8,0:0:0:0:
256,192,32730,1,8,0:0:0:0:
256,192,32894,1,0,0:0:0:0:
256,192,33386,1,8,0:0:0:0:
256,192,33713,1,0,0:0:0:0:
256,192,33877,1,8,0:0:0:0:
256,192,34205,1,4,0:0:0:0:
256,192,34697,1,4,0:0:0:0:
256,192,35189,1,8,0:0:0:0:
256,192,35353,1,8,0:0:0:0:
256,192,35517,1,0,0:0:0:0:
256,192,36009,1,8,0:0:0:0:
256,192,36336,1,0,0:0:0:0:
256,192,36499,1,8,0:0:0:0:
256,192,36828,1,0,0:0:0:0:
256,192,37156,1,8,0:0:0:0:
256,192,37320,1,0,0:0:0:0:
256,192,37648,1,0,0:0:0:0:
256,192,37812,1,8,0:0:0:0:
256,192,38140,1,0,0:0:0:0:
256,192,38631,1,0,0:0:0:0:
256,192,38958,1,0,0:0:0:0:
256,192,39122,1,8,0:0:0:0:
256,192,39451,1,4,0:0:0:0:
256,192,39943,1,4,0:0:0:0:
256,192,40435,1,8,0:0:0:0:
256,192,40763,1,8,0:0:0:0:
256,192,40927,1,0,0:0:0:0:
256,192,41090,1,8,0:0:0:0:
256,192,41418,1,8,0:0:0:0:
256,192,42074,1,4,0:0:0:0:
256,192,42402,1,8,0:0:0:0:
256,192,42566,1,8,0:0:0:0:
256,192,42894,1,8,0:0:0:0:
256,192,43221,1,0,0:0:0:0:
256,192,43549,1,8,0:0:0:0:
256,192,43877,1,8,0:0:0:0:
256,192,44697,1,0,0:0:0:0:
256,192,45025,1,8,0:0:0:0:
256,192,45189,1,8,0:0:0:0:
256,192,45517,1,8,0:0:0:0:
256,192,45844,1,0,0:0:0:0:
256,192,46172,1,8,0:0:0:0:
256,192,46500,1,8,0:0:0:0:
256,192,47320,1,0,0:0:0:0:
256,192,47648,1,8,0:0:0:0:
256,192,47812,1,8,0:0:0:0:
256,192,48140,1,8,0:0:0:0:
256,192,48467,1,0,0:0:0:0:
256,192,48795,1,8,0:0:0:0:
256,192,49123,1,8,0:0:0:0:
256,192,49943,1,0,0:0:0:0:
256,192,50271,1,8,0:0:0:0:
256,192,50435,1,8,0:0:0:0:
256,192,50763,1,8,0:0:0:0:
256,192,51090,1,0,0:0:0:0:
256,192,51418,1,8,0:0:0:0:
256,192,51746,1,8,0:0:0:0:
256,192,52566,1,4,0:0:0:0:
256,192,52894,1,8,0:0:0:0:
256,192,53058,1,8,0:0:0:0:
256,192,53386,1,8,0:0:0:0:
256,192,53713,1,0,0:0:0:0:
256,192,54041,1,8,0:0:0:0:
256,192,54369,1,8,0:0:0:0:
256,192,55189,1,0,0:0:0:0:
256,192,55517,1,8,0:0:0:0:
256,192,55681,1,8,0:0:0:0:
256,192,56009,1,8,0:0:0:0:
256,192,56336,1,0,0:0:0:0:
256,192,56664,1,8,0:0:0:0:
256,192,56992,1,8,0:0:0:0:
256,192,57812,1,0,0:0:0:0:
256,192,58140,1,8,0:0:0:0:
256,192,58304,1,8,0:0:0:0:
256,192,58632,1,8,0:0:0:0:
256,192,58959,1,0,0:0:0:0:
256,192,59287,1,8,0:0:0:0:
256,192,59615,1,8,0:0:0:0:
256,192,60435,1,0,0:0:0:0:
256,192,60763,1,8,0:0:0:0:
256,192,60927,1,8,0:0:0:0:
256,192,61255,1,8,0:0:0:0:
256,192,61582,1,0,0:0:0:0:
256,192,61910,1,8,0:0:0:0:
256,192,62238,1,8,0:0:0:0:
256,192,63058,1,4,0:0:0:0:
256,192,63386,1,8,0:0:0:0:
256,192,63550,1,8,0:0:0:0:
256,192,63878,1,8,0:0:0:0:
256,192,64205,1,0,0:0:0:0:
256,192,64533,1,8,0:0:0:0:
256,192,64861,1,8,0:0:0:0:
256,192,65680,1,0,0:0:0:0:
256,192,66008,1,8,0:0:0:0:
256,192,66172,1,8,0:0:0:0:
256,192,66500,1,8,0:0:0:0:
256,192,66827,1,0,0:0:0:0:
256,192,67155,1,8,0:0:0:0:
256,192,67483,1,8,0:0:0:0:
256,192,68303,1,4,0:0:0:0:
256,192,68631,1,8,0:0:0:0:
256,192,68795,1,8,0:0:0:0:
256,192,69123,1,8,0:0:0:0:
256,192,69450,1,0,0:0:0:0:
256,192,69778,1,8,0:0:0:0:
256,192,70106,1,8,0:0:0:0:
256,192,70926,1,0,0:0:0:0:
256,192,71254,1,8,0:0:0:0:
256,192,71418,1,8,0:0:0:0:
256,192,71746,1,8,0:0:0:0:
256,192,72073,1,0,0:0:0:0:
256,192,72401,1,8,0:0:0:0:
256,192,72729,1,8,0:0:0:0:
256,192,73549,1,4,0:0:0:0:
256,192,73877,1,8,0:0:0:0:
256,192,74041,1,8,0:0:0:0:
256,192,74369,1,8,0:0:0:0:
256,192,74696,1,0,0:0:0:0:
256,192,75024,1,8,0:0:0:0:
256,192,75352,1,8,0:0:0:0:
256,192,76172,1,0,0:0:0:0:
256,192,76500,1,8,0:0:0:0:
256,192,76664,1,8,0:0:0:0:
256,192,76992,1,8,0:0:0:0:
256,192,77319,1,0,0:0:0:0:
256,192,77647,1,8,0:0:0:0:
256,192,77975,1,8,0:0:0:0:
256,192,78795,1,0,0:0:0:0:
256,192,79123,1,8,0:0:0:0:
256,192,79287,1,8,0:0:0:0:
256,192,79615,1,8,0:0:0:0:
256,192,79942,1,0,0:0:0:0:
256,192,80270,1,8,0:0:0:0:
256,192,80598,1,8,0:0:0:0:
256,192,81418,1,0,0:0:0:0:
256,192,81746,1,8,0:0:0:0:
256,192,81910,1,8,0:0:0:0:
256,192,82238,1,8,0:0:0:0:
256,192,82565,1,0,0:0:0:0:
256,192,82893,1,8,0:0:0:0:
256,192,83221,1,8,0:0:0:0:
256,192,84041,1,4,0:0:0:0:
256,192,84533,1,4,0:0:0:0:
256,192,85353,1,8,0:0:0:0:
256,192,85517,1,0,0:0:0:0:
256,192,85844,1,8,0:0:0:0:
256,192,86664,1,0,0:0:0:0:
256,192,86992,1,8,0:0:0:0:
256,192,87156,1,8,0:0:0:0:
256,192,87484,1,0,0:0:0:0:
256,192,87812,1,0,0:0:0:0:
256,192,88467,1,8,0:0:0:0:
256,192,89287,1,4,0:0:0:0:
256,192,89779,1,4,0:0:0:0:
256,192,90271,1,8,0:0:0:0:
256,192,90598,1,8,0:0:0:0:
256,192,90844,1,8,0:0:0:0:
256,192,91090,1,0,0:0:0:0:
256,192,91254,1,8,0:0:0:0:
256,192,91418,1,8,0:0:0:0:
256,192,91910,1,8,0:0:0:0:
256,192,92238,1,0,0:0:0:0:
256,192,92402,1,8,0:0:0:0:
256,192,92730,1,8,0:0:0:0:
256,192,93058,1,8,0:0:0:0:
256,192,93713,1,8,0:0:0:0:
256,192,94533,1,4,0:0:0:0:
256,192,95025,1,4,0:0:0:0:
256,192,95845,1,8,0:0:0:0:
256,192,96009,1,0,0:0:0:0:
256,192,96336,1,8,0:0:0:0:
256,192,97156,1,0,0:0:0:0:
256,192,97484,1,8,0:0:0:0:
256,192,97648,1,8,0:0:0:0:
256,192,97976,1,0,0:0:0:0:
256,192,98304,1,0,0:0:0:0:
256,192,98959,1,8,0:0:0:0:
256,192,99779,1,0,0:0:0:0:
256,192,100107,1,0,0:0:0:0:
256,192,100435,1,0,0:0:0:0:
256,192,101090,1,0,0:0:0:0:
256,192,101418,1,0,0:0:0:0:
256,192,101746,1,0,0:0:0:0:
256,192,102402,1,0,0:0:0:0:
256,192,102730,1,0,0:0:0:0:
256,192,103058,1,0,0:0:0:0:
256,192,103385,1,0,0:0:0:0:
256,192,103713,12,0,105025,0:0:0:0:
