osu file format v14

[General]
AudioFilename: audio.mp3
AudioLeadIn: 0
PreviewTime: 51333
Countdown: 0
SampleSet: Normal
StackLeniency: 0.7
Mode: 1
LetterboxInBreaks: 0
WidescreenStoryboard: 1

[Editor]
DistanceSpacing: 2.9
BeatDivisor: 4
GridSize: 32
TimelineZoom: 3.699999

[Metadata]
Title:Fist Bump (Cut Ver.)
TitleUnicode:Fist Bump (Cut Ver.)
Artist:Tomoya Ohtani feat. Douglas Robb (Hoobastank)
ArtistUnicode:大谷智哉 feat. Douglas Robb (Hoobastank)
Creator:_Illustrious_
Version:Oni
Source:ソニックフォース
Tags:Sonic Forces Vocal Traxx On The Edge A Hero Will Rise Original Soundtrack Main Theme Hedgehog Wave Master Entertainment 江口 貴勅 Takahito Eguchi SEGA Microsoft Sony Nintendo Xbox One XONE Playstation 4 PS4 Nintendo Switch NS PC Join Resistance 25th Anniversary videogame english rock
BeatmapID:3970421
BeatmapSetID:1923339

[Difficulty]
HPDrainRate:5
CircleSize:2
OverallDifficulty:5.5
ApproachRate:10
SliderMultiplier:1.4
SliderTickRate:1

[Events]
//Background and Video events
0,0,"for_lumenite.png",0,0
//Break Periods
//Storyboard Layer 0 (Background)
//Storyboard Layer 1 (Fail)
//Storyboard Layer 2 (Pass)
//Storyboard Layer 3 (Foreground)
//Storyboard Layer 4 (Overlay)
//Storyboard Sound Samples

[TimingPoints]
320,276.497695852535,4,1,0,40,1,0
320,-133.333333333333,4,1,0,40,0,0
4740,-121.212121212121,4,1,0,60,0,0
5985,-127.013275182677,4,1,0,60,0,0
6123,-133.349399526047,4,1,0,53,0,0
6399,-148.128318386651,4,1,0,39,0,0
6538,-156.88498251583,4,1,0,31,0,0
6676,-166.666666666667,4,1,0,25,0,0
6952,-111.111111111111,4,1,0,70,0,0
14833,-109.609460399483,4,1,0,70,0,0
14971,-108.126654249583,4,1,0,70,0,0
15109,-106.683431666505,4,1,0,70,0,0
15178,-105.97617217525,4,1,0,70,0,0
15247,-105.278228500525,4,1,0,70,0,0
15317,-104.579501279985,4,1,0,70,0,0
15386,-103.899773926149,4,1,0,70,0,0
15524,-102.5664868886,4,1,0,70,0,0
15662,-101.266984943077,4,1,0,70,0,0
15731,-100.629504607244,4,1,0,70,0,0
15800,-100,4,1,0,70,0,0
16080,-133.333333333333,4,1,0,70,0,0
22436,-111.111111111111,4,1,0,70,0,0
23681,-109.609460399483,4,1,0,70,0,0
23819,-108.126654249583,4,1,0,70,0,0
23957,-106.683431666505,4,1,0,70,0,0
24026,-105.97617217525,4,1,0,70,0,0
24095,-105.278228500525,4,1,0,70,0,0
24164,-104.589417788735,4,1,0,70,0,0
24234,-103.899773926149,4,1,0,70,0,0
24372,-102.5664868886,4,1,0,70,0,0
24510,-101.266984943077,4,1,0,70,0,0
24579,-100.629504607244,4,1,0,70,0,0
24648,-100,4,1,0,70,0,0
24928,-133.333333333333,4,1,0,70,0,0
31561,-100,4,1,0,70,0,0
32528,-98.7908643081057,4,1,0,70,0,0
32667,-97.5760792639773,4,1,0,70,0,0
32805,-96.3992309036882,4,1,0,70,0,0
32874,-95.8213882373382,4,1,0,70,0,0
32943,-95.2504317789292,4,1,0,70,0,0
33081,-94.1286909028845,4,1,0,70,0,0
33151,-93.5697319307771,4,1,0,70,0,0
33220,-93.0252171712912,4,1,0,70,0,0
33289,-92.4870031863156,4,1,0,70,0,0
33358,-91.9549812421842,4,1,0,70,0,0
33427,-91.4290450928382,4,1,0,70,0,0
33496,-90.9090909090909,4,1,0,70,0,0
33637,-111.111111111111,4,1,0,70,0,0
40270,-110.346203731418,4,1,0,70,0,0
40340,-109.962219129052,4,1,0,70,0,0
40409,-109.586326480059,4,1,0,70,0,0
40547,-108.842198494317,4,1,0,70,0,0
40685,-108.108108108108,4,1,0,70,0,0
40823,-107.383853585125,4,1,0,70,0,0
40893,-107.020175141516,4,1,0,70,0,0
40962,-106.664094898254,4,1,0,70,0,0
41100,-105.958995976241,4,1,0,70,0,0
41238,-105.263157894737,4,1,0,70,0,0
41376,-104.576399394856,4,1,0,70,0,0
41515,-103.893663989479,4,1,0,70,0,0
41653,-103.224602174623,4,1,0,70,0,0
41722,-102.893292399293,4,1,0,70,0,0
41791,-102.564102564103,4,1,0,70,0,0
41860,-102.237012386763,4,1,0,70,0,0
41929,-101.912001842893,4,1,0,70,0,0
42068,-101.263504852591,4,1,0,70,0,0
42206,-100.627786370667,4,1,0,70,0,0
42344,-100,4,1,0,70,0,0
42621,-133.333333333333,4,1,0,70,0,0
49118,-100,4,1,0,70,0,0
50432,-100.839313952074,4,1,0,70,0,0
50501,-101.692836113837,4,1,0,70,0,0
50570,-102.560930347643,4,1,0,70,0,0
50639,-103.443973047167,4,1,0,70,0,0
50708,-104.342353681561,4,1,0,70,0,0
50777,-105.256475368207,4,1,0,70,0,0
50846,-106.186755475855,4,1,0,70,0,0
50916,-107.147473180819,4,1,0,70,0,0
50985,-108.11163275952,4,1,0,70,0,0
51054,-109.09330175023,4,1,0,70,0,0
51123,-110.092961487384,4,1,0,70,0,0
51192,-111.111111111111,4,1,0,70,0,0
52163,-100,4,1,0,70,0,1
60178,-98.9420963867736,4,1,0,70,0,1
60247,-98.4214941155538,4,1,0,70,0,1
60317,-97.8989153245177,4,1,0,70,0,1
60455,-96.8847741774052,4,1,0,70,0,1
60593,-95.8914287129448,4,1,0,70,0,1
60662,-95.4023554920416,4,1,0,70,0,1
60731,-94.9182457774618,4,1,0,70,0,1
60800,-94.4390243902439,4,1,0,70,0,1
60869,-93.9646176620477,4,1,0,70,0,1
61008,-93.0232558139535,4,1,0,70,0,1
61146,-100,4,1,0,70,0,1
64464,-86.9565217391304,4,1,0,70,0,1
65155,-100,4,1,0,70,0,1
65846,-103.219785347643,4,1,0,70,0,1
65985,-104.921143128187,4,1,0,70,0,1
66261,-108.471251685669,4,1,0,70,0,1
66399,-110.337947374984,4,1,0,70,0,1
66676,-114.285714285714,4,1,0,70,0,1
66952,-118.510581301902,4,1,0,70,0,1
67091,-120.758837177562,4,1,0,70,0,1
67367,-125.470514429109,4,1,0,70,0,1
67505,-127.980164616414,4,1,0,70,0,1
67782,-133.333333333333,4,1,0,70,0,1
67920,-130.617065249483,4,1,0,70,0,1
68058,-128.009259259259,4,1,0,70,0,1
68335,-123.076923076923,4,1,0,70,0,1
68473,-120.758837177562,4,1,0,70,0,1
68611,-118.526456798393,4,1,0,70,0,1
68888,-114.285714285714,4,1,0,70,0,1
69026,-112.284263959391,4,1,0,70,0,1
69164,-110.351708655525,4,1,0,70,0,1
69303,-108.471251685669,4,1,0,70,0,1
69372,-107.561390712375,4,1,0,70,0,1
69441,-106.666666666667,4,1,0,70,0,1
69579,-104.921143128187,4,1,0,70,0,1
69717,-103.23182825808,4,1,0,70,0,1
69997,-100,4,1,0,70,0,0
70270,-102.559347181009,4,1,0,70,0,0
70409,-103.898543917332,4,1,0,70,0,0
70685,-106.664094898254,4,1,0,70,0,0
70823,-108.102824748314,4,1,0,70,0,0
70962,-109.591755846215,4,1,0,70,0,0
71100,-111.111111111111,4,1,0,70,0,0
85754,-109.606033541729,4,1,0,70,0,0
86031,-108.120013704664,4,1,0,70,0,0
86307,-106.678900854783,4,1,0,70,0,0
86584,-105.270682424705,4,1,0,70,0,0
86860,-103.904045155221,4,1,0,70,0,0
86999,-103.229122856208,4,1,0,70,0,0
87068,-102.897335569219,4,1,0,70,0,0
87137,-102.567674235037,4,1,0,70,0,0
87275,-101.914648212226,4,1,0,70,0,0
87413,-101.269884931004,4,1,0,70,0,0
87693,-133.333333333333,4,1,0,70,0,0
89905,-111.111111111111,4,1,0,70,0,0

[HitObjects]
256,192,320,5,8,0:0:0:0:
256,192,458,1,0,0:0:0:0:
256,192,596,1,0,0:0:0:0:
256,192,734,1,8,0:0:0:0:
256,192,1011,1,8,0:0:0:0:
256,192,1149,1,0,0:0:0:0:
256,192,1287,1,8,0:0:0:0:
256,192,1564,1,8,0:0:0:0:
256,192,1840,1,0,0:0:0:0:
256,192,1978,1,8,0:0:0:0:
256,192,2117,1,8,0:0:0:0:
256,192,2255,1,0,0:0:0:0:
256,192,2531,1,8,0:0:0:0:
256,192,2670,1,0,0:0:0:0:
256,192,2808,1,0,0:0:0:0:
256,192,2946,1,8,0:0:0:0:
256,192,3223,1,8,0:0:0:0:
256,192,3361,1,0,0:0:0:0:
256,192,3499,1,8,0:0:0:0:
256,192,3776,1,8,0:0:0:0:
256,192,4052,1,0,0:0:0:0:
256,192,4190,1,8,0:0:0:0:
256,192,4260,1,8,0:0:0:0:
256,192,4329,5,0,0:0:0:0:
256,192,4467,1,8,0:0:0:0:
256,192,4605,1,8,0:0:0:0:
256,192,4743,1,4,0:0:0:0:
256,192,5020,1,0,0:0:0:0:
256,192,5158,1,8,0:0:0:0:
256,192,5435,1,8,0:0:0:0:
256,192,5573,1,0,0:0:0:0:
256,192,5711,1,8,0:0:0:0:
256,192,5988,1,0,0:0:0:0:
256,192,6126,1,8,0:0:0:0:
256,192,6402,1,0,0:0:0:0:
256,192,6541,1,0,0:0:0:0:
256,192,6679,1,8,0:0:0:0:
256,192,6955,5,4,0:0:0:0:
256,192,7094,1,8,0:0:0:0:
256,192,7232,1,8,0:0:0:0:
256,192,7370,1,4,0:0:0:0:
256,192,7647,1,8,0:0:0:0:
256,192,7785,1,0,0:0:0:0:
256,192,7923,1,12,0:0:0:0:
256,192,8200,1,8,0:0:0:0:
256,192,8338,1,0,0:0:0:0:
256,192,8407,1,0,0:0:0:0:
256,192,8476,1,0,0:0:0:0:
256,192,8614,1,8,0:0:0:0:
256,192,8753,1,0,0:0:0:0:
256,192,8891,1,8,0:0:0:0:
256,192,9167,1,4,0:0:0:0:
256,192,9306,1,0,0:0:0:0:
256,192,9444,1,8,0:0:0:0:
256,192,9582,1,4,0:0:0:0:
256,192,9859,1,8,0:0:0:0:
256,192,9997,1,0,0:0:0:0:
256,192,10135,1,12,0:0:0:0:
256,192,10412,1,0,0:0:0:0:
256,192,10550,1,8,0:0:0:0:
256,192,10619,1,8,0:0:0:0:
256,192,10688,1,0,0:0:0:0:
256,192,10826,1,8,0:0:0:0:
256,192,10965,1,8,0:0:0:0:
256,192,11103,1,8,0:0:0:0:
256,192,11379,1,4,0:0:0:0:
256,192,11518,1,0,0:0:0:0:
256,192,11656,1,8,0:0:0:0:
256,192,11794,1,4,0:0:0:0:
256,192,12071,1,8,0:0:0:0:
256,192,12209,1,0,0:0:0:0:
256,192,12347,1,12,0:0:0:0:
256,192,12624,1,8,0:0:0:0:
256,192,12762,1,0,0:0:0:0:
256,192,12831,1,0,0:0:0:0:
256,192,12900,1,0,0:0:0:0:
256,192,13038,1,8,0:0:0:0:
256,192,13177,1,0,0:0:0:0:
256,192,13315,1,8,0:0:0:0:
256,192,13591,1,4,0:0:0:0:
256,192,13868,1,8,0:0:0:0:
256,192,14006,1,0,0:0:0:0:
256,192,14144,1,8,0:0:0:0:
256,192,14214,1,8,0:0:0:0:
256,192,14283,1,0,0:0:0:0:
256,192,14421,1,8,0:0:0:0:
256,192,14559,1,8,0:0:0:0:
256,192,14697,1,4,0:0:0:0:
256,192,14836,1,0,0:0:0:0:
256,192,14974,1,8,0:0:0:0:
256,192,15112,1,0,0:0:0:0:
256,192,15181,1,0,0:0:0:0:
256,192,15250,1,8,0:0:0:0:
256,192,15389,1,8,0:0:0:0:
256,192,15527,1,0,0:0:0:0:
256,192,15803,1,4,0:0:0:0:
256,192,16080,1,8,0:0:0:0:
256,192,16356,1,0,0:0:0:0:
256,192,16633,1,0,0:0:0:0:
256,192,16909,1,8,0:0:0:0:
256,192,17186,1,0,0:0:0:0:
256,192,17324,1,8,0:0:0:0:
256,192,17462,1,0,0:0:0:0:
256,192,17739,1,8,0:0:0:0:
256,192,17877,1,8,0:0:0:0:
256,192,18015,1,0,0:0:0:0:
256,192,18292,1,8,0:0:0:0:
256,192,18568,1,0,0:0:0:0:
256,192,18845,1,8,0:0:0:0:
256,192,19121,1,8,0:0:0:0:
256,192,19398,1,8,0:0:0:0:
256,192,19536,1,0,0:0:0:0:
256,192,19813,1,8,0:0:0:0:
256,192,19951,1,0,0:0:0:0:
256,192,20089,1,8,0:0:0:0:
256,192,20227,1,0,0:0:0:0:
256,192,20504,1,8,0:0:0:0:
256,192,20780,1,0,0:0:0:0:
256,192,21057,1,8,0:0:0:0:
256,192,21333,1,0,0:0:0:0:
256,192,21610,1,8,0:0:0:0:
256,192,21748,1,0,0:0:0:0:
256,192,21817,1,0,0:0:0:0:
256,192,21886,1,0,0:0:0:0:
256,192,22025,1,0,0:0:0:0:
256,192,22163,1,8,0:0:0:0:
256,192,22439,1,8,0:0:0:0:
256,192,22578,1,8,0:0:0:0:
256,192,22716,1,4,0:0:0:0:
256,192,22992,1,4,0:0:0:0:
256,192,23269,1,4,0:0:0:0:
256,192,23545,1,12,0:0:0:0:
256,192,23684,1,0,0:0:0:0:
256,192,23822,1,8,0:0:0:0:
256,192,23960,1,0,0:0:0:0:
256,192,24029,1,0,0:0:0:0:
256,192,24098,1,8,0:0:0:0:
256,192,24237,1,8,0:0:0:0:
256,192,24375,1,0,0:0:0:0:
256,192,24513,1,0,0:0:0:0:
256,192,24582,1,0,0:0:0:0:
256,192,24651,1,12,0:0:0:0:
256,192,24928,1,8,0:0:0:0:
256,192,25066,1,0,0:0:0:0:
256,192,25204,1,0,0:0:0:0:
256,192,25343,1,0,0:0:0:0:
256,192,25481,1,8,0:0:0:0:
256,192,25757,1,0,0:0:0:0:
256,192,26034,1,8,0:0:0:0:
256,192,26172,1,8,0:0:0:0:
256,192,26241,1,8,0:0:0:0:
256,192,26310,1,0,0:0:0:0:
256,192,26449,1,0,0:0:0:0:
256,192,26587,1,8,0:0:0:0:
256,192,26863,1,0,0:0:0:0:
256,192,27140,1,8,0:0:0:0:
256,192,27278,1,0,0:0:0:0:
256,192,27347,1,0,0:0:0:0:
256,192,27416,1,8,0:0:0:0:
256,192,27555,1,8,0:0:0:0:
256,192,27693,1,0,0:0:0:0:
256,192,27969,1,8,0:0:0:0:
256,192,28108,1,0,0:0:0:0:
256,192,28246,1,8,0:0:0:0:
256,192,28384,1,0,0:0:0:0:
256,192,28453,1,0,0:0:0:0:
256,192,28522,1,0,0:0:0:0:
256,192,28661,1,0,0:0:0:0:
256,192,28799,1,8,0:0:0:0:
256,192,29075,1,4,0:0:0:0:
256,192,29214,1,0,0:0:0:0:
256,192,29352,1,8,0:0:0:0:
256,192,29490,1,0,0:0:0:0:
256,192,29628,1,8,0:0:0:0:
256,192,29905,1,8,0:0:0:0:
256,192,30181,1,8,0:0:0:0:
256,192,30320,1,8,0:0:0:0:
256,192,30458,1,0,0:0:0:0:
256,192,30596,1,8,0:0:0:0:
256,192,30665,1,8,0:0:0:0:
256,192,30734,1,8,0:0:0:0:
256,192,30872,1,0,0:0:0:0:
256,192,31011,1,8,0:0:0:0:
256,192,31149,1,0,0:0:0:0:
256,192,31287,1,0,0:0:0:0:
256,192,31564,1,12,0:0:0:0:
256,192,31840,1,4,0:0:0:0:
256,192,32117,1,12,0:0:0:0:
256,192,32393,1,4,0:0:0:0:
256,192,32670,1,8,0:0:0:0:
256,192,32808,1,8,0:0:0:0:
256,192,32877,1,8,0:0:0:0:
256,192,32946,1,4,0:0:0:0:
256,192,33084,1,0,0:0:0:0:
256,192,33223,1,8,0:0:0:0:
256,192,33292,1,8,0:0:0:0:
256,192,33361,1,8,0:0:0:0:
256,192,33499,1,4,0:0:0:0:
256,192,33637,1,0,0:0:0:0:
256,192,33776,1,8,0:0:0:0:
256,192,33914,1,4,0:0:0:0:
256,192,34190,1,8,0:0:0:0:
256,192,34329,1,0,0:0:0:0:
256,192,34467,1,12,0:0:0:0:
256,192,34743,1,0,0:0:0:0:
256,192,34882,1,8,0:0:0:0:
256,192,35020,1,0,0:0:0:0:
256,192,35089,1,0,0:0:0:0:
256,192,35158,1,8,0:0:0:0:
256,192,35296,1,8,0:0:0:0:
256,192,35435,1,0,0:0:0:0:
256,192,35573,1,8,0:0:0:0:
256,192,35711,1,4,0:0:0:0:
256,192,35849,1,8,0:0:0:0:
256,192,35988,1,8,0:0:0:0:
256,192,36126,1,4,0:0:0:0:
256,192,36402,1,0,0:0:0:0:
256,192,36541,1,0,0:0:0:0:
256,192,36679,1,12,0:0:0:0:
256,192,36955,1,8,0:0:0:0:
256,192,37094,1,8,0:0:0:0:
256,192,37163,1,8,0:0:0:0:
256,192,37232,1,0,0:0:0:0:
256,192,37370,1,8,0:0:0:0:
256,192,37508,1,8,0:0:0:0:
256,192,37647,1,0,0:0:0:0:
256,192,37716,1,0,0:0:0:0:
256,192,37785,1,8,0:0:0:0:
256,192,37923,1,4,0:0:0:0:
256,192,38061,1,8,0:0:0:0:
256,192,38200,1,8,0:0:0:0:
256,192,38338,1,4,0:0:0:0:
256,192,38614,1,8,0:0:0:0:
256,192,38753,1,0,0:0:0:0:
256,192,38891,1,12,0:0:0:0:
256,192,39167,1,0,0:0:0:0:
256,192,39306,1,8,0:0:0:0:
256,192,39375,1,8,0:0:0:0:
256,192,39444,1,0,0:0:0:0:
256,192,39513,1,0,0:0:0:0:
256,192,39582,1,8,0:0:0:0:
256,192,39720,1,8,0:0:0:0:
256,192,39859,1,0,0:0:0:0:
256,192,39997,1,8,0:0:0:0:
256,192,40135,1,4,0:0:0:0:
256,192,40273,1,8,0:0:0:0:
256,192,40343,1,8,0:0:0:0:
256,192,40412,1,8,0:0:0:0:
256,192,40550,1,8,0:0:0:0:
256,192,40688,1,4,0:0:0:0:
256,192,40826,1,8,0:0:0:0:
256,192,40896,1,8,0:0:0:0:
256,192,40965,1,0,0:0:0:0:
256,192,41103,1,0,0:0:0:0:
256,192,41241,1,12,0:0:0:0:
256,192,41518,1,8,0:0:0:0:
256,192,41656,1,0,0:0:0:0:
256,192,41725,1,0,0:0:0:0:
256,192,41794,1,8,0:0:0:0:
256,192,41863,1,0,0:0:0:0:
256,192,41932,1,8,0:0:0:0:
256,192,42071,1,0,0:0:0:0:
256,192,42209,1,8,0:0:0:0:
256,192,42347,1,4,0:0:0:0:
256,192,42624,1,8,0:0:0:0:
256,192,42762,1,0,0:0:0:0:
256,192,43038,1,8,0:0:0:0:
256,192,43315,1,0,0:0:0:0:
256,192,43591,1,0,0:0:0:0:
256,192,43730,1,0,0:0:0:0:
256,192,44006,1,8,0:0:0:0:
256,192,44144,1,8,0:0:0:0:
256,192,44283,1,0,0:0:0:0:
256,192,44559,1,8,0:0:0:0:
256,192,44836,1,0,0:0:0:0:
256,192,44974,1,0,0:0:0:0:
256,192,45250,1,8,0:0:0:0:
256,192,45527,1,0,0:0:0:0:
256,192,45803,1,0,0:0:0:0:
256,192,45942,1,0,0:0:0:0:
256,192,46218,1,8,0:0:0:0:
256,192,46495,1,8,0:0:0:0:
256,192,46771,1,4,0:0:0:0:
256,192,47048,1,8,0:0:0:0:
256,192,47186,1,0,0:0:0:0:
256,192,47324,1,0,0:0:0:0:
256,192,47462,1,8,0:0:0:0:
256,192,47601,1,0,0:0:0:0:
256,192,47739,1,8,0:0:0:0:
256,192,47877,1,0,0:0:0:0:
256,192,48154,1,0,0:0:0:0:
256,192,48292,1,0,0:0:0:0:
256,192,48430,1,8,0:0:0:0:
256,192,48568,1,0,0:0:0:0:
256,192,48707,1,8,0:0:0:0:
256,192,48983,1,0,0:0:0:0:
256,192,49121,1,12,0:0:0:0:
256,192,49260,1,12,0:0:0:0:
256,192,49536,1,12,0:0:0:0:
256,192,49674,1,12,0:0:0:0:
256,192,49951,1,12,0:0:0:0:
256,192,50227,1,12,0:0:0:0:
256,192,50366,1,0,0:0:0:0:
256,192,50504,1,0,0:0:0:0:
256,192,50573,1,0,0:0:0:0:
256,192,50642,1,8,0:0:0:0:
256,192,50780,1,0,0:0:0:0:
256,192,50919,1,8,0:0:0:0:
256,192,50988,1,8,0:0:0:0:
256,192,51057,1,8,0:0:0:0:
256,192,51126,1,8,0:0:0:0:
256,192,51195,1,4,0:0:0:0:
256,192,52163,1,4,0:0:0:0:
256,192,52439,1,8,0:0:0:0:
256,192,52578,1,8,0:0:0:0:
256,192,52647,1,8,0:0:0:0:
256,192,52716,1,0,0:0:0:0:
256,192,52854,1,8,0:0:0:0:
256,192,52992,1,0,0:0:0:0:
256,192,53131,1,8,0:0:0:0:
256,192,53407,1,0,0:0:0:0:
256,192,53545,1,0,0:0:0:0:
256,192,53684,1,8,0:0:0:0:
256,192,53822,1,0,0:0:0:0:
256,192,54098,1,8,0:0:0:0:
256,192,54167,1,8,0:0:0:0:
256,192,54237,1,8,0:0:0:0:
256,192,54375,1,4,0:0:0:0:
256,192,54651,1,8,0:0:0:0:
256,192,54790,1,8,0:0:0:0:
256,192,54859,1,8,0:0:0:0:
256,192,54928,1,0,0:0:0:0:
256,192,54997,1,0,0:0:0:0:
256,192,55066,1,8,0:0:0:0:
256,192,55204,1,0,0:0:0:0:
256,192,55343,1,8,0:0:0:0:
256,192,55619,1,8,0:0:0:0:
256,192,55757,1,0,0:0:0:0:
256,192,55826,1,0,0:0:0:0:
256,192,55896,1,8,0:0:0:0:
256,192,56034,1,0,0:0:0:0:
256,192,56310,1,0,0:0:0:0:
256,192,56449,1,8,0:0:0:0:
256,192,56587,1,4,0:0:0:0:
256,192,56863,1,8,0:0:0:0:
256,192,56932,1,8,0:0:0:0:
256,192,57002,1,8,0:0:0:0:
256,192,57140,1,0,0:0:0:0:
256,192,57278,1,8,0:0:0:0:
256,192,57347,1,0,0:0:0:0:
256,192,57416,1,0,0:0:0:0:
256,192,57485,1,0,0:0:0:0:
256,192,57555,1,8,0:0:0:0:
256,192,57693,1,0,0:0:0:0:
256,192,57831,1,8,0:0:0:0:
256,192,57900,1,0,0:0:0:0:
256,192,57969,1,8,0:0:0:0:
256,192,58108,1,0,0:0:0:0:
256,192,58246,1,8,0:0:0:0:
256,192,58522,1,0,0:0:0:0:
256,192,58661,1,0,0:0:0:0:
256,192,58799,1,12,0:0:0:0:
256,192,59075,1,0,0:0:0:0:
256,192,59214,1,8,0:0:0:0:
256,192,59352,1,0,0:0:0:0:
256,192,59490,1,0,0:0:0:0:
256,192,59559,1,0,0:0:0:0:
256,192,59628,1,0,0:0:0:0:
256,192,59767,1,8,0:0:0:0:
256,192,60043,1,8,0:0:0:0:
256,192,60181,1,0,0:0:0:0:
256,192,60250,1,0,0:0:0:0:
256,192,60320,1,8,0:0:0:0:
256,192,60458,1,0,0:0:0:0:
256,192,60596,1,8,0:0:0:0:
256,192,60665,1,8,0:0:0:0:
256,192,60734,1,0,0:0:0:0:
256,192,61011,1,12,0:0:0:0:
256,192,61287,1,0,0:0:0:0:
256,192,61356,1,0,0:0:0:0:
256,192,61425,1,8,0:0:0:0:
256,192,61564,1,0,0:0:0:0:
256,192,61702,1,8,0:0:0:0:
256,192,61771,1,8,0:0:0:0:
256,192,61840,1,0,0:0:0:0:
256,192,61909,1,0,0:0:0:0:
256,192,61978,1,8,0:0:0:0:
256,192,62117,1,0,0:0:0:0:
256,192,62255,1,8,0:0:0:0:
256,192,62324,1,8,0:0:0:0:
256,192,62393,1,8,0:0:0:0:
256,192,62531,1,0,0:0:0:0:
256,192,62670,1,8,0:0:0:0:
256,192,62946,1,0,0:0:0:0:
256,192,63084,1,8,0:0:0:0:
256,192,63223,1,4,0:0:0:0:
256,192,63499,1,0,0:0:0:0:
256,192,63568,1,0,0:0:0:0:
256,192,63637,1,8,0:0:0:0:
256,192,63776,1,0,0:0:0:0:
256,192,63914,1,8,0:0:0:0:
256,192,63983,1,0,0:0:0:0:
256,192,64052,1,0,0:0:0:0:
256,192,64121,1,0,0:0:0:0:
256,192,64190,1,8,0:0:0:0:
256,192,64467,1,12,0:0:0:0:
256,192,64605,1,12,0:0:0:0:
256,192,64882,1,4,0:0:0:0:
256,192,65158,1,0,0:0:0:0:
256,192,65296,1,8,0:0:0:0:
256,192,65435,1,0,0:0:0:0:
256,192,65573,1,12,0:0:0:0:
256,192,65849,1,8,0:0:0:0:
256,192,65988,1,0,0:0:0:0:
256,192,66264,1,0,0:0:0:0:
256,192,66402,1,8,0:0:0:0:
256,192,66679,1,4,0:0:0:0:
256,192,66955,1,8,0:0:0:0:
256,192,67094,1,8,0:0:0:0:
256,192,67370,1,0,0:0:0:0:
256,192,67508,1,8,0:0:0:0:
256,192,67785,1,4,0:0:0:0:
256,192,67923,1,8,0:0:0:0:
256,192,68061,1,4,0:0:0:0:
256,192,68338,1,12,0:0:0:0:
256,192,68476,1,0,0:0:0:0:
256,192,68614,1,12,0:0:0:0:
256,192,68891,1,4,0:0:0:0:
256,192,69029,1,8,0:0:0:0:
256,192,69167,1,0,0:0:0:0:
256,192,69306,1,0,0:0:0:0:
256,192,69375,1,0,0:0:0:0:
256,192,69444,1,8,0:0:0:0:
256,192,69582,1,0,0:0:0:0:
256,192,69720,1,8,0:0:0:0:
256,192,69997,1,4,0:0:0:0:
256,192,70273,1,8,0:0:0:0:
256,192,70412,1,0,0:0:0:0:
256,192,70688,1,0,0:0:0:0:
256,192,70826,1,8,0:0:0:0:
256,192,71103,1,0,0:0:0:0:
256,192,71379,1,8,0:0:0:0:
256,192,71518,1,0,0:0:0:0:
256,192,71656,1,0,0:0:0:0:
256,192,71794,1,0,0:0:0:0:
256,192,71932,1,8,0:0:0:0:
256,192,72209,1,0,0:0:0:0:
256,192,72485,1,8,0:0:0:0:
256,192,72624,1,0,0:0:0:0:
256,192,72900,1,0,0:0:0:0:
256,192,73038,1,8,0:0:0:0:
256,192,73177,1,8,0:0:0:0:
256,192,73315,1,0,0:0:0:0:
256,192,73591,1,8,0:0:0:0:
256,192,73730,1,8,0:0:0:0:
256,192,73868,1,0,0:0:0:0:
256,192,74006,1,0,0:0:0:0:
256,192,74144,1,8,0:0:0:0:
256,192,74421,1,4,0:0:0:0:
256,192,74697,1,8,0:0:0:0:
256,192,74836,1,0,0:0:0:0:
256,192,75112,1,0,0:0:0:0:
256,192,75250,1,8,0:0:0:0:
256,192,75527,1,0,0:0:0:0:
256,192,75803,1,8,0:0:0:0:
256,192,75942,1,8,0:0:0:0:
256,192,76080,1,0,0:0:0:0:
256,192,76218,1,0,0:0:0:0:
256,192,76356,1,8,0:0:0:0:
256,192,76633,1,0,0:0:0:0:
256,192,76909,1,8,0:0:0:0:
256,192,77048,1,0,0:0:0:0:
256,192,77324,1,0,0:0:0:0:
256,192,77462,1,8,0:0:0:0:
256,192,77601,1,8,0:0:0:0:
256,192,77739,1,0,0:0:0:0:
256,192,78015,1,8,0:0:0:0:
256,192,78154,1,0,0:0:0:0:
256,192,78292,1,0,0:0:0:0:
256,192,78430,1,0,0:0:0:0:
256,192,78568,1,8,0:0:0:0:
256,192,78845,1,12,0:0:0:0:
256,192,79121,1,8,0:0:0:0:
256,192,79260,1,0,0:0:0:0:
256,192,79536,1,0,0:0:0:0:
256,192,79674,1,8,0:0:0:0:
256,192,79951,1,0,0:0:0:0:
256,192,80227,1,8,0:0:0:0:
256,192,80366,1,0,0:0:0:0:
256,192,80642,1,0,0:0:0:0:
256,192,80780,1,8,0:0:0:0:
256,192,80919,1,0,0:0:0:0:
256,192,81057,1,0,0:0:0:0:
256,192,81333,1,8,0:0:0:0:
256,192,81472,1,0,0:0:0:0:
256,192,81748,1,0,0:0:0:0:
256,192,82025,1,8,0:0:0:0:
256,192,82301,1,0,0:0:0:0:
256,192,82439,1,8,0:0:0:0:
256,192,82716,1,0,0:0:0:0:
256,192,82992,1,8,0:0:0:0:
256,192,83131,1,8,0:0:0:0:
256,192,83269,5,0,0:0:0:0:
256,192,83407,1,8,0:0:0:0:
256,192,83684,1,8,0:0:0:0:
256,192,83960,1,0,0:0:0:0:
256,192,84237,1,8,0:0:0:0:
256,192,84375,1,0,0:0:0:0:
256,192,84651,1,0,0:0:0:0:
256,192,84790,1,0,0:0:0:0:
256,192,84928,1,8,0:0:0:0:
256,192,85204,1,0,0:0:0:0:
256,192,85481,1,4,0:0:0:0:
256,192,85757,1,0,0:0:0:0:
256,192,86034,1,12,0:0:0:0:
256,192,86310,1,0,0:0:0:0:
256,192,86587,1,12,0:0:0:0:
256,192,86863,1,8,0:0:0:0:
256,192,87002,1,8,0:0:0:0:
256,192,87140,1,4,0:0:0:0:
256,192,87416,1,0,0:0:0:0:
256,192,87693,1,8,0:0:0:0:
256,192,87831,12,0,89767,0:0:0:0:
256,192,89905,5,4,0:0:0:0:
