osu file format v14

[General]
AudioFilename: audio.mp3
AudioLeadIn: 0
PreviewTime: 51333
Countdown: 0
SampleSet: Normal
StackLeniency: 0.7
Mode: 1
LetterboxInBreaks: 0
WidescreenStoryboard: 1

[Editor]
DistanceSpacing: 2.9
BeatDivisor: 4
GridSize: 32
TimelineZoom: 2

[Metadata]
Title:Fist Bump (Cut Ver.)
TitleUnicode:Fist Bump (Cut Ver.)
Artist:Tomoya Ohtani feat. Douglas Robb (Hoobastank)
ArtistUnicode:大谷智哉 feat. Douglas Robb (Hoobastank)
Creator:_Illustrious_
Version:Muzukashii
Source:ソニックフォース
Tags:Sonic Forces Vocal Traxx On The Edge A Hero Will Rise Original Soundtrack Main Theme Hedgehog Wave Master Entertainment 江口 貴勅 Takahito Eguchi SEGA Microsoft Sony Nintendo Xbox One XONE Playstation 4 PS4 Nintendo Switch NS PC Join Resistance 25th Anniversary videogame english rock
BeatmapID:3970420
BeatmapSetID:1923339

[Difficulty]
HPDrainRate:6
CircleSize:2
OverallDifficulty:5
ApproachRate:10
SliderMultiplier:1.4
SliderTickRate:1

[Events]
//Background and Video events
0,0,"for_lumenite.png",0,0
//Break Periods
//Storyboard Layer 0 (Background)
//Storyboard Layer 1 (Fail)
//Storyboard Layer 2 (Pass)
//Storyboard Layer 3 (Foreground)
//Storyboard Layer 4 (Overlay)
//Storyboard Sound Samples

[TimingPoints]
320,276.497695852535,4,1,0,40,1,0
320,-133.333333333333,4,1,0,40,0,0
4740,-121.212121212121,4,1,0,70,0,0
5985,-123.051742737046,4,1,0,60,0,0
6123,-124.976387472137,4,1,0,53,0,0
6399,-129.012129012129,4,1,0,39,0,0
6676,-133.333333333333,4,1,0,25,0,0
6952,-111.111111111111,4,1,0,70,0,0
14971,-109.598569157393,4,1,0,70,0,0
15109,-108.852264877134,4,1,0,70,0,0
15178,-108.482911236784,4,1,0,70,0,0
15247,-108.116055675358,4,1,0,70,0,0
15386,-107.38451053887,4,1,0,70,0,0
15524,-106.667956094966,4,1,0,70,0,0
15800,-105.263157894737,4,1,0,70,0,0
16080,-133.333333333333,4,1,0,70,0,0
22436,-111.111111111111,4,1,0,70,0,0
24928,-133.333333333333,4,1,0,70,0,0
31561,-111.111111111111,4,1,0,70,0,0
32667,-109.598569157393,4,1,0,70,0,0
32736,-109.224142199337,4,1,0,70,0,0
32805,-108.852264877134,4,1,0,70,0,0
32943,-108.116055675358,4,1,0,70,0,0
33220,-106.667956094966,4,1,0,70,0,0
33289,-106.313253012048,4,1,0,70,0,0
33358,-105.960901099957,4,1,0,70,0,0
33496,-105.263157894737,4,1,0,70,0,0
33914,-121.212121212121,4,1,0,70,0,0
40409,-119.860551553873,4,1,0,70,0,0
40685,-118.529250003354,4,1,0,70,0,0
40962,-117.222531773196,4,1,0,70,0,0
41238,-115.948875416634,4,1,0,70,0,0
41515,-114.69813206641,4,1,0,70,0,0
41653,-114.085034408852,4,1,0,70,0,0
41722,-113.780936928584,4,1,0,70,0,0
41791,-113.478456302575,4,1,0,70,0,0
41929,-112.878294306263,4,1,0,70,0,0
42068,-112.280166717495,4,1,0,70,0,0
42344,-111.111111111111,4,1,0,70,0,0
42762,-133.333333333333,4,1,0,70,0,0
49118,-100,4,1,0,70,0,0
50639,-103.443973047167,4,1,0,70,0,0
50777,-105.256475368207,4,1,0,70,0,0
51192,-111.111111111111,4,1,0,70,0,0
52163,-100,4,1,0,70,0,1
69997,-100,4,1,0,70,0,0
70273,-102.559347181009,4,1,0,70,0,0
70685,-106.664094898254,4,1,0,70,0,0
70823,-108.102824748314,4,1,0,70,0,0
70962,-109.591755846215,4,1,0,70,0,0
71100,-111.111111111111,4,1,0,70,0,0
85754,-130.117217411792,4,1,0,70,0,0
86031,-127.00876814719,4,1,0,70,0,0
86307,-124.055822312077,4,1,0,70,0,0
86584,-121.227088135221,4,1,0,70,0,0
86860,-118.534020176003,4,1,0,70,0,0
87137,-115.948875416634,4,1,0,70,0,0
87690,-133.333333333333,4,1,0,70,0,0
89905,-111.111111111111,4,1,0,70,0,0

[HitObjects]
256,192,320,5,8,0:0:0:0:
256,192,734,1,8,0:0:0:0:
256,192,1011,1,8,0:0:0:0:
256,192,1149,1,0,0:0:0:0:
256,192,1287,1,8,0:0:0:0:
256,192,1564,1,8,0:0:0:0:
256,192,1840,1,0,0:0:0:0:
256,192,1978,1,8,0:0:0:0:
256,192,2117,1,8,0:0:0:0:
256,192,2255,1,0,0:0:0:0:
256,192,2531,1,8,0:0:0:0:
256,192,2946,1,8,0:0:0:0:
256,192,3223,1,8,0:0:0:0:
256,192,3361,1,0,0:0:0:0:
256,192,3499,1,8,0:0:0:0:
256,192,3776,1,8,0:0:0:0:
256,192,4052,1,0,0:0:0:0:
256,192,4190,1,8,0:0:0:0:
256,192,4329,1,8,0:0:0:0:
256,192,4467,1,0,0:0:0:0:
256,192,4605,1,0,0:0:0:0:
256,192,4743,1,12,0:0:0:0:
256,192,5158,1,8,0:0:0:0:
256,192,5435,1,8,0:0:0:0:
256,192,5573,1,0,0:0:0:0:
256,192,5711,1,8,0:0:0:0:
256,192,5988,1,0,0:0:0:0:
256,192,6126,1,8,0:0:0:0:
256,192,6402,1,0,0:0:0:0:
256,192,6679,1,8,0:0:0:0:
256,192,6955,5,4,0:0:0:0:
256,192,7232,1,8,0:0:0:0:
256,192,7370,1,4,0:0:0:0:
256,192,7647,1,0,0:0:0:0:
256,192,7716,1,0,0:0:0:0:
256,192,7785,1,0,0:0:0:0:
256,192,7923,1,12,0:0:0:0:
256,192,8338,1,8,0:0:0:0:
256,192,8476,1,8,0:0:0:0:
256,192,8614,1,0,0:0:0:0:
256,192,8753,1,0,0:0:0:0:
256,192,8891,1,8,0:0:0:0:
256,192,9167,5,4,0:0:0:0:
256,192,9444,1,8,0:0:0:0:
256,192,9582,1,4,0:0:0:0:
256,192,9859,1,0,0:0:0:0:
256,192,9928,1,0,0:0:0:0:
256,192,9997,1,0,0:0:0:0:
256,192,10135,1,12,0:0:0:0:
256,192,10550,1,8,0:0:0:0:
256,192,10688,1,0,0:0:0:0:
256,192,10965,1,0,0:0:0:0:
256,192,11103,1,8,0:0:0:0:
256,192,11379,5,4,0:0:0:0:
256,192,11656,1,8,0:0:0:0:
256,192,11794,1,4,0:0:0:0:
256,192,12071,1,8,0:0:0:0:
256,192,12140,1,8,0:0:0:0:
256,192,12209,1,8,0:0:0:0:
256,192,12347,1,12,0:0:0:0:
256,192,12762,1,8,0:0:0:0:
256,192,12900,1,0,0:0:0:0:
256,192,13177,1,0,0:0:0:0:
256,192,13315,1,8,0:0:0:0:
256,192,13591,1,8,0:0:0:0:
256,192,13730,1,0,0:0:0:0:
256,192,13868,1,8,0:0:0:0:
256,192,14006,1,8,0:0:0:0:
256,192,14144,1,0,0:0:0:0:
256,192,14283,1,0,0:0:0:0:
256,192,14421,1,8,0:0:0:0:
256,192,14697,1,12,0:0:0:0:
256,192,14974,1,8,0:0:0:0:
256,192,15112,1,8,0:0:0:0:
256,192,15181,1,8,0:0:0:0:
256,192,15250,1,8,0:0:0:0:
256,192,15389,1,8,0:0:0:0:
256,192,15527,1,0,0:0:0:0:
256,192,15803,1,12,0:0:0:0:
256,192,16080,1,0,0:0:0:0:
256,192,16356,1,0,0:0:0:0:
256,192,16633,1,0,0:0:0:0:
256,192,16909,1,8,0:0:0:0:
256,192,17186,1,0,0:0:0:0:
256,192,17324,1,8,0:0:0:0:
256,192,17462,1,0,0:0:0:0:
256,192,17739,1,0,0:0:0:0:
256,192,18015,1,8,0:0:0:0:
256,192,18292,1,8,0:0:0:0:
256,192,18568,1,0,0:0:0:0:
256,192,18845,1,0,0:0:0:0:
256,192,19121,1,8,0:0:0:0:
256,192,19398,1,8,0:0:0:0:
256,192,19536,1,8,0:0:0:0:
256,192,19674,1,0,0:0:0:0:
256,192,19951,1,8,0:0:0:0:
256,192,20227,1,0,0:0:0:0:
256,192,20504,1,8,0:0:0:0:
256,192,20780,1,0,0:0:0:0:
256,192,21057,1,8,0:0:0:0:
256,192,21333,1,0,0:0:0:0:
256,192,21610,1,8,0:0:0:0:
256,192,21748,1,0,0:0:0:0:
256,192,22025,1,0,0:0:0:0:
256,192,22163,1,8,0:0:0:0:
256,192,22439,1,8,0:0:0:0:
256,192,22716,1,4,0:0:0:0:
256,192,22992,1,4,0:0:0:0:
256,192,23269,1,4,0:0:0:0:
256,192,23545,1,12,0:0:0:0:
256,192,23822,1,8,0:0:0:0:
256,192,23891,1,8,0:0:0:0:
256,192,23960,1,8,0:0:0:0:
256,192,24098,1,0,0:0:0:0:
256,192,24375,1,0,0:0:0:0:
256,192,24444,1,0,0:0:0:0:
256,192,24513,1,0,0:0:0:0:
256,192,24651,1,12,0:0:0:0:
256,192,24928,1,0,0:0:0:0:
256,192,25066,1,8,0:0:0:0:
256,192,25204,1,0,0:0:0:0:
256,192,25481,1,8,0:0:0:0:
256,192,25757,1,0,0:0:0:0:
256,192,26034,1,8,0:0:0:0:
256,192,26172,1,0,0:0:0:0:
256,192,26449,1,0,0:0:0:0:
256,192,26587,1,8,0:0:0:0:
256,192,26863,1,0,0:0:0:0:
256,192,27140,1,8,0:0:0:0:
256,192,27278,1,0,0:0:0:0:
256,192,27416,1,8,0:0:0:0:
256,192,27693,1,0,0:0:0:0:
256,192,27969,1,8,0:0:0:0:
256,192,28246,1,8,0:0:0:0:
256,192,28384,1,8,0:0:0:0:
256,192,28522,1,0,0:0:0:0:
256,192,28661,1,0,0:0:0:0:
256,192,28799,1,8,0:0:0:0:
256,192,29075,1,4,0:0:0:0:
256,192,29352,1,8,0:0:0:0:
256,192,29490,1,0,0:0:0:0:
256,192,29628,1,8,0:0:0:0:
256,192,29905,1,0,0:0:0:0:
256,192,30181,1,8,0:0:0:0:
256,192,30320,1,8,0:0:0:0:
256,192,30458,1,0,0:0:0:0:
256,192,30596,1,8,0:0:0:0:
256,192,30872,1,0,0:0:0:0:
256,192,31011,1,8,0:0:0:0:
256,192,31149,1,0,0:0:0:0:
256,192,31287,1,0,0:0:0:0:
256,192,31564,1,12,0:0:0:0:
256,192,31840,1,12,0:0:0:0:
256,192,32117,1,12,0:0:0:0:
256,192,32393,1,4,0:0:0:0:
256,192,32670,1,8,0:0:0:0:
256,192,32739,1,8,0:0:0:0:
256,192,32808,1,8,0:0:0:0:
256,192,32946,1,0,0:0:0:0:
256,192,33223,1,0,0:0:0:0:
256,192,33292,1,0,0:0:0:0:
256,192,33361,1,0,0:0:0:0:
256,192,33499,1,12,0:0:0:0:
256,192,33914,1,12,0:0:0:0:
256,192,34190,1,4,0:0:0:0:
256,192,34467,1,12,0:0:0:0:
256,192,34882,1,8,0:0:0:0:
256,192,35020,1,0,0:0:0:0:
256,192,35158,1,0,0:0:0:0:
256,192,35296,1,0,0:0:0:0:
256,192,35435,1,8,0:0:0:0:
256,192,35711,1,12,0:0:0:0:
256,192,36126,1,12,0:0:0:0:
256,192,36402,1,4,0:0:0:0:
256,192,36679,1,12,0:0:0:0:
256,192,36955,1,0,0:0:0:0:
256,192,37094,1,8,0:0:0:0:
256,192,37232,1,0,0:0:0:0:
256,192,37647,1,8,0:0:0:0:
256,192,37923,1,12,0:0:0:0:
256,192,38338,1,12,0:0:0:0:
256,192,38614,1,4,0:0:0:0:
256,192,38891,1,12,0:0:0:0:
256,192,39306,1,8,0:0:0:0:
256,192,39444,1,8,0:0:0:0:
256,192,39582,1,0,0:0:0:0:
256,192,39720,1,0,0:0:0:0:
256,192,39859,1,8,0:0:0:0:
256,192,40135,1,4,0:0:0:0:
256,192,40412,1,4,0:0:0:0:
256,192,40688,1,12,0:0:0:0:
256,192,40965,1,4,0:0:0:0:
256,192,41241,1,12,0:0:0:0:
256,192,41518,1,0,0:0:0:0:
256,192,41656,1,8,0:0:0:0:
256,192,41725,1,8,0:0:0:0:
256,192,41794,1,8,0:0:0:0:
256,192,41932,1,8,0:0:0:0:
256,192,42071,1,0,0:0:0:0:
256,192,42347,1,12,0:0:0:0:
256,192,42762,1,8,0:0:0:0:
256,192,43038,1,0,0:0:0:0:
256,192,43315,1,8,0:0:0:0:
256,192,43591,1,0,0:0:0:0:
256,192,43730,1,0,0:0:0:0:
256,192,44006,1,8,0:0:0:0:
256,192,44283,1,0,0:0:0:0:
256,192,44559,1,8,0:0:0:0:
256,192,44836,1,8,0:0:0:0:
256,192,44974,1,0,0:0:0:0:
256,192,45250,1,8,0:0:0:0:
256,192,45527,1,8,0:0:0:0:
256,192,45803,1,0,0:0:0:0:
256,192,45942,1,0,0:0:0:0:
256,192,46218,1,8,0:0:0:0:
256,192,46495,1,8,0:0:0:0:
256,192,46771,1,4,0:0:0:0:
256,192,47186,1,8,0:0:0:0:
256,192,47462,1,0,0:0:0:0:
256,192,47601,1,8,0:0:0:0:
256,192,47739,1,0,0:0:0:0:
256,192,48015,1,0,0:0:0:0:
256,192,48154,1,0,0:0:0:0:
256,192,48430,1,8,0:0:0:0:
256,192,48707,1,8,0:0:0:0:
256,192,49121,1,12,0:0:0:0:
256,192,49260,1,12,0:0:0:0:
256,192,49536,1,12,0:0:0:0:
256,192,49674,1,12,0:0:0:0:
256,192,49951,1,12,0:0:0:0:
256,192,50227,1,4,0:0:0:0:
256,192,50366,1,4,0:0:0:0:
256,192,50642,1,12,0:0:0:0:
256,192,50780,1,12,0:0:0:0:
256,192,51195,1,4,0:0:0:0:
256,192,52163,1,12,0:0:0:0:
256,192,52578,1,8,0:0:0:0:
256,192,52716,1,0,0:0:0:0:
256,192,52785,1,0,0:0:0:0:
256,192,52854,1,0,0:0:0:0:
256,192,52992,1,0,0:0:0:0:
256,192,53131,1,8,0:0:0:0:
256,192,53407,1,0,0:0:0:0:
256,192,53684,1,8,0:0:0:0:
256,192,53822,1,0,0:0:0:0:
256,192,54098,1,8,0:0:0:0:
256,192,54237,1,8,0:0:0:0:
256,192,54375,1,4,0:0:0:0:
256,192,54790,1,8,0:0:0:0:
256,192,54928,1,8,0:0:0:0:
256,192,54997,1,8,0:0:0:0:
256,192,55066,1,8,0:0:0:0:
256,192,55204,1,8,0:0:0:0:
256,192,55343,1,0,0:0:0:0:
256,192,55619,1,8,0:0:0:0:
256,192,55896,1,0,0:0:0:0:
256,192,56034,1,8,0:0:0:0:
256,192,56310,1,0,0:0:0:0:
256,192,56449,1,0,0:0:0:0:
256,192,56587,1,12,0:0:0:0:
256,192,57002,1,8,0:0:0:0:
256,192,57278,1,8,0:0:0:0:
256,192,57416,1,0,0:0:0:0:
256,192,57555,1,8,0:0:0:0:
256,192,57831,1,0,0:0:0:0:
256,192,57969,1,0,0:0:0:0:
256,192,58108,1,8,0:0:0:0:
256,192,58246,1,0,0:0:0:0:
256,192,58522,1,8,0:0:0:0:
256,192,58799,1,4,0:0:0:0:
256,192,59214,1,8,0:0:0:0:
256,192,59352,1,0,0:0:0:0:
256,192,59421,1,0,0:0:0:0:
256,192,59490,1,0,0:0:0:0:
256,192,59628,1,0,0:0:0:0:
256,192,59767,1,8,0:0:0:0:
256,192,60043,1,8,0:0:0:0:
256,192,60112,1,8,0:0:0:0:
256,192,60181,1,8,0:0:0:0:
256,192,60320,1,0,0:0:0:0:
256,192,60389,1,0,0:0:0:0:
256,192,60458,1,0,0:0:0:0:
256,192,60596,1,8,0:0:0:0:
256,192,60734,1,8,0:0:0:0:
256,192,61011,1,4,0:0:0:0:
256,192,61425,1,8,0:0:0:0:
256,192,61564,1,8,0:0:0:0:
256,192,61702,1,0,0:0:0:0:
256,192,61771,1,0,0:0:0:0:
256,192,61840,1,0,0:0:0:0:
256,192,61978,1,8,0:0:0:0:
256,192,62255,1,0,0:0:0:0:
256,192,62531,1,8,0:0:0:0:
256,192,62670,1,0,0:0:0:0:
256,192,62946,1,8,0:0:0:0:
256,192,63084,1,8,0:0:0:0:
256,192,63223,1,4,0:0:0:0:
256,192,63637,1,8,0:0:0:0:
256,192,63707,1,8,0:0:0:0:
256,192,63776,1,8,0:0:0:0:
256,192,63914,1,0,0:0:0:0:
256,192,64052,1,0,0:0:0:0:
256,192,64190,1,8,0:0:0:0:
256,192,64467,1,4,0:0:0:0:
256,192,64605,1,4,0:0:0:0:
256,192,64882,1,12,0:0:0:0:
256,192,65296,1,8,0:0:0:0:
256,192,65573,1,4,0:0:0:0:
256,192,65988,1,8,0:0:0:0:
256,192,66402,1,0,0:0:0:0:
256,192,66679,1,12,0:0:0:0:
256,192,67094,1,8,0:0:0:0:
256,192,67508,1,0,0:0:0:0:
256,192,67785,1,12,0:0:0:0:
256,192,68061,1,4,0:0:0:0:
256,192,68338,1,4,0:0:0:0:
256,192,68614,1,4,0:0:0:0:
256,192,68891,1,12,0:0:0:0:
256,192,69167,1,0,0:0:0:0:
256,192,69237,1,0,0:0:0:0:
256,192,69306,1,0,0:0:0:0:
256,192,69444,1,8,0:0:0:0:
256,192,69720,1,8,0:0:0:0:
256,192,69790,1,8,0:0:0:0:
256,192,69859,1,8,0:0:0:0:
256,192,69997,1,4,0:0:0:0:
256,192,70273,1,8,0:0:0:0:
256,192,70688,1,0,0:0:0:0:
256,192,70826,1,8,0:0:0:0:
256,192,70965,1,0,0:0:0:0:
256,192,71241,1,0,0:0:0:0:
256,192,71379,1,8,0:0:0:0:
256,192,71656,1,0,0:0:0:0:
256,192,71794,1,0,0:0:0:0:
256,192,71932,1,8,0:0:0:0:
256,192,72209,1,8,0:0:0:0:
256,192,72485,1,0,0:0:0:0:
256,192,72624,1,8,0:0:0:0:
256,192,73038,1,8,0:0:0:0:
256,192,73177,1,0,0:0:0:0:
256,192,73315,1,0,0:0:0:0:
256,192,73591,1,8,0:0:0:0:
256,192,73868,1,0,0:0:0:0:
256,192,74006,1,0,0:0:0:0:
256,192,74144,1,8,0:0:0:0:
256,192,74421,1,12,0:0:0:0:
256,192,74697,1,8,0:0:0:0:
256,192,75112,1,0,0:0:0:0:
256,192,75250,1,8,0:0:0:0:
256,192,75389,1,8,0:0:0:0:
256,192,75665,1,0,0:0:0:0:
256,192,75803,1,8,0:0:0:0:
256,192,76080,1,0,0:0:0:0:
256,192,76218,1,0,0:0:0:0:
256,192,76356,1,8,0:0:0:0:
256,192,76633,1,0,0:0:0:0:
256,192,76909,1,8,0:0:0:0:
256,192,77048,1,0,0:0:0:0:
256,192,77462,1,8,0:0:0:0:
256,192,77601,1,8,0:0:0:0:
256,192,77739,1,0,0:0:0:0:
256,192,78015,1,8,0:0:0:0:
256,192,78292,1,0,0:0:0:0:
256,192,78430,1,0,0:0:0:0:
256,192,78568,1,8,0:0:0:0:
256,192,78845,1,12,0:0:0:0:
256,192,79121,1,0,0:0:0:0:
256,192,79536,1,0,0:0:0:0:
256,192,79674,1,8,0:0:0:0:
256,192,79813,1,0,0:0:0:0:
256,192,80089,1,0,0:0:0:0:
256,192,80227,1,8,0:0:0:0:
256,192,80504,1,0,0:0:0:0:
256,192,80642,1,0,0:0:0:0:
256,192,80780,1,8,0:0:0:0:
256,192,81057,1,8,0:0:0:0:
256,192,81333,1,0,0:0:0:0:
256,192,81472,1,0,0:0:0:0:
256,192,81748,1,0,0:0:0:0:
256,192,82025,1,8,0:0:0:0:
256,192,82301,1,8,0:0:0:0:
256,192,82439,1,8,0:0:0:0:
256,192,82716,1,0,0:0:0:0:
256,192,82854,1,0,0:0:0:0:
256,192,82992,1,8,0:0:0:0:
256,192,83269,1,0,0:0:0:0:
256,192,83407,1,8,0:0:0:0:
256,192,83684,1,8,0:0:0:0:
256,192,83960,1,0,0:0:0:0:
256,192,84237,1,8,0:0:0:0:
256,192,84375,1,0,0:0:0:0:
256,192,84651,1,0,0:0:0:0:
256,192,84790,1,8,0:0:0:0:
256,192,84928,1,0,0:0:0:0:
256,192,85204,1,8,0:0:0:0:
256,192,85481,1,4,0:0:0:0:
256,192,85757,1,0,0:0:0:0:
256,192,86034,1,12,0:0:0:0:
256,192,86310,1,0,0:0:0:0:
256,192,86587,1,12,0:0:0:0:
256,192,86863,1,8,0:0:0:0:
256,192,87140,1,4,0:0:0:0:
256,192,87693,1,8,0:0:0:0:
256,192,87831,12,0,89767,0:0:0:0:
256,192,89905,5,4,0:0:0:0:
