osu file format v14

[General]
AudioFilename: audio.mp3
AudioLeadIn: 0
PreviewTime: 51333
Countdown: 0
SampleSet: Normal
StackLeniency: 0.7
Mode: 1
LetterboxInBreaks: 0
WidescreenStoryboard: 1

[Editor]
Bookmarks: 33499,39582
DistanceSpacing: 2.9
BeatDivisor: 4
GridSize: 32
TimelineZoom: 1.4

[Metadata]
Title:Fist Bump (Cut Ver.)
TitleUnicode:Fist Bump (Cut Ver.)
Artist:Tomoya Ohtani feat. Douglas Robb (Hoobastank)
ArtistUnicode:大谷智哉 feat. Douglas Robb (Hoobastank)
Creator:_Illustrious_
Version:Kantan
Source:ソニックフォース
Tags:Sonic Forces Vocal Traxx On The Edge A Hero Will Rise Original Soundtrack Main Theme Hedgehog Wave Master Entertainment 江口 貴勅 Takahito Eguchi SEGA Microsoft Sony Nintendo Xbox One XONE Playstation 4 PS4 Nintendo Switch NS PC Join Resistance 25th Anniversary videogame english rock
BeatmapID:3970419
BeatmapSetID:1923339

[Difficulty]
HPDrainRate:7
CircleSize:2
OverallDifficulty:3
ApproachRate:10
SliderMultiplier:1.4
SliderTickRate:1

[Events]
//Background and Video events
0,0,"for_lumenite.png",0,0
//Break Periods
//Storyboard Layer 0 (Background)
//Storyboard Layer 1 (Fail)
//Storyboard Layer 2 (Pass)
//Storyboard Layer 3 (Foreground)
//Storyboard Layer 4 (Overlay)
//Storyboard Sound Samples

[TimingPoints]
320,276.497695852535,4,1,0,40,1,0
320,-133.333333333333,4,1,0,40,0,0
4743,-133.333333333333,4,1,0,60,0,0
52163,-133.333333333333,4,1,0,70,0,1
69997,-133.333333333333,4,1,0,70,0,0

[HitObjects]
256,192,320,5,8,0:0:0:0:
256,192,734,1,8,0:0:0:0:
256,192,1287,1,0,0:0:0:0:
256,192,1978,1,8,0:0:0:0:
256,192,2531,1,0,0:0:0:0:
256,192,2946,1,0,0:0:0:0:
256,192,3499,1,8,0:0:0:0:
256,192,4190,1,0,0:0:0:0:
256,192,4743,1,12,0:0:0:0:
256,192,5296,12,0,6679,0:0:0:0:
256,192,6955,5,0,0:0:0:0:
256,192,7370,1,0,0:0:0:0:
256,192,7923,1,8,0:0:0:0:
256,192,8614,1,0,0:0:0:0:
256,192,9167,1,8,0:0:0:0:
256,192,9582,1,8,0:0:0:0:
256,192,10135,1,8,0:0:0:0:
256,192,10826,1,0,0:0:0:0:
256,192,11379,1,0,0:0:0:0:
256,192,11794,1,8,0:0:0:0:
256,192,12347,1,8,0:0:0:0:
256,192,13038,1,8,0:0:0:0:
256,192,13591,1,4,0:0:0:0:
256,192,14697,1,12,0:0:0:0:
256,192,15250,1,8,0:0:0:0:
256,192,15803,1,4,0:0:0:0:
256,192,16356,1,8,0:0:0:0:
256,192,16909,1,0,0:0:0:0:
256,192,17324,1,0,0:0:0:0:
256,192,18015,1,0,0:0:0:0:
256,192,18568,1,0,0:0:0:0:
256,192,19121,1,8,0:0:0:0:
256,192,19536,1,8,0:0:0:0:
256,192,20227,1,0,0:0:0:0:
256,192,20780,1,8,0:0:0:0:
256,192,21333,1,0,0:0:0:0:
256,192,22439,1,8,0:0:0:0:
256,192,22716,1,0,0:0:0:0:
256,192,22992,1,0,0:0:0:0:
256,192,23269,1,0,0:0:0:0:
256,192,23545,1,8,0:0:0:0:
256,192,24098,1,8,0:0:0:0:
256,192,24375,1,8,0:0:0:0:
256,192,24651,1,4,0:0:0:0:
256,192,25204,1,8,0:0:0:0:
256,192,25757,1,0,0:0:0:0:
256,192,26172,1,0,0:0:0:0:
256,192,26863,1,8,0:0:0:0:
256,192,27416,1,0,0:0:0:0:
256,192,27969,1,8,0:0:0:0:
256,192,28384,1,8,0:0:0:0:
256,192,29075,1,0,0:0:0:0:
256,192,29628,1,8,0:0:0:0:
256,192,30181,1,0,0:0:0:0:
256,192,31287,1,0,0:0:0:0:
256,192,31564,1,12,0:0:0:0:
256,192,31840,1,12,0:0:0:0:
256,192,32393,1,4,0:0:0:0:
256,192,32946,1,12,0:0:0:0:
256,192,33499,1,4,0:0:0:0:
256,192,33914,1,12,0:0:0:0:
256,192,34467,1,12,0:0:0:0:
256,192,34882,1,8,0:0:0:0:
256,192,35158,1,0,0:0:0:0:
256,192,35711,1,4,0:0:0:0:
256,192,36126,1,12,0:0:0:0:
256,192,36679,1,12,0:0:0:0:
256,192,37647,1,8,0:0:0:0:
256,192,37923,1,4,0:0:0:0:
256,192,38338,1,12,0:0:0:0:
256,192,38891,1,12,0:0:0:0:
256,192,39306,1,8,0:0:0:0:
256,192,39582,1,0,0:0:0:0:
256,192,39859,1,0,0:0:0:0:
256,192,40135,1,12,0:0:0:0:
256,192,40688,1,12,0:0:0:0:
256,192,41241,1,4,0:0:0:0:
256,192,41794,1,12,0:0:0:0:
256,192,42347,1,4,0:0:0:0:
256,192,43453,1,0,0:0:0:0:
256,192,43730,1,0,0:0:0:0:
256,192,44006,1,8,0:0:0:0:
256,192,44559,1,0,0:0:0:0:
256,192,45112,1,0,0:0:0:0:
256,192,45665,1,8,0:0:0:0:
256,192,45942,1,8,0:0:0:0:
256,192,46218,1,0,0:0:0:0:
256,192,46771,1,12,0:0:0:0:
256,192,47324,1,0,0:0:0:0:
256,192,47601,1,0,0:0:0:0:
256,192,47877,1,8,0:0:0:0:
256,192,48430,1,8,0:0:0:0:
256,192,48983,1,0,0:0:0:0:
256,192,49536,1,8,0:0:0:0:
256,192,49951,1,0,0:0:0:0:
256,192,50366,1,8,0:0:0:0:
256,192,50642,1,0,0:0:0:0:
256,192,51195,1,4,0:0:0:0:
256,192,52163,1,4,0:0:0:0:
256,192,52578,1,8,0:0:0:0:
256,192,53131,1,8,0:0:0:0:
256,192,53407,1,0,0:0:0:0:
256,192,53822,1,0,0:0:0:0:
256,192,54375,1,12,0:0:0:0:
256,192,54790,1,8,0:0:0:0:
256,192,55343,1,0,0:0:0:0:
256,192,55619,1,0,0:0:0:0:
256,192,56034,1,8,0:0:0:0:
256,192,56587,1,4,0:0:0:0:
256,192,57555,1,8,0:0:0:0:
256,192,57831,1,0,0:0:0:0:
256,192,58246,1,8,0:0:0:0:
256,192,58522,1,8,0:0:0:0:
256,192,58799,1,12,0:0:0:0:
256,192,59214,1,8,0:0:0:0:
256,192,59767,1,8,0:0:0:0:
256,192,60043,1,0,0:0:0:0:
256,192,60596,1,0,0:0:0:0:
256,192,61011,1,12,0:0:0:0:
256,192,61425,1,8,0:0:0:0:
256,192,61978,1,0,0:0:0:0:
256,192,62255,1,8,0:0:0:0:
256,192,62670,1,8,0:0:0:0:
256,192,63223,1,4,0:0:0:0:
256,192,63637,1,8,0:0:0:0:
256,192,64190,1,8,0:0:0:0:
256,192,64467,1,4,0:0:0:0:
256,192,64882,1,12,0:0:0:0:
256,192,65573,1,12,0:0:0:0:
256,192,66679,1,12,0:0:0:0:
256,192,67232,1,0,0:0:0:0:
256,192,67785,1,4,0:0:0:0:
256,192,68338,1,8,0:0:0:0:
256,192,68614,1,8,0:0:0:0:
256,192,68891,1,4,0:0:0:0:
256,192,69444,1,12,0:0:0:0:
256,192,69997,1,4,0:0:0:0:
256,192,70826,1,8,0:0:0:0:
256,192,71103,1,8,0:0:0:0:
256,192,71656,1,8,0:0:0:0:
256,192,72209,1,0,0:0:0:0:
256,192,72762,1,8,0:0:0:0:
256,192,73315,1,0,0:0:0:0:
256,192,73591,1,0,0:0:0:0:
256,192,73868,1,8,0:0:0:0:
256,192,74421,1,12,0:0:0:0:
256,192,75250,1,0,0:0:0:0:
256,192,75527,1,0,0:0:0:0:
256,192,76080,1,0,0:0:0:0:
256,192,76633,1,8,0:0:0:0:
256,192,77186,1,0,0:0:0:0:
256,192,77739,1,8,0:0:0:0:
256,192,78015,1,8,0:0:0:0:
256,192,78292,1,0,0:0:0:0:
256,192,78845,1,12,0:0:0:0:
256,192,79674,1,0,0:0:0:0:
256,192,79951,1,0,0:0:0:0:
256,192,80504,1,8,0:0:0:0:
256,192,81057,1,0,0:0:0:0:
256,192,81472,1,0,0:0:0:0:
256,192,81748,1,0,0:0:0:0:
256,192,82025,1,8,0:0:0:0:
256,192,82716,1,8,0:0:0:0:
256,192,83269,1,0,0:0:0:0:
256,192,83822,1,8,0:0:0:0:
256,192,84237,1,8,0:0:0:0:
256,192,84651,1,0,0:0:0:0:
256,192,84928,1,8,0:0:0:0:
256,192,85481,1,12,0:0:0:0:
256,192,86034,1,12,0:0:0:0:
256,192,86587,1,4,0:0:0:0:
256,192,87140,1,4,0:0:0:0:
256,192,87693,8,0,89767,0:0:0:0:
256,192,89905,5,4,0:0:0:0:
