osu file format v14

[General]
AudioFilename: audio.mp3
AudioLeadIn: 0
PreviewTime: 61394
Countdown: 0
SampleSet: Soft
StackLeniency: 0.4
Mode: 0
LetterboxInBreaks: 0
WidescreenStoryboard: 0

[Editor]
DistanceSpacing: 1.4
BeatDivisor: 4
GridSize: 4
TimelineZoom: 3.499998

[Metadata]
Title:Undefeatable (feat. Kellin Quinn)
TitleUnicode:Undefeatable (feat. Kellin Quinn)
Artist:Tomoya Ohtani
ArtistUnicode:大谷智哉
Creator:browiec
Version:SUPERSONIC
Source:Sonic Frontiers
Tags:infinite giganto boss theme shadow silver super hedgehog nintendo switch dangerkids tyler smyth julian comeau sleeping with sirens fly south music group Jun Senoue ソニックフロンティア english video game rock metal sega majk00 zelq astronic ost original soundtrack
BeatmapID:4118682
BeatmapSetID:1983199

[Difficulty]
HPDrainRate:5.8
CircleSize:4
OverallDifficulty:9.4
ApproachRate:9.6
SliderMultiplier:1.9
SliderTickRate:1

[Events]
//Background and Video events
0,0,"sanic hegehog.jpg",0,0
//Break Periods
2,10139,12880
//Storyboard Layer 0 (Background)
//Storyboard Layer 1 (Fail)
//Storyboard Layer 2 (Pass)
//Storyboard Layer 3 (Foreground)
//Storyboard Layer 4 (Overlay)
//Storyboard Sound Samples

[TimingPoints]
189,300,4,2,1,60,1,0
9639,-100,4,2,1,5,0,0
9789,-100,4,2,1,60,0,0
14589,-90.9090909090909,4,2,1,60,0,0
14889,-100,4,2,1,60,0,0
19389,-90.9090909090909,4,2,1,60,0,0
19689,-100,4,2,1,60,0,0
24189,-90.9090909090909,4,2,1,60,0,0
24489,-100,4,2,1,60,0,0
28989,-90.9090909090909,4,2,1,60,0,0
29289,-100,4,2,1,70,0,0
33789,-90.9090909090909,4,2,1,70,0,0
34089,-100,4,2,1,70,0,0
38589,-90.9090909090909,4,2,1,70,0,0
47889,-133.333333333333,4,2,1,70,0,0
48189,-71.4285714285714,4,2,1,70,0,0
48489,-133.333333333333,4,2,1,60,0,0
49689,-100,4,2,1,60,0,0
51789,-133.333333333333,4,2,1,60,0,0
53289,-100,4,2,1,60,0,0
55689,-133.333333333333,4,2,1,60,0,0
56889,-100,4,2,1,60,0,0
58989,-133.333333333333,4,2,1,60,0,0
60339,-100,4,2,1,60,0,0
62589,-100,4,2,1,60,0,0
63189,-100,4,2,1,70,0,0
63789,-76.9230769230769,4,2,1,75,0,0
64239,-90.9090909090909,4,2,1,75,0,0
78039,-83.3333333333333,4,2,1,75,0,0
78339,-90.9090909090909,4,2,1,75,0,0
82989,-83.3333333333333,4,2,1,70,0,0
83289,-90.9090909090909,4,2,1,70,0,0
102189,-100,4,2,1,70,0,0
116589,-133.333333333333,4,2,1,60,0,0
118239,-90.9090909090909,4,2,1,60,0,0
118989,-90.9090909090909,4,2,1,70,0,0
121389,-66.6666666666667,4,2,1,70,0,0

[Colours]
Combo1 : 79,79,79
Combo2 : 202,136,0
Combo3 : 237,35,35
Combo4 : 253,228,55

[HitObjects]
256,192,7389,12,0,9639,0:0:0:0:
192,56,9789,5,4,1:2:0:0:
320,328,9939,1,0,1:2:0:0:
320,328,13389,5,8,0:0:0:0:
272,322,13464,1,8,0:0:0:0:
225,316,13539,1,8,0:0:0:0:
178,310,13614,1,8,0:0:0:0:
131,304,13689,2,0,L|83:298,1,47.5,0|0,1:0|1:0,0:0:0:0:
4,221,13839,2,0,L|52:216,1,47.5,0|0,1:0|1:0,0:0:0:0:
182,73,13989,5,8,0:0:0:0:
156,112,14064,1,8,0:0:0:0:
153,159,14139,1,0,1:0:0:0:
173,202,14214,1,0,1:0:0:0:
212,228,14289,5,8,0:3:0:0:
235,225,14364,1,8,0:3:0:0:
259,222,14439,1,4,0:3:0:0:
282,219,14514,1,4,0:3:0:0:
306,216,14589,6,0,B|353:210|353:210|358:213|358:213|408:207,1,104.500003189087,4|8,1:2|0:0,0:0:0:0:
340,20,14889,1,0,1:0:0:0:
340,20,14964,1,0,1:0:0:0:
340,20,15039,2,0,L|245:8,1,95,8|0,0:0|1:0,0:0:0:0:
61,123,15339,2,0,L|156:112,1,95,8|0,0:0|1:0,0:0:0:0:
306,216,15639,1,8,0:0:0:0:
77,324,15789,5,0,1:0:0:0:
229,166,15939,1,8,0:0:0:0:
296,384,16089,1,0,1:0:0:0:
296,384,16164,1,0,1:0:0:0:
296,384,16239,1,8,0:0:0:0:
156,112,16389,5,0,1:0:0:0:
306,216,16539,1,8,0:0:0:0:
73,142,16689,1,0,1:0:0:0:
73,142,16764,1,0,1:0:0:0:
73,142,16839,1,8,0:0:0:0:
352,50,16989,6,0,B|371:94|371:94|352:138,1,95,4|8,1:2|0:0,0:0:0:0:
172,254,17289,1,0,1:0:0:0:
169,230,17364,1,0,1:0:0:0:
167,206,17439,2,0,L|156:112,1,95,8|0,0:0|1:0,0:0:0:0:
400,216,17739,2,0,L|388:310,1,95,8|0,0:0|1:0,0:0:0:0:
307,379,17964,1,0,1:0:0:0:
307,379,18039,2,0,L|302:332,1,47.5,8|0,0:0|0:0,0:0:0:0:
156,111,18189,5,0,1:0:0:0:
73,309,18339,1,8,0:0:0:0:
306,216,18489,1,0,1:0:0:0:
306,216,18564,1,0,1:0:0:0:
306,216,18639,1,8,0:0:0:0:
81,65,18789,1,0,1:0:0:0:
67,110,18864,1,0,1:0:0:0:
79,155,18939,1,8,0:0:0:0:
112,188,19014,1,0,1:0:0:0:
157,200,19089,1,0,1:0:0:0:
202,187,19164,1,0,1:0:0:0:
234,153,19239,1,8,0:0:0:0:
245,107,19314,1,0,1:0:0:0:
230,62,19389,6,0,B|277:56|277:56|282:59|282:59|332:53,1,104.500003189087,4|8,1:2|0:0,0:0:0:0:
512,203,19689,1,0,1:0:0:0:
512,203,19764,1,0,1:0:0:0:
512,203,19839,2,0,L|417:191,1,95,8|0,0:0|1:0,0:0:0:0:
207,274,20139,1,8,0:0:0:0:
431,374,20289,2,0,B|450:330|450:330|431:286,1,95,0|8,1:0|0:0,0:0:0:0:
230,62,20589,5,0,1:0:0:0:
348,250,20739,1,8,0:0:0:0:
445,5,20889,1,0,1:0:0:0:
445,5,20964,1,0,1:0:0:0:
445,5,21039,1,8,0:0:0:0:
225,152,21189,5,0,1:0:0:0:
425,205,21339,1,8,0:0:0:0:
199,292,21489,1,0,1:0:0:0:
199,292,21564,1,0,1:0:0:0:
199,292,21639,1,8,0:0:0:0:
460,118,21789,6,0,L|365:106,1,95,4|8,1:2|0:0,0:0:0:0:
126,10,22089,1,0,1:0:0:0:
128,33,22164,1,0,1:0:0:0:
131,57,22239,2,0,B|150:101|150:101|131:145,1,95,8|0,0:0|1:0,0:0:0:0:
0,289,22539,2,0,L|94:277,1,95,8|0,0:0|1:0,0:0:0:0:
174,236,22764,1,0,1:0:0:0:
174,236,22839,2,0,L|221:241,1,47.5,8|0,0:0|0:0,0:0:0:0:
403,383,22989,5,0,1:0:0:0:
336,115,23139,1,8,0:0:0:0:
200,377,23289,1,0,1:0:0:0:
200,377,23364,1,0,1:0:0:0:
200,377,23439,2,0,L|195:330,1,47.5,8|0,0:0|0:0,0:0:0:0:
507,245,23589,5,8,0:0:0:0:
460,239,23664,1,8,0:0:0:0:
413,233,23739,1,8,0:3:0:0:
365,227,23814,1,8,0:3:0:0:
323,204,23889,5,4,0:3:0:0:
299,207,23964,1,4,0:3:0:0:
276,210,24039,1,0,1:0:0:0:
252,213,24114,1,0,1:0:0:0:
228,216,24189,6,0,B|181:210|181:210|176:213|176:213|126:207,1,104.500003189087,4|8,1:2|0:0,0:0:0:0:
388,53,24489,1,0,1:0:0:0:
388,53,24564,1,0,1:0:0:0:
388,53,24639,2,0,B|407:97|407:97|388:141,1,95,8|0,0:0|1:0,0:0:0:0:
288,303,24939,1,8,0:0:0:0:
181,82,25089,1,0,1:0:0:0:
181,82,25164,1,0,1:0:0:0:
181,82,25239,1,8,0:0:0:0:
323,204,25389,5,0,1:0:0:0:
113,278,25539,1,8,0:0:0:0:
358,376,25689,1,0,1:0:0:0:
358,376,25764,1,0,1:0:0:0:
358,376,25839,1,8,0:0:0:0:
122,187,25989,5,0,1:0:0:0:
288,303,26139,1,8,0:0:0:0:
52,349,26289,1,0,1:0:0:0:
52,349,26364,1,0,1:0:0:0:
52,349,26439,1,8,0:0:0:0:
216,118,26589,5,8,1:2:0:0:
251,122,26664,1,0,1:0:0:0:
286,126,26739,1,0,1:0:0:0:
322,131,26814,1,0,1:0:0:0:
357,135,26889,1,0,1:0:0:0:
392,139,26964,1,0,1:0:0:0:
428,144,27039,1,0,1:0:0:0:
463,148,27114,1,0,1:0:0:0:
498,152,27189,5,8,1:2:0:0:
466,180,27264,1,0,1:0:0:0:
426,192,27339,1,0,1:0:0:0:
383,187,27414,1,0,1:0:0:0:
347,165,27489,1,0,1:0:0:0:
322,131,27564,1,0,1:0:0:0:
314,89,27639,1,0,1:0:0:0:
322,48,27714,1,0,1:0:0:0:
347,13,27789,5,8,1:2:0:0:
388,43,27864,1,0,1:0:0:0:
411,89,27939,1,0,1:0:0:0:
409,141,28014,1,0,1:0:0:0:
383,186,28089,1,0,1:0:0:0:
339,213,28164,1,0,1:0:0:0:
288,217,28239,1,0,1:0:0:0:
241,196,28314,1,0,1:0:0:0:
208,155,28389,5,8,1:2:0:0:
140,125,28464,1,8,0:0:0:0:
68,140,28539,1,8,0:0:0:0:
16,193,28614,1,8,0:0:0:0:
4,266,28689,1,8,0:0:0:0:
37,333,28764,1,8,0:0:0:0:
102,369,28839,1,8,0:0:0:0:
176,363,28914,1,8,0:0:0:0:
233,317,28989,6,0,B|285:310|285:310|288:307|288:307|323:328|323:328|381:320,1,156.750004783631,4|0,1:2|0:0,0:0:0:0:
458,362,29289,2,0,B|477:318|477:318|458:274,1,95,8|0,0:0|1:0,0:0:0:0:
304,102,29589,1,2,0:0:0:0:
199,231,29739,1,2,1:2:0:0:
175,228,29814,1,0,1:0:0:0:
151,225,29889,1,10,0:0:0:0:
359,172,30039,1,2,1:2:0:0:
383,169,30114,1,0,1:0:0:0:
407,166,30189,6,0,L|501:154,1,95,2|0,1:2|1:0,0:0:0:0:
188,47,30489,1,10,0:0:0:0:
319,254,30639,1,2,1:2:0:0:
428,0,30789,1,10,0:0:0:0:
157,131,30939,1,2,1:2:0:0:
133,128,31014,1,0,1:0:0:0:
109,125,31089,1,2,1:2:0:0:
86,122,31164,1,0,1:0:0:0:
62,119,31239,1,0,1:0:0:0:
39,116,31314,1,0,1:0:0:0:
15,113,31389,6,0,B|23:180|23:180|19:184|19:184|28:252,1,142.5,4|0,1:2|0:0,0:0:0:0:
109,313,31689,2,0,L|121:219,1,95,10|0,0:0|1:0,0:0:0:0:
282,34,31989,2,0,L|188:46,1,95,2|0,0:0|1:0,0:0:0:0:
157,131,32214,1,0,1:0:0:0:
157,131,32289,2,0,L|110:126,1,47.5,10|0,0:0|0:0,0:0:0:0:
319,254,32439,5,0,1:0:0:0:
343,251,32514,1,0,1:0:0:0:
367,248,32589,1,2,1:2:0:0:
183,216,32739,1,0,1:0:0:0:
456,374,32889,1,10,0:0:0:0:
236,288,33039,1,0,1:0:0:0:
501,143,33189,5,10,0:0:0:0:
267,372,33339,1,0,1:0:0:0:
238,335,33414,1,0,1:0:0:0:
236,288,33489,1,2,1:2:0:0:
261,249,33564,1,0,1:0:0:0:
304,232,33639,1,0,1:0:0:0:
350,243,33714,1,0,1:0:0:0:
380,278,33789,6,0,B|430:285|430:285|433:282|433:282|485:288|485:288|454:249,1,156.750004783631,4|0,1:2|0:0,0:0:0:0:
405,172,34089,2,0,L|393:78,1,95,8|0,0:0|1:0,0:0:0:0:
236,288,34389,5,2,1:2:0:0:
102,105,34539,1,2,1:2:0:0:
78,102,34614,1,0,1:0:0:0:
54,99,34689,1,10,0:0:0:0:
272,206,34839,1,2,1:2:0:0:
296,203,34914,1,0,1:0:0:0:
320,200,34989,1,2,1:2:0:0:
153,258,35139,1,2,1:2:0:0:
347,352,35289,1,10,0:0:0:0:
193,127,35439,5,2,1:2:0:0:
193,127,35514,1,0,1:0:0:0:
193,127,35589,2,0,L|188:175,1,47.5,10|0,0:0|0:0,0:0:0:0:
73,324,35739,2,0,L|67:276,1,47.5,2|0,1:2|1:0,0:0:0:0:
272,206,35889,1,8,0:3:0:0:
269,230,35964,1,8,0:3:0:0:
266,254,36039,1,4,0:3:0:0:
263,277,36114,1,4,0:3:0:0:
260,301,36189,6,0,B|350:285|350:285|381:324,1,142.5,4|0,1:2|0:0,0:0:0:0:
459,368,36489,2,0,B|478:324|478:324|459:280,1,95,10|0,0:0|1:0,0:0:0:0:
268,112,36789,1,2,0:0:0:0:
484,191,36939,1,0,1:0:0:0:
460,188,37014,1,0,1:0:0:0:
436,184,37089,1,10,0:0:0:0:
213,255,37239,1,0,1:0:0:0:
237,252,37314,1,0,1:0:0:0:
261,249,37389,5,10,0:0:0:0:
232,217,37464,1,8,0:0:0:0:
192,204,37539,1,0,1:0:0:0:
152,213,37614,1,0,1:0:0:0:
120,242,37689,1,4,0:3:0:0:
109,283,37764,1,4,0:3:0:0:
121,324,37839,1,0,1:0:0:0:
153,352,37914,1,0,1:0:0:0:
194,361,37989,2,0,L|242:356,3,47.5,6|4|0|0,0:3|0:3|1:0|1:0,0:0:0:0:
291,283,38289,5,10,0:0:0:0:
340,289,38364,1,8,0:0:0:0:
389,295,38439,1,8,0:0:0:0:
439,301,38514,1,8,0:0:0:0:
488,307,38589,1,4,1:2:0:0:
325,199,38739,1,0,1:0:0:0:
512,100,38889,1,8,0:0:0:0:
340,289,39039,1,0,1:0:0:0:
230,12,39189,5,2,0:0:0:0:
457,197,39339,1,2,1:2:0:0:
482,193,39414,1,0,1:0:0:0:
508,190,39489,1,10,0:0:0:0:
241,356,39639,1,2,1:2:0:0:
216,352,39714,1,0,1:0:0:0:
190,349,39789,2,0,L|86:336,1,104.500003189087,2|0,1:2|1:0,0:0:0:0:
318,118,40089,5,10,0:0:0:0:
431,373,40239,1,2,1:2:0:0:
431,373,40314,1,0,1:0:0:0:
431,373,40389,2,0,L|424:321,1,52.2500015945435,10|0,0:0|1:0,0:0:0:0:
494,257,40539,1,2,1:2:0:0:
449,232,40614,1,0,1:0:0:0:
397,232,40689,1,10,0:3:0:0:
352,258,40764,1,8,0:3:0:0:
307,285,40839,1,4,0:3:0:0:
255,285,40914,1,4,0:3:0:0:
210,259,40989,6,0,B|189:210|189:210|210:162,1,104.500003189087,4|0,1:2|1:0,0:0:0:0:
418,13,41289,2,0,L|431:117,1,104.500003189087,10|0,0:0|1:0,0:0:0:0:
307,285,41589,1,2,0:0:0:0:
183,44,41739,1,0,1:0:0:0:
158,40,41814,1,0,1:0:0:0:
132,37,41889,1,10,0:0:0:0:
375,225,42039,1,0,1:0:0:0:
400,221,42114,1,0,1:0:0:0:
426,218,42189,5,6,1:2:0:0:
146,146,42339,1,0,1:0:0:0:
354,384,42489,1,10,0:0:0:0:
479,88,42639,1,0,1:0:0:0:
479,88,42714,1,0,1:0:0:0:
479,88,42789,2,0,L|472:140,1,52.2500015945435,10|0,0:0|0:0,0:0:0:0:
140,263,42939,1,0,1:0:0:0:
176,305,43014,1,0,1:0:0:0:
232,317,43089,1,6,0:3:0:0:
283,293,43164,1,4,0:3:0:0:
309,243,43239,1,8,0:3:0:0:
300,187,43314,1,8,0:3:0:0:
260,148,43389,6,0,L|156:135,1,104.500003189087,4|0,1:2|1:0,0:0:0:0:
354,384,43689,1,10,0:0:0:0:
140,263,43839,1,0,1:0:0:0:
441,178,43989,2,0,B|461:224|461:224|440:273,1,104.500003189087,2|0,0:0|1:0,0:0:0:0:
354,74,44289,1,10,0:0:0:0:
232,317,44439,1,0,1:0:0:0:
236,342,44514,1,0,1:0:0:0:
239,368,44589,5,2,1:2:0:0:
82,148,44739,1,0,1:0:0:0:
297,254,44889,1,10,0:0:0:0:
51,370,45039,1,0,1:0:0:0:
26,366,45114,1,0,1:0:0:0:
0,363,45189,1,10,0:0:0:0:
226,189,45339,1,0,1:0:0:0:
271,164,45414,1,0,1:0:0:0:
323,164,45489,1,8,0:3:0:0:
368,190,45564,1,8,0:3:0:0:
413,217,45639,1,4,0:3:0:0:
465,217,45714,1,4,0:3:0:0:
510,191,45789,6,0,L|497:87,1,104.500003189087,4|0,1:2|1:0,0:0:0:0:
297,254,46089,1,10,0:0:0:0:
496,371,46239,1,0,1:0:0:0:
271,164,46389,2,0,L|167:151,1,104.500003189087,2|0,0:0|1:0,0:0:0:0:
119,250,46614,1,0,1:0:0:0:
119,250,46689,2,0,L|171:243,1,52.2500015945435,10|0,0:0|0:0,0:0:0:0:
318,78,46839,2,0,L|266:71,1,52.2500015945435,0|0,1:0|1:0,0:0:0:0:
344,373,46989,5,10,0:0:0:0:
392,355,47064,1,8,0:0:0:0:
425,315,47139,1,0,1:0:0:0:
435,264,47214,1,0,1:0:0:0:
420,215,47289,1,4,0:3:0:0:
383,179,47364,1,8,0:3:0:0:
333,165,47439,1,0,1:0:0:0:
282,177,47514,1,0,1:0:0:0:
244,211,47589,5,4,0:3:0:0:
205,246,47664,1,4,0:3:0:0:
155,258,47739,1,8,0:3:0:0:
105,244,47814,1,8,0:3:0:0:
68,208,47889,2,0,B|74:157|74:157|70:152|70:152|76:104,1,106.875004076958,10|0,0:0|0:0,0:0:0:0:
120,19,48189,6,0,B|183:11|183:11|190:6|190:6|231:41|231:41|303:32,1,199.499993911743,6|0,1:2|0:0,0:0:0:0:
378,78,48489,2,0,L|449:69,1,71.2500027179719,8|0,0:0|0:0,0:0:0:0:
331,150,48789,5,0,1:0:0:0:
313,147,48864,1,0,1:0:0:0:
295,145,48939,1,0,1:0:0:0:
277,143,49014,1,0,1:0:0:0:
260,141,49089,1,0,1:0:0:0:
242,139,49164,1,0,1:0:0:0:
224,136,49239,1,0,1:0:0:0:
207,134,49314,1,0,1:0:0:0:
189,132,49389,1,0,1:0:0:0:
171,130,49464,1,0,1:0:0:0:
154,128,49539,1,0,1:0:0:0:
136,126,49614,1,0,1:0:0:0:
118,123,49689,6,0,B|62:175|62:175|107:283,1,190,10|0,0:0|1:0,0:0:0:0:
30,324,50139,6,0,B|121:312|121:312|126:320|126:320|214:309,1,190,10|0,0:0|1:0,0:0:0:0:
283,363,50589,5,10,0:0:0:0:
337,293,50739,1,0,1:0:0:0:
340,275,50814,1,0,1:0:0:0:
342,257,50889,1,0,1:0:0:0:
344,239,50964,1,0,1:0:0:0:
346,222,51039,1,10,0:0:0:0:
214,309,51189,1,0,1:0:0:0:
434,205,51339,5,8,0:0:0:0:
185,111,51489,1,8,0:0:0:0:
283,363,51639,1,8,0:0:0:0:
462,88,51789,6,0,B|406:81|406:81|402:85|402:85|326:75|326:75|371:137,1,213.750008153916,6|0,1:2|0:0,0:0:0:0:
479,231,52389,5,2,1:2:0:0:
463,239,52464,1,0,1:0:0:0:
446,236,52539,1,0,1:0:0:0:
434,223,52614,1,0,1:0:0:0:
434,205,52689,1,0,1:0:0:0:
446,191,52764,1,0,1:0:0:0:
463,188,52839,1,0,1:0:0:0:
479,197,52914,1,0,1:0:0:0:
485,214,52989,1,8,0:0:0:0:
386,304,53139,5,0,1:0:0:0:
386,304,53214,1,0,1:0:0:0:
386,304,53289,2,0,B|284:266|307:353|205:321,1,190,10|0,0:0|1:0,0:0:0:0:
163,237,53739,6,0,B|152:186|209:163|209:163|256:193|243:242,1,190,10|0,0:0|1:0,0:0:0:0:
141,377,54189,5,10,0:0:0:0:
73,323,54339,1,0,1:0:0:0:
70,305,54414,1,0,1:0:0:0:
68,287,54489,1,0,1:0:0:0:
66,269,54564,1,0,1:0:0:0:
64,252,54639,1,10,0:0:0:0:
96,59,54789,5,0,1:0:0:0:
96,59,54864,1,0,1:0:0:0:
96,59,54939,2,0,B|104:82|104:82|96:106,1,47.5,10|8,0:0|0:0,0:0:0:0:
0,191,55089,2,0,B|15:172|15:172|38:167,1,47.5,10|8,0:3|0:3,0:0:0:0:
163,208,55239,2,0,B|139:203|139:203|122:184,1,47.5,6|4,0:3|0:3,0:0:0:0:
177,25,55389,5,6,1:2:0:0:
224,19,55464,1,0,1:0:0:0:
271,13,55539,1,0,1:0:0:0:
318,7,55614,1,0,1:0:0:0:
365,1,55689,2,0,L|356:72,1,71.2500027179719,8|0,0:0|0:0,0:0:0:0:
282,116,55989,5,0,1:0:0:0:
285,134,56064,1,0,1:0:0:0:
287,152,56139,1,0,1:0:0:0:
289,170,56214,1,0,1:0:0:0:
291,187,56289,1,0,1:0:0:0:
293,205,56364,1,0,1:0:0:0:
296,223,56439,1,0,1:0:0:0:
298,240,56514,1,0,1:0:0:0:
300,258,56589,1,0,1:0:0:0:
302,276,56664,1,0,1:0:0:0:
304,293,56739,1,0,1:0:0:0:
306,311,56814,1,0,1:0:0:0:
308,329,56889,6,0,L|313:376,1,47.5,10|0,0:0|0:0,0:0:0:0:
439,215,57039,1,0,1:0:0:0:
439,215,57114,1,0,1:0:0:0:
439,215,57189,2,0,L|433:262,1,47.5,0|0,1:0|1:0,0:0:0:0:
161,171,57339,5,10,0:0:0:0:
164,189,57414,1,0,1:0:0:0:
166,207,57489,1,0,1:0:0:0:
168,225,57564,1,0,1:0:0:0:
170,242,57639,2,0,L|175:289,1,47.5,0|0,1:0|1:0,0:0:0:0:
399,81,57789,5,10,0:0:0:0:
399,81,57864,1,0,1:0:0:0:
399,81,57939,2,0,L|393:128,1,47.5,0|0,1:0|1:0,0:0:0:0:
343,244,58089,2,0,L|337:196,1,47.5,0|0,1:0|1:0,0:0:0:0:
282,128,58239,1,10,0:0:0:0:
47,329,58389,5,0,1:0:0:0:
343,244,58539,1,8,0:0:0:0:
44,152,58689,1,8,0:0:0:0:
236,384,58839,1,8,0:0:0:0:
225,80,58989,6,0,B|281:128|281:128|261:172|261:172|265:176|265:176|233:256,1,213.750008153916,6|0,1:2|0:0,0:0:0:0:
128,181,59589,5,2,1:2:0:0:
144,189,59664,1,0,1:0:0:0:
161,186,59739,1,0,1:0:0:0:
173,173,59814,1,0,1:0:0:0:
173,155,59889,1,0,1:0:0:0:
161,141,59964,1,0,1:0:0:0:
144,138,60039,1,0,1:0:0:0:
128,147,60114,1,0,1:0:0:0:
122,164,60189,1,8,0:0:0:0:
265,203,60339,5,0,1:0:0:0:
265,203,60414,1,0,1:0:0:0:
265,203,60489,5,10,0:0:0:0:
283,200,60564,1,0,1:0:0:0:
301,198,60639,1,0,1:0:0:0:
319,196,60714,1,0,1:0:0:0:
336,194,60789,2,0,L|383:189,1,47.5,0|0,1:0|1:0,0:0:0:0:
312,50,60939,5,10,0:0:0:0:
312,50,61014,1,0,1:0:0:0:
312,50,61089,2,0,L|359:56,1,47.5,0|0,1:0|1:0,0:0:0:0:
475,106,61239,2,0,L|427:112,1,47.5,0|0,1:0|1:0,0:0:0:0:
233,299,61389,5,10,0:0:0:0:
251,296,61464,1,0,1:0:0:0:
269,294,61539,1,0,1:0:0:0:
287,292,61614,1,0,1:0:0:0:
304,290,61689,2,0,L|351:285,1,47.5,2|0,1:2|1:0,0:0:0:0:
169,204,61839,5,8,0:0:0:0:
169,204,61914,1,0,1:0:0:0:
169,204,61989,2,0,L|216:210,1,47.5,2|0,1:2|1:0,0:0:0:0:
284,156,62139,2,0,L|331:162,1,47.5,8|0,0:0|1:0,0:0:0:0:
88,73,62289,6,0,L|135:79,3,47.5,10|0|0|0,0:0|1:0|1:0|1:0,0:0:0:0:
106,320,62589,5,6,1:2:0:0:
144,338,62664,1,8,0:0:0:0:
186,340,62739,1,8,0:0:0:0:
226,326,62814,1,8,0:0:0:0:
257,297,62889,1,8,1:2:0:0:
287,268,62964,1,8,0:0:0:0:
327,253,63039,1,8,0:0:0:0:
369,256,63114,1,8,0:0:0:0:
408,274,63189,5,14,1:2:0:0:
361,333,63264,1,8,0:0:0:0:
292,362,63339,1,8,0:0:0:0:
217,355,63414,1,8,0:0:0:0:
155,313,63489,1,8,1:2:0:0:
120,246,63564,1,8,0:0:0:0:
122,171,63639,1,8,0:0:0:0:
160,106,63714,1,8,0:0:0:0:
224,67,63789,6,0,B|303:57|303:57|310:48|310:48|363:90|363:90|451:79,1,246.999988693238,6|8,1:2|0:0,0:0:0:0:
262,275,64239,1,0,1:0:0:0:
498,158,64389,1,0,1:0:0:0:
401,378,64539,1,0,1:0:0:0:
242,178,64689,2,0,L|345:190,1,104.500003189087,8|0,0:0|1:0,0:0:0:0:
120,375,64989,5,0,1:0:0:0:
356,290,65139,1,0,1:0:0:0:
45,203,65289,2,0,L|58:307,1,104.500003189087,10|0,0:0|1:0,0:0:0:0:
345,190,65589,2,0,B|365:141|365:141|345:93,1,104.500003189087,2|0,1:2|1:0,0:0:0:0:
132,174,65889,1,10,0:0:0:0:
319,380,66039,5,0,1:0:0:0:
319,380,66114,1,0,1:0:0:0:
319,380,66189,2,0,P|355:332|489:349,1,209.000006378174,2|8,1:2|0:0,0:0:0:0:
345,94,66639,1,0,1:0:0:0:
169,271,66789,2,0,L|65:258,1,104.500003189087,2|0,1:2|1:0,0:0:0:0:
189,25,67089,2,0,L|292:12,1,104.500003189087,8|0,0:0|1:0,0:0:0:0:
433,263,67389,5,2,1:2:0:0:
228,125,67539,1,0,1:0:0:0:
452,42,67689,1,8,0:0:0:0:
265,209,67839,1,0,1:0:0:0:
462,32,67989,5,10,0:0:0:0:
158,186,68139,1,0,1:0:0:0:
485,344,68289,1,0,1:0:0:0:
257,27,68439,6,0,B|213:7|213:7|169:27|169:27|116:-3|61:27,1,209.000006378174,2|0,1:2|1:0,0:0:0:0:
265,209,68889,2,0,L|368:196,1,104.500003189087,8|0,0:0|1:0,0:0:0:0:
261,381,69189,1,0,1:0:0:0:
162,187,69339,1,0,1:0:0:0:
387,345,69489,2,0,P|426:358|489:341,1,104.500003189087,8|0,0:0|1:0,0:0:0:0:
205,97,69789,6,0,L|102:84,1,104.500003189087,0|0,1:0|1:0,0:0:0:0:
54,309,70089,1,10,0:0:0:0:
289,217,70239,1,0,1:0:0:0:
0,82,70389,2,0,L|13:185,1,104.500003189087,2|0,1:2|1:0,0:0:0:0:
119,382,70689,1,10,0:0:0:0:
243,132,70839,5,0,1:0:0:0:
243,132,70914,1,0,1:0:0:0:
243,132,70989,2,0,B|359:96|331:187|441:156,1,209.000006378174,2|8,1:2|0:0,0:0:0:0:
235,295,71439,1,0,1:0:0:0:
111,30,71589,1,2,1:2:0:0:
289,217,71739,1,0,1:0:0:0:
0,142,71889,2,0,L|103:129,1,104.500003189087,8|0,0:0|1:0,0:0:0:0:
372,161,72189,5,2,1:2:0:0:
146,276,72339,1,0,1:0:0:0:
446,384,72489,1,8,0:0:0:0:
206,123,72639,1,0,1:0:0:0:
202,148,72714,1,0,1:0:0:0:
199,174,72789,5,10,0:0:0:0:
239,208,72864,1,8,0:0:0:0:
289,217,72939,1,0,1:0:0:0:
338,200,73014,1,0,1:0:0:0:
372,161,73089,1,4,0:3:0:0:
381,110,73164,1,4,0:3:0:0:
364,61,73239,1,8,0:3:0:0:
325,27,73314,1,8,0:3:0:0:
274,18,73389,6,0,B|242:22|214:38|214:38|188:5|136:2|136:2|121:21|92:36,1,209.000006378174,6|8,1:2|0:0,0:0:0:0:
0,258,73839,2,0,L|103:245,1,104.500003189087,0|0,1:0|1:0,0:0:0:0:
284,117,74139,1,0,1:0:0:0:
188,381,74289,2,0,B|168:332|168:332|188:284,1,104.500003189087,10|0,0:0|1:0,0:0:0:0:
363,70,74589,2,0,B|383:119|383:119|363:167,1,104.500003189087,0|0,1:0|1:0,0:0:0:0:
103,244,74889,5,10,0:0:0:0:
333,352,75039,1,0,1:0:0:0:
104,146,75189,2,0,L|1:133,1,104.500003189087,2|0,1:2|1:0,0:0:0:0:
187,284,75489,1,10,0:0:0:0:
276,11,75639,5,0,1:0:0:0:
276,11,75714,1,0,1:0:0:0:
276,11,75789,2,0,B|351:1|351:1|396:36|396:36|471:27,1,209.000006378174,2|8,1:2|0:0,0:0:0:0:
408,266,76239,1,0,1:0:0:0:
221,112,76389,2,0,L|324:99,1,104.500003189087,2|0,1:2|1:0,0:0:0:0:
511,279,76689,2,0,L|408:266,1,104.500003189087,8|0,0:0|1:0,0:0:0:0:
140,157,76989,5,2,1:2:0:0:
258,373,77139,1,0,1:0:0:0:
324,98,77289,1,8,0:0:0:0:
145,253,77439,1,0,1:0:0:0:
285,14,77589,5,10,0:0:0:0:
424,368,77739,1,0,1:0:0:0:
63,211,77889,1,0,1:0:0:0:
512,42,78039,6,0,B|373:24|373:24|412:46|426:93,1,227.999993041992,2|0,1:2|1:0,0:0:0:0:
261,342,78489,2,0,L|248:239,1,104.500003189087,10|0,0:0|1:0,0:0:0:0:
186,13,78789,1,2,1:2:0:0:
0,213,78939,1,0,1:0:0:0:
196,3,79089,2,0,L|183:106,1,104.500003189087,8|0,0:0|1:0,0:0:0:0:
426,249,79389,6,0,P|413:199|375:163,1,104.500003189087,0|0,1:0|1:0,0:0:0:0:
158,356,79689,2,0,L|261:343,1,104.500003189087,10|0,0:0|1:0,0:0:0:0:
426,85,79989,1,2,1:2:0:0:
206,218,80139,1,0,1:0:0:0:
490,318,80289,1,10,0:0:0:0:
301,23,80439,5,0,1:0:0:0:
301,23,80514,1,0,1:0:0:0:
301,23,80589,2,0,B|249:16|249:16|244:20|244:20|198:14,1,104.500003189087,2|0,1:2|1:0,0:0:0:0:
323,240,80889,1,8,0:0:0:0:
20,74,81039,2,0,B|71:67|71:67|76:71|76:71|122:65,1,104.500003189087,2|0,1:2|1:0,0:0:0:0:
6,303,81339,1,0,1:0:0:0:
352,150,81489,5,10,0:0:0:0:
76,248,81639,1,0,1:0:0:0:
442,351,81789,5,8,0:0:0:0:
93,160,81939,1,2,1:2:0:0:
416,72,82089,1,8,0:0:0:0:
37,343,82239,1,0,1:0:0:0:
33,315,82314,1,0,1:0:0:0:
30,288,82389,5,10,0:0:0:0:
76,248,82464,1,8,0:0:0:0:
138,238,82539,1,0,1:0:0:0:
198,257,82614,1,0,1:0:0:0:
241,301,82689,5,8,0:0:0:0:
288,356,82764,1,8,0:0:0:0:
358,378,82839,1,8,0:0:0:0:
428,356,82914,1,8,0:0:0:0:
475,296,82989,6,0,B|467:232|467:232|491:197|491:197|483:133,1,170.999994781494,6|0,1:2|0:0,0:0:0:0:
385,68,83289,2,0,L|398:171,1,104.500003189087,8|0,0:0|0:0,0:0:0:0:
155,375,83589,1,2,1:2:0:0:
129,371,83664,1,0,1:0:0:0:
103,368,83739,1,0,1:0:0:0:
132,204,83889,2,0,L|235:191,1,104.500003189087,8|0,0:0|0:0,0:0:0:0:
437,330,84189,5,2,1:2:0:0:
463,326,84264,1,0,1:0:0:0:
489,323,84339,1,0,1:0:0:0:
420,162,84489,2,0,L|317:149,1,104.500003189087,8|0,0:0|0:0,0:0:0:0:
51,170,84789,1,0,1:0:0:0:
280,38,84939,1,0,1:0:0:0:
280,38,85014,1,0,1:0:0:0:
280,38,85089,1,8,0:0:0:0:
213,292,85239,1,0,1:0:0:0:
20,46,85389,6,0,P|63:10|158:21,1,156.750004783631,6|0,1:2|0:0,0:0:0:0:
210,99,85689,2,0,L|197:202,1,104.500003189087,8|0,0:0|0:0,0:0:0:0:
412,379,85989,1,2,1:2:0:0:
408,353,86064,1,0,1:0:0:0:
405,327,86139,1,0,1:0:0:0:
357,84,86289,1,10,0:0:0:0:
213,292,86439,1,0,1:0:0:0:
512,174,86589,6,0,L|409:161,1,104.500003189087,2|0,0:0|1:0,0:0:0:0:
333,206,86814,1,0,1:0:0:0:
333,206,86889,2,0,L|281:199,1,52.2500015945435,10|0,0:0|1:0,0:0:0:0:
168,21,87039,5,0,1:0:0:0:
168,21,87114,1,0,1:0:0:0:
168,21,87189,2,0,L|116:27,1,52.2500015945435,10|0,0:0|0:0,0:0:0:0:
39,256,87339,5,0,1:0:0:0:
39,256,87414,1,0,1:0:0:0:
39,256,87489,1,8,0:0:0:0:
267,75,87639,1,8,0:0:0:0:
60,346,87789,6,0,B|159:328|159:328|194:371,1,156.750004783631,6|0,1:2|0:0,0:0:0:0:
285,359,88089,2,0,P|298:320|281:257,1,104.500003189087,8|0,0:0|0:0,0:0:0:0:
74,122,88389,1,2,1:2:0:0:
78,148,88464,1,0,1:0:0:0:
81,174,88539,1,0,1:0:0:0:
177,0,88689,2,0,L|164:103,1,104.500003189087,8|0,0:0|0:0,0:0:0:0:
283,261,88989,5,2,1:2:0:0:
287,235,89064,1,0,1:0:0:0:
290,209,89139,1,0,1:0:0:0:
386,383,89289,2,0,L|373:280,1,104.500003189087,8|0,0:0|0:0,0:0:0:0:
70,356,89589,5,10,0:0:0:0:
245,128,89739,1,0,1:0:0:0:
153,313,89889,1,4,1:2:0:0:
74,122,90039,1,0,1:0:0:0:
298,384,90189,5,6,1:2:0:0:
370,164,90339,1,0,1:0:0:0:
153,313,90489,2,0,L|256:300,1,104.500003189087,8|0,0:0|0:0,0:0:0:0:
503,208,90789,1,2,1:2:0:0:
245,128,90939,1,0,1:0:0:0:
389,340,91089,1,10,0:0:0:0:
508,28,91239,6,0,B|440:-17|372:36|372:36|422:83,1,209.000006378174,0|0,1:2|1:0,0:0:0:0:
408,173,91614,1,0,1:0:0:0:
408,173,91689,2,0,L|356:166,1,52.2500015945435,8|0,0:0|1:0,0:0:0:0:
261,1,91839,2,0,L|209:7,1,52.2500015945435,0|0,1:0|1:0,0:0:0:0:
140,247,91989,5,10,0:0:0:0:
179,213,92064,1,0,1:0:0:0:
196,165,92139,1,4,0:3:0:0:
184,114,92214,1,4,0:3:0:0:
148,77,92289,1,8,0:0:0:0:
98,64,92364,1,8,0:0:0:0:
49,79,92439,1,8,0:3:0:0:
15,118,92514,1,8,0:3:0:0:
6,169,92589,6,0,B|14:237|14:237|23:244|23:244|32:320,1,156.750004783631,6|0,1:2|0:0,0:0:0:0:
118,370,92889,2,0,L|131:267,1,104.500003189087,8|0,0:0|0:0,0:0:0:0:
374,325,93189,5,2,1:2:0:0:
348,329,93264,1,0,1:0:0:0:
322,332,93339,1,0,1:0:0:0:
409,131,93489,2,0,L|512:144,1,104.500003189087,8|0,0:0|0:0,0:0:0:0:
225,241,93789,5,2,1:2:0:0:
251,245,93864,1,0,1:0:0:0:
277,248,93939,1,0,1:0:0:0:
198,45,94089,2,0,L|95:58,1,104.500003189087,8|0,0:0|0:0,0:0:0:0:
324,164,94389,5,2,1:2:0:0:
135,276,94539,1,0,1:0:0:0:
135,276,94614,1,0,1:0:0:0:
135,276,94689,1,8,0:0:0:0:
295,74,94839,1,0,1:0:0:0:
360,384,94989,6,0,P|324:336|190:353,1,209.000006378174,6|8,1:2|0:0,0:0:0:0:
140,150,95439,1,0,1:0:0:0:
35,332,95589,1,2,1:2:0:0:
39,358,95664,1,0,1:0:0:0:
42,384,95739,1,0,1:0:0:0:
226,219,95889,2,0,L|239:116,1,104.500003189087,10|0,0:0|0:0,0:0:0:0:
360,384,96189,5,2,1:2:0:0:
332,151,96339,1,0,1:0:0:0:
332,151,96414,1,0,1:0:0:0:
332,151,96489,2,0,L|326:203,1,52.2500015945435,10|0,0:0|0:0,0:0:0:0:
184,352,96639,5,0,1:0:0:0:
184,352,96714,1,0,1:0:0:0:
184,352,96789,2,0,L|178:300,1,52.2500015945435,10|0,0:0|1:0,0:0:0:0:
31,48,96939,5,4,0:3:0:0:
28,74,97014,1,8,0:3:0:0:
24,100,97089,5,8,0:0:0:0:
61,135,97164,1,8,0:0:0:0:
111,148,97239,1,8,0:0:0:0:
162,137,97314,1,8,0:0:0:0:
202,104,97389,6,0,B|260:96|260:96|292:118|292:118|350:111,1,156.750004783631,6|0,1:2|0:0,0:0:0:0:
403,38,97689,2,0,L|506:50,1,104.500003189087,8|0,0:0|0:0,0:0:0:0:
329,232,97989,1,2,1:2:0:0:
303,235,98064,1,0,1:0:0:0:
277,239,98139,1,0,1:0:0:0:
465,179,98289,2,0,B|485:228|485:228|465:276,1,104.500003189087,8|0,0:0|0:0,0:0:0:0:
202,104,98589,5,2,1:2:0:0:
228,107,98664,1,0,1:0:0:0:
254,111,98739,1,0,1:0:0:0:
63,46,98889,2,0,B|43:95|43:95|63:143,1,104.500003189087,8|0,0:0|0:0,0:0:0:0:
382,219,99189,5,10,0:0:0:0:
83,295,99339,1,0,1:0:0:0:
392,229,99489,1,8,0:0:0:0:
62,142,99639,1,0,1:0:0:0:
302,379,99789,6,0,P|319:304|276:241,1,156.750004783631,6|0,1:2|0:0,0:0:0:0:
192,278,100089,2,0,L|204:381,1,104.500003189087,8|0,0:0|0:0,0:0:0:0:
303,106,100389,1,2,1:2:0:0:
62,142,100539,1,0,1:0:0:0:
276,241,100689,1,10,0:0:0:0:
16,58,100839,6,0,B|128:21|104:113|214:82,1,209.000006378174,4|0,1:2|1:0,0:0:0:0:
272,11,101214,1,0,1:0:0:0:
272,11,101289,2,0,L|324:17,1,52.2500015945435,8|0,0:0|0:0,0:0:0:0:
154,185,101439,1,8,0:0:0:0:
154,185,101514,1,8,0:0:0:0:
154,185,101589,5,10,1:2:0:0:
504,100,101739,1,8,0:0:0:0:
315,370,101889,1,10,0:0:0:0:
155,57,102039,1,8,0:0:0:0:
508,283,102189,6,0,B|436:274|436:274|432:277|432:277|367:269,1,142.5,6|0,1:2|0:0,0:0:0:0:
338,184,102489,2,0,L|242:195,1,95,0|0,1:0|0:0,0:0:0:0:
143,365,102789,1,10,0:0:0:0:
34,217,102939,2,0,B|99:181|99:181|85:296,1,190,4|8,1:2|0:0,0:0:0:0:
315,370,103389,6,0,L|456:353,1,142.5,4|0,1:2|0:0,0:0:0:0:
483,263,103689,2,0,P|458:235|402:220,1,95,0|0,1:0|0:0,0:0:0:0:
197,241,103989,1,10,0:0:0:0:
342,154,104139,1,4,1:2:0:0:
233,331,104289,1,6,0:3:0:0:
233,331,104439,1,8,0:3:0:0:
180,90,104589,6,0,B|109:81|109:81|69:109|69:109|0:100,1,190,4|0,1:2|1:0,0:0:0:0:
232,14,105039,1,0,1:0:0:0:
232,14,105114,1,0,1:0:0:0:
232,14,105189,2,0,L|326:3,1,95,8|0,0:0|0:0,0:0:0:0:
234,163,105489,5,10,0:0:0:0:
417,117,105639,1,0,1:0:0:0:
305,227,105789,1,2,0:0:0:0:
476,298,105939,1,8,0:0:0:0:
328,138,106089,1,2,1:2:0:0:
328,138,106239,1,0,1:0:0:0:
256,381,106389,5,10,0:0:0:0:
445,211,106539,1,0,1:0:0:0:
178,112,106689,1,10,0:0:0:0:
328,329,106839,1,8,0:0:0:0:
505,40,106989,6,0,B|415:24|415:24|383:63,1,142.5,6|0,1:2|0:0,0:0:0:0:
299,92,107289,2,0,L|310:188,1,95,0|0,1:2|0:0,0:0:0:0:
145,353,107589,1,10,0:0:0:0:
67,187,107739,2,0,P|153:157|222:217,1,190,4|8,1:2|0:0,0:0:0:0:
456,374,108189,6,0,L|473:233,1,142.5,6|0,1:2|0:0,0:0:0:0:
382,243,108489,2,0,L|371:339,1,95,0|0,1:2|0:0,0:0:0:0:
234,142,108789,1,10,0:0:0:0:
283,314,108939,1,4,1:2:0:0:
371,113,109089,1,6,0:3:0:0:
371,113,109239,1,8,0:3:0:0:
211,232,109389,22,1,B|153:273|94:224|94:224|125:216|145:191,1,190,6|0,1:2|1:2,0:2:0:0:
293,52,109839,1,0,1:0:0:0:
293,52,109914,1,0,1:0:0:0:
293,52,109989,1,10,0:0:0:0:
75,137,110139,1,0,1:0:0:0:
283,314,110289,1,10,0:0:0:0:
154,100,110439,1,0,1:0:0:0:
114,378,110589,6,0,L|210:367,1,95,2|8,0:0|0:0,0:0:0:0:
337,138,110889,1,2,1:2:0:0:
19,273,111039,1,8,0:0:0:0:
19,273,111114,1,8,0:0:0:0:
19,273,111189,1,10,0:0:0:0:
360,228,111339,1,4,1:3:0:0:
0,175,111489,1,10,0:0:0:0:
337,138,111639,1,8,0:0:0:0:
148,374,111789,6,0,P|133:329|145:284,1,95,6|0,1:2|1:0,0:0:0:0:
244,151,112089,2,0,P|213:185|168:198,1,95,0|0,1:0|1:0,0:0:0:0:
17,26,112389,1,10,0:0:0:0:
168,109,112539,1,0,1:0:0:0:
0,211,112689,2,0,L|11:115,1,95,2|0,1:2|1:0,0:0:0:0:
219,31,112989,5,0,1:0:0:0:
166,198,113139,1,8,0:0:0:0:
338,161,113289,1,0,1:0:0:0:
209,21,113439,1,0,1:0:0:0:
297,256,113589,6,0,L|393:245,1,95,10|0,0:0|1:0,0:0:0:0:
483,97,113889,2,0,L|387:86,1,95,2|0,1:2|1:0,0:0:0:0:
190,176,114189,5,6,1:2:0:0:
209,21,114339,1,0,1:0:0:0:
99,160,114489,1,0,1:0:0:0:
118,5,114639,1,2,1:2:0:0:
200,186,114789,5,8,0:0:0:0:
28,220,114939,1,0,1:0:0:0:
167,101,115089,1,2,1:2:0:0:
210,300,115239,1,0,1:0:0:0:
99,160,115389,5,2,1:2:0:0:
369,56,115539,1,8,0:0:0:0:
210,300,115689,2,0,L|114:289,1,95,2|0,1:2|1:0,0:0:0:0:
323,171,115989,5,10,0:0:0:0:
346,358,116139,1,0,1:0:0:0:
414,181,116289,1,2,1:2:0:0:
431,321,116439,1,0,1:0:0:0:
313,181,116589,6,0,B|237:171|237:171|188:210|188:210|113:200,1,213.750008153916,6|0,1:2|0:0,0:0:0:0:
30,319,117189,1,2,1:2:0:0:
47,316,117264,1,0,1:0:0:0:
65,314,117339,1,0,1:0:0:0:
83,312,117414,1,0,1:0:0:0:
100,310,117489,1,0,1:0:0:0:
118,308,117564,1,0,1:0:0:0:
136,305,117639,1,0,1:0:0:0:
153,303,117714,1,0,1:0:0:0:
171,301,117789,6,0,B|242:292|242:292|246:295|246:295|311:287,1,142.500005435944,12|0,0:0|0:0,0:0:0:0:
464,192,118239,1,0,1:0:0:0:
464,192,118314,1,0,1:0:0:0:
464,192,118389,1,0,1:0:0:0:
304,128,118539,1,0,1:0:0:0:
444,284,118689,1,0,1:0:0:0:
247,205,118839,1,0,1:0:0:0:
474,90,118989,5,12,0:0:0:0:
285,290,119139,1,0,1:0:0:0:
228,13,119289,1,0,1:0:0:0:
422,381,119439,5,12,0:0:0:0:
304,128,119589,1,0,1:0:0:0:
187,369,119739,1,0,1:0:0:0:
481,198,119889,2,0,L|378:186,1,104.500003189087,12|0,0:0|0:0,0:0:0:0:
25,208,120189,5,8,0:0:0:0:
63,255,120264,1,8,0:0:0:0:
123,277,120339,1,8,0:0:0:0:
183,265,120414,1,8,0:0:0:0:
230,225,120489,2,0,L|223:173,1,52.2500015945435,8|0,0:0|0:0,0:0:0:0:
361,33,120639,1,0,1:0:0:0:
361,33,120714,1,0,1:0:0:0:
361,33,120789,5,8,0:0:0:0:
187,369,120939,1,8,0:0:0:0:
148,0,121089,5,8,0:0:0:0:
369,384,121239,1,8,0:0:0:0:
12,156,121389,6,0,B|43:152|43:152|48:155|48:155|81:151,1,71.2500027179719,14|0,1:2|0:0,0:0:0:0:
