osu file format v14

[General]
AudioFilename: audio.mp3
AudioLeadIn: 0
PreviewTime: 61394
Countdown: 0
SampleSet: Soft
StackLeniency: 0.4
Mode: 0
LetterboxInBreaks: 0
WidescreenStoryboard: 1

[Editor]
DistanceSpacing: 1
BeatDivisor: 4
GridSize: 4
TimelineZoom: 2.599999

[Metadata]
Title:Undefeatable (feat. Kellin Quinn)
TitleUnicode:Undefeatable (feat. Kellin Quinn)
Artist:Tomoya Ohtani
ArtistUnicode:大谷智哉
Creator:browiec
Version:NORMAL
Source:Sonic Frontiers
Tags:infinite giganto boss theme shadow silver super hedgehog nintendo switch dangerkids tyler smyth julian comeau sleeping with sirens fly south music group Jun Senoue ソニックフロンティア english video game rock metal sega majk00 zelq astronic ost original soundtrack
BeatmapID:4124900
BeatmapSetID:1983199

[Difficulty]
HPDrainRate:3
CircleSize:3.4
OverallDifficulty:4.5
ApproachRate:5
SliderMultiplier:0.999999999999999
SliderTickRate:1

[Events]
//Background and Video events
0,0,"sanic hegehog.jpg",0,0
//Break Periods
2,10139,12189
//Storyboard Layer 0 (Background)
//Storyboard Layer 1 (Fail)
//Storyboard Layer 2 (Pass)
//Storyboard Layer 3 (Foreground)
//Storyboard Layer 4 (Overlay)
//Storyboard Sound Samples

[TimingPoints]
189,300,4,2,1,60,1,0
9639,-100,4,2,1,60,0,0
9789,-100,4,2,1,60,0,0
28989,-100,4,2,1,60,0,0
29289,-100,4,2,1,70,0,0
48189,-100,4,2,1,70,0,0
48489,-100,4,2,1,60,0,0
62589,-100,4,2,1,60,0,0
63189,-100,4,2,1,70,0,0
63789,-100,4,2,1,75,0,0
82989,-100,4,2,1,70,0,0
102189,-100,4,2,1,70,0,0
116589,-100,4,2,1,60,0,0
118989,-100,4,2,1,70,0,0

[Colours]
Combo1 : 79,79,79
Combo2 : 202,136,0
Combo3 : 237,35,35
Combo4 : 253,228,55

[HitObjects]
256,192,7389,12,0,9189,0:0:0:0:
256,192,9789,5,4,1:2:0:0:
256,192,9939,1,0,1:2:0:0:
48,121,13389,6,0,L|147:108,1,99.9999999999999,8|0,0:0|1:0,0:0:0:0:
179,71,13839,1,0,1:0:0:0:
179,71,13989,2,0,L|278:83,1,99.9999999999999,8|8,0:0|0:3,0:0:0:0:
360,24,14589,5,4,1:2:0:0:
360,24,14739,2,0,L|409:17,1,50,8|0,0:0|1:0,0:0:0:0:
459,14,15039,2,0,L|446:113,1,99.9999999999999,8|8,0:0|0:0,0:0:0:0:
371,179,15639,1,8,0:0:0:0:
371,179,15789,2,0,L|377:228,1,50,0|8,1:0|0:0,0:0:0:0:
408,267,16089,1,0,1:0:0:0:
348,347,16389,2,0,B|303:364|303:364|252:347,1,99.9999999999999,0|0,1:0|1:0,0:0:0:0:
189,278,16989,5,4,1:2:0:0:
189,278,17139,2,0,L|195:228,1,50,8|0,0:0|1:0,0:0:0:0:
232,195,17439,2,0,L|219:95,1,99.9999999999999,8|8,0:0|0:0,0:0:0:0:
168,16,18039,1,8,0:0:0:0:
168,16,18189,2,0,B|123:-1|123:-1|72:16,1,99.9999999999999,0|0,1:0|1:0,0:0:0:0:
11,93,18789,1,0,1:0:0:0:
49,185,19089,1,0,1:0:0:0:
152,185,19389,5,4,1:2:0:0:
152,185,19539,2,0,L|201:178,1,50,8|0,0:0|1:0,0:0:0:0:
235,142,19839,2,0,L|334:154,1,99.9999999999999,8|8,0:0|0:0,0:0:0:0:
432,123,20439,1,8,0:0:0:0:
432,123,20589,2,0,L|425:73,1,50,0|8,1:0|0:0,0:0:0:0:
397,33,20889,1,0,1:0:0:0:
298,13,21189,2,0,L|198:25,1,99.9999999999999,0|0,1:0|1:0,0:0:0:0:
141,108,21789,5,4,1:2:0:0:
141,108,21939,2,0,L|147:157,1,50,8|0,0:0|1:0,0:0:0:0:
184,191,22239,2,0,L|171:290,1,99.9999999999999,8|8,0:0|0:0,0:0:0:0:
256,353,22839,1,8,0:0:0:0:
256,353,22989,2,0,B|301:370|301:370|352:353,1,99.9999999999999,0|0,1:0|1:0,0:0:0:0:
383,316,23439,1,8,0:0:0:0:
383,316,23589,2,0,L|389:267,1,50,8|8,0:0|0:3,0:0:0:0:
414,223,23889,1,4,0:3:0:0:
351,152,24189,5,4,1:2:0:0:
351,152,24339,2,0,L|302:158,1,50,8|0,0:0|1:0,0:0:0:0:
267,194,24639,2,0,L|168:181,1,99.9999999999999,8|8,0:0|0:0,0:0:0:0:
82,140,25239,1,8,0:0:0:0:
82,140,25389,2,0,B|65:95|65:95|82:44,1,99.9999999999999,0|0,1:0|1:0,0:0:0:0:
119,12,25839,1,8,0:0:0:0:
119,12,25989,1,0,1:0:0:0:
218,1,26289,1,0,1:0:0:0:
269,86,26589,6,0,B|275:141|275:141|256:180|256:180|262:230,1,150,8|0,1:2|1:0,0:0:0:0:
270,280,27189,1,8,1:2:0:0:
446,373,27789,2,0,L|464:224,1,150,8|0,1:2|1:0,0:0:0:0:
427,189,28389,2,0,L|421:140,1,50,8|8,1:2|0:0,0:0:0:0:
388,100,28689,1,8,0:0:0:0:
314,32,28989,6,0,L|215:19,1,99.9999999999999,4|8,1:2|0:0,0:0:0:0:
117,39,29589,2,0,B|100:88|100:88|117:133,1,99.9999999999999,2|10,0:0|0:0,0:0:0:0:
173,216,30189,2,0,L|272:203,1,99.9999999999999,2|10,1:2|0:0,0:0:0:0:
314,174,30639,1,2,1:2:0:0:
314,174,30789,1,10,0:0:0:0:
374,253,31089,1,2,1:2:0:0:
471,232,31389,6,0,L|484:133,2,99.9999999999999,4|10|2,1:2|0:0|0:0,0:0:0:0:
502,277,32139,1,0,1:0:0:0:
502,277,32289,1,10,0:0:0:0:
433,349,32589,2,0,B|388:366|388:366|338:349,1,99.9999999999999,2|10,1:2|0:0,0:0:0:0:
307,318,33039,1,0,1:0:0:0:
307,318,33189,2,0,L|258:324,1,50,10|0,0:0|1:0,0:0:0:0:
218,355,33489,1,2,1:2:0:0:
134,299,33789,6,0,L|147:200,1,99.9999999999999,4|8,1:2|0:0,0:0:0:0:
235,153,34389,2,0,L|222:54,1,99.9999999999999,2|10,1:2|0:0,0:0:0:0:
196,17,34839,1,2,1:2:0:0:
196,17,34989,1,2,1:2:0:0:
97,31,35289,2,0,L|91:80,1,50,10|2,0:0|1:2,0:0:0:0:
49,109,35589,2,0,B|32:158|32:158|49:203,1,99.9999999999999,10|8,0:0|0:3,0:0:0:0:
130,262,36189,6,0,L|229:249,2,99.9999999999999,4|10|2,1:2|0:0|0:0,0:0:0:0:
96,298,36939,1,0,1:0:0:0:
96,298,37089,1,10,0:0:0:0:
174,360,37389,6,0,B|223:376|223:376|268:359,1,99.9999999999999,10|4,0:0|0:3,0:0:0:0:
300,322,37839,1,0,1:0:0:0:
300,322,37989,2,0,L|349:316,1,50,6|0,0:3|1:0,0:0:0:0:
392,341,38289,1,10,0:0:0:0:
460,268,38589,6,0,L|473:169,1,99.9999999999999,4|8,1:2|0:0,0:0:0:0:
420,83,39189,2,0,L|371:77,1,50,2|2,0:0|1:2,0:0:0:0:
337,39,39489,1,10,0:0:0:0:
242,69,39789,2,0,B|225:118|225:118|242:163,1,99.9999999999999,2|10,1:2|0:0,0:0:0:0:
277,206,40239,1,2,1:2:0:0:
277,206,40389,2,0,L|271:255,1,50,10|2,0:0|1:2,0:0:0:0:
285,303,40689,1,10,0:3:0:0:
198,352,40989,6,0,B|153:369|153:369|103:352,1,99.9999999999999,4|10,1:2|0:0,0:0:0:0:
76,317,41439,1,0,1:0:0:0:
76,317,41589,2,0,L|63:218,1,99.9999999999999,2|10,0:0|0:0,0:0:0:0:
59,117,42189,6,0,L|158:104,1,99.9999999999999,6|10,1:2|0:0,0:0:0:0:
187,65,42639,1,0,1:0:0:0:
187,65,42789,2,0,L|236:71,1,50,10|0,0:0|1:0,0:0:0:0:
282,51,43089,1,6,0:3:0:0:
347,126,43389,6,0,B|364:171|364:171|347:220,1,99.9999999999999,4|10,1:2|0:0,0:0:0:0:
308,249,43839,1,0,1:0:0:0:
308,249,43989,2,0,B|291:294|291:294|307:343,1,99.9999999999999,2|10,0:0|0:0,0:0:0:0:
398,383,44589,1,2,1:2:0:0:
481,327,44889,1,10,0:0:0:0:
470,227,45189,2,0,L|457:128,1,99.9999999999999,10|8,0:0|0:3,0:0:0:0:
420,34,45789,6,0,B|370:17|370:17|325:34,1,99.9999999999999,4|10,1:2|0:0,0:0:0:0:
294,74,46239,1,0,1:0:0:0:
294,74,46389,2,0,L|195:61,1,99.9999999999999,2|10,0:0|0:0,0:0:0:0:
109,112,46989,2,0,L|115:161,1,50,10|0,0:0|1:0,0:0:0:0:
153,193,47289,2,0,L|147:242,1,50,4|0,0:3|1:0,0:0:0:0:
116,282,47589,1,4,0:3:0:0:
188,351,47889,1,10,0:0:0:0:
280,312,48189,6,0,L|379:299,1,99.9999999999999,6|8,1:2|0:0,0:0:0:0:
419,269,48639,2,0,L|406:170,1,99.9999999999999,0|0,0:0|1:0,0:0:0:0:
422,122,49089,1,0,1:0:0:0:
342,61,49389,1,0,1:0:0:0:
256,113,49689,6,0,B|200:106|200:106|169:126|169:126|113:119,2,150,10|10|10,0:0|0:0|0:0,0:0:0:0:
334,184,50889,1,0,1:0:0:0:
334,184,51039,2,0,L|340:233,1,50,10|0,0:0|1:0,0:0:0:0:
377,274,51339,1,8,0:0:0:0:
377,274,51489,1,8,0:0:0:0:
307,346,51789,6,0,L|158:326,1,150,6|0,1:2|0:0,0:0:0:0:
133,283,52389,2,0,L|58:292,2,74.9999999999999,2|0|0,1:2|1:0|1:0,0:0:0:0:
153,237,52989,1,8,0:0:0:0:
223,165,53289,6,0,B|273:148|273:148|318:165,1,99.9999999999999,10|0,0:0|1:0,0:0:0:0:
354,198,53739,2,0,L|341:297,1,99.9999999999999,10|0,0:0|1:0,0:0:0:0:
363,343,54189,1,10,0:0:0:0:
462,316,54489,1,0,1:0:0:0:
462,316,54639,2,0,L|456:267,1,50,10|0,0:0|1:0,0:0:0:0:
478,223,54939,1,10,0:0:0:0:
478,223,55089,1,10,0:3:0:0:
386,182,55389,6,0,L|287:169,1,99.9999999999999,6|8,1:2|0:0,0:0:0:0:
241,148,55839,2,0,L|254:49,1,99.9999999999999,0|0,0:0|1:0,0:0:0:0:
244,0,56289,1,0,1:0:0:0:
152,40,56589,1,0,1:0:0:0:
55,12,56889,6,0,B|24:46|24:46|37:149,2,150,10|10|10,0:0|0:0|0:0,0:0:0:0:
152,40,58089,1,0,1:0:0:0:
152,40,58239,2,0,L|201:34,1,50,10|0,0:0|1:0,0:0:0:0:
245,56,58539,1,8,0:0:0:0:
245,56,58689,1,8,0:0:0:0:
326,114,58989,6,0,B|333:170|333:170|313:201|313:201|320:257,1,150,6|0,1:2|0:0,0:0:0:0:
346,299,59589,2,0,L|420:308,2,74.9999999999999,2|0|0,1:2|1:0|1:0,0:0:0:0:
315,338,60189,1,8,0:0:0:0:
215,347,60489,6,0,B|198:297|198:297|215:252,1,99.9999999999999,10|0,0:0|1:0,0:0:0:0:
247,215,60939,2,0,L|234:116,1,99.9999999999999,10|0,0:0|1:0,0:0:0:0:
249,68,61389,1,10,0:0:0:0:
163,15,61689,2,0,B|118:-2|118:-2|68:15,1,99.9999999999999,2|2,1:2|1:2,0:0:0:0:
45,60,62139,1,8,0:0:0:0:
45,60,62289,1,10,0:0:0:0:
72,156,62589,5,6,1:2:0:0:
170,174,62889,1,8,1:2:0:0:
233,96,63189,2,0,L|282:89,1,50,14|8,1:2|0:0,0:0:0:0:
319,55,63489,2,0,L|368:61,1,50,8|8,1:2|0:0,0:0:0:0:
417,51,63789,6,0,B|434:101|434:101|417:146,1,99.9999999999999,6|8,1:2|0:0,0:0:0:0:
377,173,64239,1,0,1:0:0:0:
377,173,64389,2,0,B|360:223|360:223|377:268,1,99.9999999999999,0|8,1:0|0:0,0:0:0:0:
339,359,64989,2,0,L|240:346,1,99.9999999999999,0|10,1:0|0:0,0:0:0:0:
209,313,65439,1,0,1:0:0:0:
209,313,65589,2,0,L|159:319,1,50,2|0,1:2|1:0,0:0:0:0:
114,295,65889,1,10,0:0:0:0:
48,219,66189,6,0,B|31:174|31:174|48:124,1,99.9999999999999,2|8,1:2|0:0,0:0:0:0:
85,92,66639,1,0,1:0:0:0:
85,92,66789,2,0,L|184:79,1,99.9999999999999,2|8,1:2|0:0,0:0:0:0:
266,22,67389,1,2,1:2:0:0:
332,96,67689,1,8,0:0:0:0:
283,183,67989,2,0,L|276:232,1,50,10|0,0:0|1:0,0:0:0:0:
302,281,68289,1,0,1:0:0:0:
302,281,68439,6,0,B|401:293|401:293|438:260,1,150,2|8,1:2|0:0,0:0:0:0:
469,165,69189,2,0,L|456:66,1,99.9999999999999,0|8,1:0|0:0,0:0:0:0:
424,34,69639,1,0,1:0:0:0:
424,34,69789,1,0,1:0:0:0:
328,4,70089,1,10,0:0:0:0:
259,77,70389,6,0,B|242:127|242:127|259:172,1,99.9999999999999,2|10,1:2|0:0,0:0:0:0:
293,214,70839,1,0,1:0:0:0:
293,214,70989,2,0,L|392:201,1,99.9999999999999,2|8,1:2|0:0,0:0:0:0:
487,231,71589,2,0,L|480:280,1,50,2|0,1:2|1:0,0:0:0:0:
460,326,71889,1,8,0:0:0:0:
369,368,72189,2,0,L|270:355,1,99.9999999999999,2|8,1:2|0:0,0:0:0:0:
234,328,72639,1,0,1:0:0:0:
234,328,72789,2,0,L|184:334,1,50,10|0,0:0|1:0,0:0:0:0:
142,362,73089,1,4,0:3:0:0:
61,302,73389,6,0,B|44:257|44:257|61:207,1,99.9999999999999,6|8,1:2|0:0,0:0:0:0:
103,182,73839,2,0,L|202:195,1,99.9999999999999,0|0,1:0|1:0,0:0:0:0:
251,204,74289,1,10,0:0:0:0:
322,133,74589,2,0,B|339:88|339:88|322:38,1,99.9999999999999,0|10,1:0|0:0,0:0:0:0:
286,12,75039,1,0,1:0:0:0:
286,12,75189,2,0,L|236:18,1,50,2|0,1:2|1:0,0:0:0:0:
199,51,75489,1,10,0:0:0:0:
103,20,75789,6,0,B|86:70|86:70|103:115,1,99.9999999999999,2|8,1:2|0:0,0:0:0:0:
143,151,76239,1,0,1:0:0:0:
143,151,76389,2,0,L|130:250,1,99.9999999999999,2|8,1:2|0:0,0:0:0:0:
210,309,76989,2,0,L|309:296,1,99.9999999999999,2|8,1:2|0:0,0:0:0:0:
352,269,77439,1,0,1:0:0:0:
352,269,77589,1,10,0:0:0:0:
330,176,77889,1,0,1:0:0:0:
330,176,78039,6,0,B|323:120|323:120|343:89|343:89|336:33,1,150,2|10,1:2|0:0,0:0:0:0:
430,0,78789,1,2,1:2:0:0:
510,59,79089,1,8,0:0:0:0:
492,157,79389,2,0,L|479:256,1,99.9999999999999,0|10,1:0|0:0,0:0:0:0:
442,289,79839,1,0,1:0:0:0:
442,289,79989,2,0,L|448:338,1,50,2|0,1:2|1:0,0:0:0:0:
414,376,80289,1,10,0:0:0:0:
314,362,80589,6,0,B|297:317|297:317|314:267,1,99.9999999999999,2|8,1:2|0:0,0:0:0:0:
351,235,81039,2,0,B|368:190|368:190|351:140,1,99.9999999999999,2|0,1:2|1:0,0:0:0:0:
317,103,81489,1,10,0:0:0:0:
223,128,81789,1,8,0:0:0:0:
223,128,81939,2,0,L|173:121,1,50,2|8,1:2|0:0,0:0:0:0:
134,90,82239,1,0,1:0:0:0:
134,90,82389,1,10,0:0:0:0:
49,143,82689,2,0,L|55:192,1,50,8|8,0:0|0:0,0:0:0:0:
97,219,82989,6,0,L|84:318,1,99.9999999999999,6|8,1:2|0:0,0:0:0:0:
168,371,83589,2,0,L|217:365,1,50,2|0,1:2|1:0,0:0:0:0:
266,353,83889,1,8,0:0:0:0:
323,271,84189,2,0,B|340:226|340:226|323:176,1,99.9999999999999,2|8,1:2|0:0,0:0:0:0:
289,148,84639,1,0,0:0:0:0:
289,148,84789,2,0,L|190:135,1,99.9999999999999,0|8,1:0|0:0,0:0:0:0:
157,40,85389,6,0,L|256:27,1,99.9999999999999,6|8,1:2|0:0,0:0:0:0:
347,68,85989,2,0,L|396:62,1,50,2|0,1:2|1:0,0:0:0:0:
445,50,86289,1,10,0:0:0:0:
502,132,86589,2,0,B|519:182|519:182|502:227,1,99.9999999999999,2|10,0:0|0:0,0:0:0:0:
462,254,87039,1,0,1:0:0:0:
462,254,87189,2,0,L|413:248,1,50,10|0,0:0|1:0,0:0:0:0:
370,220,87489,1,8,0:0:0:0:
301,147,87789,6,0,B|256:130|256:130|206:147,1,99.9999999999999,6|8,1:2|0:0,0:0:0:0:
153,231,88389,2,0,L|159:280,1,50,2|0,1:2|1:0,0:0:0:0:
170,329,88689,1,8,0:0:0:0:
257,377,88989,2,0,L|356:364,1,99.9999999999999,2|8,1:2|0:0,0:0:0:0:
401,340,89439,1,0,0:0:0:0:
401,340,89589,1,10,0:0:0:0:
435,246,89889,1,4,1:2:0:0:
369,170,90189,6,0,L|270:157,1,99.9999999999999,6|8,1:2|0:0,0:0:0:0:
227,179,90639,1,0,0:0:0:0:
227,179,90789,1,2,1:2:0:0:
147,118,91089,2,0,L|141:69,1,50,10|0,0:0|1:2,0:0:0:0:
169,27,91389,2,0,B|219:10|219:10|264:27,1,99.9999999999999,0|8,0:0|0:0,0:0:0:0:
303,65,91839,1,0,1:0:0:0:
303,65,91989,2,0,L|297:114,1,50,10|4,0:0|0:3,0:0:0:0:
317,160,92289,1,8,0:0:0:0:
384,234,92589,6,0,L|371:333,1,99.9999999999999,6|8,1:2|0:0,0:0:0:0:
280,376,93189,2,0,L|231:370,1,50,2|0,1:2|1:0,0:0:0:0:
182,359,93489,1,8,0:0:0:0:
116,283,93789,2,0,B|99:233|99:233|116:188,1,99.9999999999999,2|8,1:2|0:0,0:0:0:0:
157,160,94239,1,0,0:0:0:0:
157,160,94389,2,0,L|206:154,1,50,2|0,1:2|1:0,0:0:0:0:
252,172,94689,1,8,0:0:0:0:
319,245,94989,6,0,B|369:262|369:262|414:245,1,99.9999999999999,6|8,1:2|0:0,0:0:0:0:
490,182,95589,2,0,L|484:133,1,50,2|0,1:2|1:0,0:0:0:0:
499,84,95889,1,10,0:0:0:0:
415,28,96189,2,0,L|316:15,1,99.9999999999999,2|10,1:2|0:0,0:0:0:0:
272,34,96639,1,0,1:0:0:0:
272,34,96789,2,0,L|266:83,1,50,10|4,0:0|0:3,0:0:0:0:
233,121,97089,1,8,0:0:0:0:
294,199,97389,6,0,L|393:186,1,99.9999999999999,6|8,1:2|0:0,0:0:0:0:
484,227,97989,2,0,L|478:276,1,50,2|0,1:2|1:0,0:0:0:0:
485,325,98289,1,8,0:0:0:0:
390,359,98589,2,0,B|345:376|345:376|295:359,1,99.9999999999999,2|8,1:2|0:0,0:0:0:0:
262,329,99039,1,0,0:0:0:0:
262,329,99189,2,0,L|213:335,1,50,10|0,0:0|1:0,0:0:0:0:
171,306,99489,1,8,0:0:0:0:
118,220,99789,6,0,L|131:121,1,99.9999999999999,6|8,1:2|0:0,0:0:0:0:
143,72,100239,1,0,0:0:0:0:
143,72,100389,1,2,1:2:0:0:
233,30,100689,2,0,L|282:24,1,50,10|4,0:0|1:2,0:0:0:0:
331,36,100989,2,0,B|348:81|348:81|331:131,1,99.9999999999999,0|8,0:0|0:0,0:0:0:0:
296,165,101439,1,8,0:0:0:0:
296,165,101589,2,0,L|302:214,1,50,10|8,1:2|0:0,0:0:0:0:
329,256,101889,1,10,0:0:0:0:
276,340,102189,5,6,1:2:0:0:
177,325,102489,1,0,1:0:0:0:
148,234,102789,1,10,0:0:0:0:
148,234,102939,2,0,L|161:135,1,99.9999999999999,4|8,1:2|0:0,0:0:0:0:
181,89,103389,1,4,1:2:0:0:
100,29,103689,1,0,1:0:0:0:
19,86,103989,1,10,0:0:0:0:
19,86,104139,2,0,L|32:185,1,99.9999999999999,4|8,1:2|0:3,0:0:0:0:
53,234,104589,6,0,B|98:217|98:217|148:234,1,99.9999999999999,4|0,1:2|1:0,0:0:0:0:
186,264,105039,1,0,1:0:0:0:
186,264,105189,1,8,0:0:0:0:
223,356,105489,2,0,L|272:350,1,50,10|0,0:0|1:0,0:0:0:0:
316,325,105789,2,0,L|415:312,1,99.9999999999999,2|2,0:0|1:2,0:0:0:0:
492,248,106389,2,0,L|486:199,1,50,10|0,0:0|1:0,0:0:0:0:
447,167,106689,1,10,0:0:0:0:
370,102,106989,5,6,1:2:0:0:
276,137,107289,1,0,1:2:0:0:
277,240,107589,1,10,0:0:0:0:
277,240,107739,2,0,L|290:339,1,99.9999999999999,4|8,1:2|0:0,0:0:0:0:
261,380,108189,1,6,1:2:0:0:
162,363,108489,1,0,1:2:0:0:
146,268,108789,1,10,0:0:0:0:
146,268,108939,2,0,L|159:169,1,99.9999999999999,4|8,1:2|0:3,0:0:0:0:
138,123,109389,6,1,B|88:106|88:106|43:123,1,99.9999999999999,6|0,1:2|1:2,0:2:0:0:
3,214,109989,2,0,L|9:263,1,50,10|0,0:0|1:0,0:0:0:0:
30,308,110289,1,10,0:0:0:0:
113,362,110589,2,0,L|212:349,1,99.9999999999999,2|2,0:0|1:2,0:0:0:0:
246,313,111039,1,8,0:0:0:0:
246,313,111189,2,0,L|295:319,1,50,10|4,0:0|1:3,0:0:0:0:
336,290,111489,1,10,0:0:0:0:
397,368,111789,6,0,B|442:385|442:385|492:368,1,99.9999999999999,6|0,1:2|1:0,0:0:0:0:
511,270,112389,1,10,0:0:0:0:
457,185,112689,1,2,1:2:0:0:
361,200,112989,1,0,1:0:0:0:
361,200,113139,2,0,L|262:187,1,99.9999999999999,8|0,0:0|1:0,0:0:0:0:
217,164,113589,2,0,L|211:115,1,50,10|0,0:0|1:0,0:0:0:0:
219,65,113889,1,2,1:2:0:0:
312,28,114189,6,0,B|357:11|357:11|407:28,1,99.9999999999999,6|0,1:2|1:0,0:0:0:0:
450,60,114639,1,2,1:2:0:0:
450,60,114789,1,8,0:0:0:0:
406,150,115089,1,2,1:2:0:0:
471,225,115389,2,0,B|488:270|488:270|471:320,1,99.9999999999999,2|2,1:2|1:2,0:0:0:0:
435,353,115839,1,0,1:0:0:0:
435,353,115989,2,0,L|386:347,1,50,10|0,0:0|1:0,0:0:0:0:
350,311,116289,1,2,1:2:0:0:
305,221,116589,6,0,B|321:89|321:89|264:127,1,200,6|2,1:2|1:2,0:0:0:0:
214,319,117789,2,0,B|142:342|142:342|87:299|87:299|31:292,1,200,12|0,0:0|1:0,0:0:0:0:
1,197,118689,1,0,1:0:0:0:
72,126,118989,6,0,L|171:113,1,99.9999999999999,12|0,0:0|1:0,0:0:0:0:
206,78,119439,1,12,0:0:0:0:
206,78,119589,2,0,L|255:84,1,50,0|0,1:0|1:0,0:0:0:0:
291,120,119889,1,12,0:0:0:0:
379,73,120189,2,0,B|396:118|396:118|379:168,1,99.9999999999999,8|8,0:0|0:0,0:0:0:0:
346,205,120639,1,0,1:0:0:0:
346,205,120789,2,0,L|352:254,1,50,8|8,0:0|0:0,0:0:0:0:
390,286,121089,2,0,L|384:335,1,50,8|8,0:0|0:0,0:0:0:0:
343,365,121389,5,14,1:2:0:0:
