osu file format v14

[General]
AudioFilename: audio.mp3
AudioLeadIn: 0
PreviewTime: 61394
Countdown: 0
SampleSet: Soft
StackLeniency: 0.4
Mode: 0
LetterboxInBreaks: 0
WidescreenStoryboard: 1

[Editor]
DistanceSpacing: 1.4
BeatDivisor: 4
GridSize: 4
TimelineZoom: 1.799999

[Metadata]
Title:Undefeatable (feat. Kellin Quinn)
TitleUnicode:Undefeatable (feat. Kellin Quinn)
Artist:Tomoya Ohtani
ArtistUnicode:大谷智哉
Creator:browiec
Version:HARD
Source:Sonic Frontiers
Tags:infinite giganto boss theme shadow silver super hedgehog nintendo switch dangerkids tyler smyth julian comeau sleeping with sirens fly south music group Jun Senoue ソニックフロンティア english video game rock metal sega majk00 zelq astronic ost original soundtrack
BeatmapID:4215440
BeatmapSetID:1983199

[Difficulty]
HPDrainRate:4
CircleSize:3.6
OverallDifficulty:6.5
ApproachRate:8
SliderMultiplier:1.4
SliderTickRate:1

[Events]
//Background and Video events
0,0,"sanic hegehog.jpg",0,0
//Break Periods
//Storyboard Layer 0 (Background)
//Storyboard Layer 1 (Fail)
//Storyboard Layer 2 (Pass)
//Storyboard Layer 3 (Foreground)
//Storyboard Layer 4 (Overlay)
//Storyboard Sound Samples

[TimingPoints]
189,300,4,2,1,60,1,0
9639,-100,4,2,1,60,0,0
9789,-100,4,2,1,60,0,0
13389,-111.111111111111,4,2,1,60,0,0
28989,-100,4,2,1,60,0,0
29289,-100,4,2,1,70,0,0
48189,-117.647058823529,4,2,1,70,0,0
48489,-117.647058823529,4,2,1,60,0,0
62589,-111.111111111111,4,2,1,60,0,0
63189,-111.111111111111,4,2,1,70,0,0
63789,-100,4,2,1,75,0,0
82989,-100,4,2,1,70,0,0
102189,-100,4,2,1,70,0,0
116589,-111.111111111111,4,2,1,60,0,0
118989,-100,4,2,1,70,0,0

[Colours]
Combo1 : 79,79,79
Combo2 : 202,136,0
Combo3 : 237,35,35
Combo4 : 253,228,55

[HitObjects]
256,192,7389,12,0,9489,0:0:0:0:
256,192,9789,5,4,1:2:0:0:
256,192,9939,1,0,1:2:0:0:
256,192,13389,6,0,L|259:223,3,31.4999990386963,8|8|8|8,0:0|0:0|0:0|0:0,0:0:0:0:
290,255,13689,2,0,L|286:286,3,31.4999990386963,0|0|0|0,1:0|1:0|1:0|1:0,0:0:0:0:
316,332,13989,1,8,0:0:0:0:
316,332,14064,1,8,0:0:0:0:
316,332,14139,1,0,1:0:0:0:
392,375,14289,2,0,L|423:371,3,31.4999990386963,8|8|4|4,0:3|0:3|0:3|0:3,0:0:0:0:
460,344,14589,6,0,B|465:296|465:296|448:270|448:270|454:223,1,125.999996154785,4|0,1:2|1:0,0:0:0:0:
389,163,15039,2,0,L|326:170,1,62.9999980773926,8|0,0:0|1:0,0:0:0:0:
256,116,15339,2,0,L|193:123,1,62.9999980773926,8|0,0:0|1:0,0:0:0:0:
119,74,15639,1,8,0:0:0:0:
181,11,15789,6,0,B|260:1|260:1|296:33,1,125.999996154785,0|0,1:0|1:0,0:0:0:0:
379,71,16239,1,8,0:0:0:0:
379,71,16389,2,0,L|441:63,1,62.9999980773926,0|8,1:0|0:0,0:0:0:0:
493,134,16689,1,0,1:0:0:0:
323,221,16989,6,0,P|269:190|208:200,1,125.999996154785,4|0,1:2|1:0,0:0:0:0:
182,236,17364,1,0,1:0:0:0:
182,236,17439,2,0,L|174:298,1,62.9999980773926,8|0,0:0|1:0,0:0:0:0:
89,325,17739,2,0,L|81:262,1,62.9999980773926,8|0,0:0|1:0,0:0:0:0:
15,203,18039,1,8,0:0:0:0:
72,135,18189,6,0,L|134:142,1,62.9999980773926,0|8,1:0|0:0,0:0:0:0:
207,193,18489,2,0,L|269:185,1,62.9999980773926,0|8,1:0|0:0,0:0:0:0:
323,117,18789,1,0,1:0:0:0:
323,117,18864,1,0,1:0:0:0:
323,117,18939,1,8,0:0:0:0:
397,163,19089,2,0,L|428:166,3,31.4999990386963,0|0|8|0,1:0|1:0|0:0|1:0,0:0:0:0:
470,153,19389,6,0,B|505:193|505:193|483:262,1,125.999996154785,4|0,1:2|1:0,0:0:0:0:
417,320,19839,2,0,L|354:312,1,62.9999980773926,8|0,0:0|1:0,0:0:0:0:
284,366,20139,2,0,L|221:358,1,62.9999980773926,8|0,0:0|1:0,0:0:0:0:
166,288,20439,1,8,0:0:0:0:
231,228,20589,6,0,P|240:166|210:113,1,125.999996154785,0|0,1:0|1:0,0:0:0:0:
125,87,21039,1,8,0:0:0:0:
125,87,21189,2,0,L|132:24,1,62.9999980773926,0|8,1:0|0:0,0:0:0:0:
46,1,21489,1,0,1:0:0:0:
69,159,21789,6,0,B|74:206|74:206|57:232|57:232|63:279,1,125.999996154785,4|0,1:2|1:0,0:0:0:0:
96,316,22164,1,0,1:0:0:0:
96,316,22239,2,0,L|158:308,1,62.9999980773926,8|0,0:0|1:0,0:0:0:0:
227,364,22539,2,0,L|289:356,1,62.9999980773926,8|0,0:0|1:0,0:0:0:0:
346,287,22839,1,8,0:0:0:0:
275,223,22989,6,0,L|259:97,1,125.999996154785,0|0,1:0|1:0,0:0:0:0:
292,15,23439,1,8,0:0:0:0:
367,61,23589,2,0,L|398:64,3,31.4999990386963,8|8|8|8,0:0|0:0|0:3|0:3,0:0:0:0:
431,94,23889,2,0,L|462:97,3,31.4999990386963,4|4|0|0,0:3|0:3|1:0|1:0,0:0:0:0:
506,89,24189,6,0,P|515:150|485:203,1,125.999996154785,4|0,1:2|1:0,0:0:0:0:
396,206,24639,2,0,L|333:198,1,62.9999980773926,8|0,0:0|1:0,0:0:0:0:
285,123,24939,2,0,L|222:130,1,62.9999980773926,8|0,0:0|1:0,0:0:0:0:
152,185,25239,1,8,0:0:0:0:
215,246,25389,6,0,B|236:315|236:315|201:355,1,125.999996154785,0|0,1:0|1:0,0:0:0:0:
116,359,25839,1,8,0:0:0:0:
116,359,25989,2,0,L|53:351,1,62.9999980773926,0|8,1:0|0:0,0:0:0:0:
14,271,26289,1,0,1:0:0:0:
215,246,26589,6,0,L|246:242,7,31.4999990386963,8|0|0|0|0|0|0|0,1:2|1:0|1:0|1:0|1:0|1:0|1:0|1:0,0:0:0:0:
280,214,27189,2,0,L|311:217,7,31.4999990386963,8|0|0|0|0|0|0|0,1:2|1:0|1:0|1:0|1:0|1:0|1:0|1:0,0:0:0:0:
347,244,27789,2,0,L|378:240,7,31.4999990386963,8|0|0|0|0|0|0|0,1:2|1:0|1:0|1:0|1:0|1:0|1:0|1:0,0:0:0:0:
414,213,28389,5,8,1:2:0:0:
416,201,28464,1,8,0:0:0:0:
417,189,28539,1,8,0:0:0:0:
418,177,28614,1,8,0:0:0:0:
420,166,28689,2,0,L|423:134,3,31.4999990386963,8|8|8|8,0:0|0:0|0:0|0:0,0:0:0:0:
412,86,28989,6,0,P|353:49|286:63,1,140,4|8,1:2|0:0,0:0:0:0:
224,129,29439,1,0,1:0:0:0:
224,129,29589,2,0,L|154:120,1,70,2|2,0:0|1:2,0:0:0:0:
90,62,29889,1,10,0:0:0:0:
90,62,30039,1,2,1:2:0:0:
20,120,30189,6,0,B|43:197|43:197|4:242,1,140,2|10,1:2|0:0,0:0:0:0:
26,330,30639,1,2,1:2:0:0:
106,287,30789,2,0,L|176:278,1,70,10|2,0:0|1:2,0:0:0:0:
234,348,31089,2,0,L|269:351,3,35,2|0|0|0,1:2|1:0|1:0|1:0,0:0:0:0:
307,327,31389,6,0,L|298:257,1,70,4|0,1:2|1:0,0:0:0:0:
367,197,31689,2,0,P|341:173|307:163,1,70,10|0,0:0|1:0,0:0:0:0:
220,138,31989,2,0,L|211:68,1,70,2|0,0:0|1:0,0:0:0:0:
273,1,32289,1,10,0:0:0:0:
451,41,32589,6,0,B|445:94|445:94|464:123|464:123|457:176,1,140,2|10,1:2|0:0,0:0:0:0:
500,255,33039,1,0,1:0:0:0:
421,301,33189,2,0,L|351:292,1,70,10|0,0:0|1:0,0:0:0:0:
290,239,33489,1,2,1:2:0:0:
290,239,33564,1,0,1:0:0:0:
290,239,33639,1,0,1:0:0:0:
239,323,33789,6,0,P|179:362|113:346,1,140,4|8,1:2|0:0,0:0:0:0:
65,277,34239,1,0,1:0:0:0:
65,277,34389,2,0,L|74:207,1,70,2|2,1:2|1:2,0:0:0:0:
155,165,34689,2,0,L|146:95,1,70,10|2,0:0|1:2,0:0:0:0:
195,19,34989,5,2,1:2:0:0:
195,19,35139,1,2,1:2:0:0:
252,89,35289,2,0,P|277:112|311:122,1,70,10|2,0:0|1:2,0:0:0:0:
390,177,35589,1,10,0:0:0:0:
390,177,35739,1,2,1:2:0:0:
406,266,35889,2,0,L|441:262,3,35,8|8|4|4,0:3|0:3|0:3|0:3,0:0:0:0:
476,290,36189,6,0,B|486:254|517:233|517:233|509:166,1,140,4|10,1:2|0:0,0:0:0:0:
450,104,36639,1,0,1:0:0:0:
450,104,36789,2,0,L|459:34,1,70,2|0,0:0|1:0,0:0:0:0:
373,1,37089,1,10,0:0:0:0:
293,168,37389,5,10,0:0:0:0:
293,168,37464,1,8,0:0:0:0:
293,168,37539,1,0,1:0:0:0:
222,107,37689,2,0,L|187:103,3,35,4|4|0|0,0:3|0:3|1:0|1:0,0:0:0:0:
156,69,37989,2,0,L|121:73,3,35,6|4|0|0,0:3|0:3|1:0|1:0,0:0:0:0:
89,105,38289,1,10,0:0:0:0:
77,103,38364,1,8,0:0:0:0:
65,102,38439,1,8,0:0:0:0:
53,101,38514,1,8,0:0:0:0:
41,100,38589,6,0,B|47:153|47:153|28:182|28:182|35:235,1,140,4|8,1:2|0:0,0:0:0:0:
99,298,39039,1,0,1:0:0:0:
168,239,39189,2,0,P|193:216|227:206,1,70,2|2,0:0|1:2,0:0:0:0:
304,255,39489,2,0,P|329:278|363:288,1,70,10|2,0:0|1:2,0:0:0:0:
412,364,39789,6,0,P|451:304|435:238,1,140,2|10,1:2|0:0,0:0:0:0:
365,183,40239,1,2,1:2:0:0:
437,128,40389,2,0,L|446:58,1,70,10|2,0:0|1:2,0:0:0:0:
381,9,40689,1,10,0:3:0:0:
381,9,40764,1,8,0:3:0:0:
381,9,40839,1,4,0:3:0:0:
296,42,40989,6,0,L|305:112,1,70,4|0,1:2|1:0,0:0:0:0:
241,177,41289,2,0,P|207:167|181:143,1,70,10|0,0:0|1:0,0:0:0:0:
120,83,41589,1,2,0:0:0:0:
120,83,41739,1,0,1:0:0:0:
54,145,41889,2,0,L|63:215,1,70,10|0,0:0|1:0,0:0:0:0:
6,295,42189,6,0,B|94:306|94:306|134:270,1,140,6|10,1:2|0:0,0:0:0:0:
183,198,42639,1,0,1:0:0:0:
183,198,42789,2,0,L|253:189,1,70,10|0,0:0|1:0,0:0:0:0:
313,257,43089,2,0,L|348:261,3,35,6|4|8|8,0:3|0:3|0:3|0:3,0:0:0:0:
386,236,43389,6,0,P|408:262|417:295,1,70,4|0,1:2|1:0,0:0:0:0:
369,372,43689,2,0,P|334:378|301:369,1,70,10|0,0:0|1:0,0:0:0:0:
235,306,43989,2,0,P|208:283|175:274,1,70,2|0,0:0|1:0,0:0:0:0:
107,334,44289,1,10,0:0:0:0:
107,334,44439,1,0,1:0:0:0:
38,274,44589,6,0,B|31:222|31:222|50:193|50:193|44:140,1,140,2|10,1:2|0:0,0:0:0:0:
103,71,45039,1,0,1:0:0:0:
103,71,45189,2,0,P|125:97|134:130,1,70,10|0,0:0|1:0,0:0:0:0:
208,200,45489,1,8,0:3:0:0:
208,200,45564,1,8,0:3:0:0:
208,200,45639,1,4,0:3:0:0:
291,162,45789,6,0,P|351:201|417:185,1,140,4|10,1:2|0:0,0:0:0:0:
471,117,46239,1,0,1:0:0:0:
471,117,46389,2,0,L|480:47,1,70,2|0,0:0|1:0,0:0:0:0:
389,31,46689,2,0,L|380:101,1,70,10|0,0:0|1:0,0:0:0:0:
301,147,46989,6,0,L|305:182,3,35,10|8|0|0,0:0|0:0|1:0|1:0,0:0:0:0:
343,206,47289,2,0,L|339:241,3,35,4|8|0|0,0:3|0:3|1:0|1:0,0:0:0:0:
301,266,47589,2,0,L|305:301,3,35,4|4|8|8,0:3|0:3|0:3|0:3,0:0:0:0:
323,342,47889,2,0,B|256:333|256:333|226:360,1,105,10|0,0:0|0:0,0:0:0:0:
194,376,48189,6,0,L|75:361,1,119.000002269745,6|8,1:2|0:0,0:0:0:0:
9,207,48789,2,0,B|105:179|90:245|182:220,1,178.500003404617,0|0,1:0|1:0,0:0:0:0:
227,150,49389,2,0,L|256:153,3,29.7500005674362,0|0|0|0,1:0|1:0|1:0|1:0,0:0:0:0:
287,182,49689,6,0,L|406:167,1,119.000002269745,10|0,0:0|1:0,0:0:0:0:
418,249,50139,2,0,L|299:264,1,119.000002269745,10|0,0:0|1:0,0:0:0:0:
310,347,50589,2,0,L|429:332,1,119.000002269745,10|0,0:0|1:0,0:0:0:0:
500,287,51039,1,10,0:0:0:0:
500,287,51189,2,0,L|507:227,1,59.5000011348725,0|8,1:0|0:0,0:0:0:0:
458,166,51489,1,8,0:0:0:0:
458,166,51639,1,8,0:0:0:0:
386,210,51789,6,0,P|308:207|324:130,1,178.500003404617,6|0,1:2|0:0,0:0:0:0:
381,70,52389,2,0,L|410:73,8,29.7500005674362,2|0|0|0|0|0|0|0|8,1:2|1:0|1:0|1:0|1:0|1:0|1:0|1:0|0:0,0:0:0:0:
315,17,53139,1,0,1:0:0:0:
315,17,53214,1,0,1:0:0:0:
315,17,53289,6,0,L|196:2,1,119.000002269745,10|0,0:0|1:0,0:0:0:0:
184,84,53739,2,0,L|303:99,1,119.000002269745,10|0,0:0|1:0,0:0:0:0:
292,182,54189,2,0,L|173:167,1,119.000002269745,10|0,0:0|1:0,0:0:0:0:
106,217,54639,2,0,L|46:209,1,59.5000011348725,10|0,0:0|1:0,0:0:0:0:
32,295,54939,1,10,0:0:0:0:
32,295,55089,2,0,L|91:302,1,59.5000011348725,10|6,0:3|0:3,0:0:0:0:
148,363,55389,6,0,L|177:360,4,29.7500005674362,6|0|0|0|8,1:2|1:0|1:0|1:0|0:0,0:0:0:0:
77,211,55989,2,0,B|62:91|62:91|108:127,1,178.500003404617,0|0,1:0|1:0,0:0:0:0:
174,179,56589,2,0,L|203:176,3,29.7500005674362,0|0|0|0,1:0|1:0|1:0|1:0,0:0:0:0:
235,147,56889,6,0,P|291:130|347:148,1,119.000002269745,10|0,0:0|1:0,0:0:0:0:
388,220,57339,2,0,P|373:276|330:316,1,119.000002269745,10|0,0:0|1:0,0:0:0:0:
248,316,57789,2,0,P|206:275|192:218,1,119.000002269745,10|0,0:0|1:0,0:0:0:0:
235,147,58239,2,0,L|242:87,1,59.5000011348725,10|0,0:0|1:0,0:0:0:0:
195,25,58539,1,8,0:0:0:0:
195,25,58689,2,0,L|135:32,1,59.5000011348725,8|8,0:0|0:0,0:0:0:0:
59,66,58989,6,0,B|26:95|28:142|28:142|70:166|77:218,1,178.500003404617,6|0,1:2|0:0,0:0:0:0:
128,283,59589,2,0,L|125:312,8,29.7500005674362,2|0|0|0|0|0|0|0|8,1:2|1:0|1:0|1:0|1:0|1:0|1:0|1:0|0:0,0:0:0:0:
179,218,60339,1,0,1:0:0:0:
179,218,60414,1,0,1:0:0:0:
179,218,60489,6,0,P|218:175|276:162,1,119.000002269745,10|0,0:0|1:0,0:0:0:0:
263,80,60939,2,0,P|319:93|359:136,1,119.000002269745,10|0,0:0|1:0,0:0:0:0:
424,83,61389,2,0,P|441:139|422:195,1,119.000002269745,10|2,0:0|1:2,0:0:0:0:
381,267,61839,2,0,L|388:327,1,59.5000011348725,8|2,0:0|1:2,0:0:0:0:
320,374,62139,1,8,0:0:0:0:
320,374,62289,1,10,0:0:0:0:
328,201,62589,6,0,P|304:180|274:170,1,62.9999980773926,6|8,1:2|0:0,0:0:0:0:
259,89,62889,2,0,P|229:98|205:119,1,62.9999980773926,8|8,1:2|0:0,0:0:0:0:
135,161,63189,1,14,1:2:0:0:
135,161,63264,1,8,0:0:0:0:
135,161,63339,1,8,0:0:0:0:
186,225,63489,1,8,1:2:0:0:
113,275,63639,1,8,0:0:0:0:
194,351,63789,6,0,B|247:345|247:345|276:364|276:364|329:357,1,140,6|8,1:2|0:0,0:0:0:0:
390,282,64239,1,0,1:0:0:0:
390,282,64389,2,0,L|381:212,1,70,0|0,1:0|1:0,0:0:0:0:
466,163,64689,2,0,L|475:93,1,70,8|0,0:0|1:0,0:0:0:0:
410,26,64989,1,0,1:0:0:0:
410,26,65139,1,0,1:0:0:0:
330,83,65289,6,0,P|295:75|261:83,1,70,10|0,0:0|1:0,0:0:0:0:
215,169,65589,2,0,P|226:204|249:227,1,70,2|0,1:2|1:0,0:0:0:0:
347,225,65889,1,10,0:0:0:0:
239,379,66189,6,0,P|179:340|113:356,1,140,2|8,1:2|0:0,0:0:0:0:
42,296,66639,1,0,1:0:0:0:
42,296,66789,2,0,L|51:226,1,70,2|0,1:2|1:0,0:0:0:0:
138,181,67089,2,0,L|129:111,1,70,8|0,0:0|1:0,0:0:0:0:
183,29,67389,5,2,1:2:0:0:
183,29,67539,1,0,1:0:0:0:
258,90,67689,2,0,L|267:160,1,70,8|0,0:0|1:0,0:0:0:0:
332,233,67989,1,10,0:0:0:0:
332,233,68139,1,0,1:0:0:0:
253,292,68289,1,0,1:0:0:0:
338,364,68439,6,0,B|413:342|400:391|474:374,1,140,2|0,1:2|1:0,0:0:0:0:
511,283,68889,2,0,P|500:248|477:225,1,70,8|0,0:0|1:0,0:0:0:0:
383,236,69189,1,0,1:0:0:0:
383,236,69339,1,0,1:0:0:0:
419,145,69489,2,0,L|428:75,1,70,8|0,0:0|1:0,0:0:0:0:
350,13,69789,6,0,P|315:24|292:47,1,70,0|0,1:0|1:0,0:0:0:0:
194,62,70089,2,0,P|186:97|194:129,1,70,10|0,0:0|1:0,0:0:0:0:
158,221,70389,2,0,P|185:245|216:254,1,70,2|0,1:2|1:0,0:0:0:0:
296,311,70689,1,10,0:0:0:0:
414,137,70989,6,0,B|391:214|391:214|430:259,1,140,2|8,1:2|0:0,0:0:0:0:
509,325,71439,1,0,1:0:0:0:
509,325,71589,2,0,P|449:364|383:348,1,140,2|8,1:2|0:0,0:0:0:0:
296,311,72039,1,0,1:0:0:0:
225,379,72189,6,0,L|155:370,1,70,2|0,1:2|1:0,0:0:0:0:
105,285,72489,2,0,L|36:293,1,70,8|0,0:0|1:0,0:0:0:0:
23,195,72789,1,10,0:0:0:0:
41,193,72864,1,8,0:0:0:0:
58,191,72939,1,0,1:0:0:0:
75,189,73014,1,0,1:0:0:0:
93,187,73089,2,0,L|127:183,3,35,4|4|8|8,0:3|0:3|0:3|0:3,0:0:0:0:
160,146,73389,6,0,B|213:152|213:152|242:133|242:133|295:140,1,140,6|8,1:2|0:0,0:0:0:0:
379,186,73839,2,0,P|392:119|354:62,1,140,0|0,1:0|1:0,0:0:0:0:
275,2,74289,1,10,0:0:0:0:
92,74,74589,6,0,L|22:66,1,70,0|0,1:0|1:0,0:0:0:0:
8,163,74889,2,0,L|77:170,1,70,10|0,0:0|1:0,0:0:0:0:
168,133,75189,2,0,L|237:125,1,70,2|0,1:2|1:0,0:0:0:0:
252,222,75489,2,0,L|182:229,1,70,10|0,0:0|1:0,0:0:0:0:
153,324,75789,6,0,L|291:339,1,140,2|8,1:2|0:0,0:0:0:0:
383,299,76239,1,0,1:0:0:0:
383,299,76389,2,0,P|391:265|383:231,1,70,2|0,1:2|1:0,0:0:0:0:
319,156,76689,2,0,P|310:122|318:88,1,70,8|0,0:0|1:0,0:0:0:0:
238,31,76989,6,0,P|305:44|362:6,1,140,2|8,1:2|0:0,0:0:0:0:
460,13,77439,1,0,1:0:0:0:
416,102,77589,1,10,0:0:0:0:
416,102,77739,1,0,1:0:0:0:
496,158,77889,1,0,1:0:0:0:
411,231,78039,6,0,B|359:224|359:224|330:243|330:243|277:237,1,140,2|0,1:2|1:0,0:0:0:0:
221,156,78489,2,0,L|151:163,1,70,10|0,0:0|1:0,0:0:0:0:
86,89,78789,2,0,P|62:114|53:147,1,70,2|0,1:2|1:0,0:0:0:0:
1,231,79089,2,0,P|24:256|33:289,1,70,8|0,0:0|1:0,0:0:0:0:
102,360,79389,1,0,1:0:0:0:
238,219,79689,6,0,L|231:149,1,70,10|0,0:0|1:0,0:0:0:0:
317,103,79989,2,0,L|332:241,1,140,2|10,1:2|0:0,0:0:0:0:
300,334,80439,1,0,1:0:0:0:
300,334,80514,1,0,1:0:0:0:
300,334,80589,6,0,B|375:356|362:307|436:324,1,140,2|8,1:2|0:0,0:0:0:0:
502,250,81039,2,0,B|494:225|472:203|472:203|501:172|498:127,1,140,2|0,1:2|1:0,0:0:0:0:
434,51,81489,2,0,L|364:58,1,70,10|0,0:0|1:0,0:0:0:0:
290,121,81789,5,8,0:0:0:0:
362,186,81939,1,2,1:2:0:0:
289,252,82089,2,0,L|219:245,1,70,8|0,0:0|1:0,0:0:0:0:
157,322,82389,2,0,L|87:329,1,70,10|0,0:0|1:0,0:0:0:0:
20,257,82689,1,8,0:0:0:0:
22,239,82764,1,8,0:0:0:0:
24,222,82839,1,8,0:0:0:0:
26,205,82914,1,8,0:0:0:0:
28,187,82989,6,0,P|15:120|53:63,1,140,6|8,1:2|0:0,0:0:0:0:
239,4,83589,2,0,L|254:142,1,140,2|8,1:2|0:0,0:0:0:0:
322,213,84039,1,0,0:0:0:0:
375,130,84189,6,0,B|463:119|463:119|503:155,1,140,2|8,1:2|0:0,0:0:0:0:
501,255,84639,1,0,0:0:0:0:
501,255,84789,2,0,L|492:325,1,70,0|0,1:0|1:0,0:0:0:0:
461,364,85014,1,0,1:0:0:0:
450,375,85089,2,0,P|414:382|382:374,1,70,8|0,0:0|1:0,0:0:0:0:
321,297,85389,6,0,B|269:290|269:290|240:309|240:309|187:303,1,140,6|8,1:2|0:0,0:0:0:0:
102,353,85839,1,0,0:0:0:0:
45,286,85989,1,2,1:2:0:0:
45,286,86064,1,0,1:0:0:0:
45,286,86139,1,0,1:0:0:0:
97,203,86289,2,0,L|167:194,1,70,10|0,0:0|1:0,0:0:0:0:
253,148,86589,6,0,P|266:81|229:23,1,140,2|10,0:0|0:0,0:0:0:0:
139,24,87039,1,0,1:0:0:0:
139,24,87114,1,0,1:0:0:0:
139,24,87189,2,0,L|148:94,1,70,10|0,0:0|1:0,0:0:0:0:
120,188,87489,1,8,0:0:0:0:
26,158,87639,1,8,0:0:0:0:
47,253,87789,6,0,B|70:330|70:330|31:375,1,140,6|8,1:2|0:0,0:0:0:0:
221,328,88389,2,0,P|278:365|345:352,1,140,2|8,1:2|0:0,0:0:0:0:
389,264,88839,1,0,0:0:0:0:
475,309,88989,2,0,L|492:171,1,140,2|8,1:2|0:0,0:0:0:0:
440,93,89439,1,0,0:0:0:0:
440,93,89589,2,0,L|370:84,1,70,10|0,0:0|1:0,0:0:0:0:
288,139,89889,2,0,L|297:209,1,70,4|0,1:2|1:0,0:0:0:0:
296,314,90189,6,0,B|221:295|236:345|160:324,1,140,6|8,1:2|0:0,0:0:0:0:
93,260,90639,1,0,0:0:0:0:
93,260,90789,2,0,L|84:190,1,70,2|0,1:2|1:0,0:0:0:0:
19,123,91089,1,10,0:0:0:0:
19,123,91239,1,0,1:2:0:0:
67,38,91389,6,0,P|133:24|191:61,1,140,0|8,0:0|0:0,0:0:0:0:
243,145,91839,1,0,1:0:0:0:
302,67,91989,2,0,L|337:62,3,35,10|0|4|4,0:0|1:0|0:3|0:3,0:0:0:0:
369,25,92289,1,8,0:0:0:0:
387,27,92364,1,8,0:0:0:0:
404,29,92439,1,8,0:3:0:0:
421,31,92514,1,8,0:3:0:0:
439,33,92589,6,0,B|462:110|462:110|423:155,1,140,6|8,1:2|0:0,0:0:0:0:
255,257,93189,2,0,L|117:242,1,140,2|8,1:2|0:0,0:0:0:0:
40,305,93639,1,0,0:0:0:0:
114,369,93789,2,0,L|253:353,1,140,2|8,1:2|0:0,0:0:0:0:
344,312,94239,1,0,0:0:0:0:
344,312,94389,2,0,L|414:303,1,70,2|0,1:2|1:0,0:0:0:0:
457,277,94614,1,0,1:0:0:0:
467,267,94689,2,0,P|474:231|466:199,1,70,8|0,0:0|1:0,0:0:0:0:
385,121,94989,6,0,B|318:113|318:113|297:144|261:154,1,140,6|8,1:2|0:0,0:0:0:0:
166,125,95439,1,0,1:0:0:0:
239,60,95589,1,2,1:2:0:0:
239,60,95664,1,0,1:0:0:0:
239,60,95739,1,0,1:0:0:0:
145,29,95889,2,0,L|75:20,1,70,10|0,0:0|0:0,0:0:0:0:
13,105,96189,6,0,B|20:157|20:157|1:186|1:186|7:239,1,140,2|10,1:2|0:0,0:0:0:0:
97,299,96639,1,0,1:0:0:0:
97,299,96714,1,0,1:0:0:0:
97,299,96789,2,0,L|167:290,1,70,10|4,0:0|0:3,0:0:0:0:
230,215,97089,1,8,0:0:0:0:
304,150,97239,1,8,0:0:0:0:
304,150,97314,1,8,0:0:0:0:
304,150,97389,6,0,P|370:136|428:173,1,140,6|8,1:2|0:0,0:0:0:0:
466,263,97839,1,0,0:0:0:0:
397,331,97989,2,0,L|257:315,1,140,2|8,1:2|0:0,0:0:0:0:
181,375,98439,1,0,0:0:0:0:
181,375,98589,6,0,L|111:366,1,70,2|0,1:2|1:0,0:0:0:0:
14,350,98889,2,0,P|24:316|47:290,1,70,8|0,0:0|0:0,0:0:0:0:
144,274,99189,2,0,P|133:240|110:214,1,70,10|0,0:0|1:0,0:0:0:0:
39,147,99489,1,8,0:0:0:0:
98,69,99639,1,0,1:0:0:0:
180,144,99789,6,0,B|232:137|232:137|261:156|261:156|314:150,1,140,6|8,1:2|0:0,0:0:0:0:
404,107,100239,1,0,0:0:0:0:
404,107,100389,2,0,L|474:116,1,70,2|0,1:2|1:0,0:0:0:0:
467,214,100689,2,0,L|397:205,1,70,10|4,0:0|1:2,0:0:0:0:
335,281,100989,5,0,0:0:0:0:
252,249,101139,1,0,1:0:0:0:
252,249,101214,1,0,1:0:0:0:
252,249,101289,2,0,P|244:283|252:316,1,70,8|8,0:0|0:0,0:0:0:0:
178,381,101589,1,10,1:2:0:0:
178,381,101739,1,8,0:0:0:0:
101,319,101889,1,10,0:0:0:0:
150,234,102039,1,8,0:0:0:0:
97,134,102189,6,0,B|6:122|6:122|30:143|37:170,1,140,6|0,1:2|1:0,0:0:0:0:
176,46,102789,1,10,0:0:0:0:
176,46,102939,2,0,P|233:10|300:25,1,140,4|8,1:2|0:0,0:0:0:0:
361,92,103389,6,0,L|352:162,1,70,4|0,1:2|0:0,0:0:0:0:
283,222,103689,2,0,L|292:292,1,70,0|0,1:0|0:0,0:0:0:0:
305,382,103989,2,0,P|337:371|363:347,1,70,10|4,0:0|1:2,0:0:0:0:
443,301,104289,1,6,0:3:0:0:
443,301,104439,1,8,0:3:0:0:
419,212,104589,6,0,B|344:193|359:243|283:222,1,140,4|0,1:2|1:0,0:0:0:0:
203,256,105039,1,0,1:0:0:0:
203,256,105114,1,0,1:0:0:0:
203,256,105189,2,0,P|195:221|203:188,1,70,8|0,0:0|0:0,0:0:0:0:
174,101,105489,6,0,L|104:92,1,70,10|0,0:0|1:0,0:0:0:0:
50,18,105789,2,0,B|73:95|73:95|34:140,1,140,2|2,0:0|1:2,0:0:0:0:
31,234,106239,1,0,1:0:0:0:
31,234,106389,2,0,L|101:225,1,70,10|0,0:0|1:0,0:0:0:0:
158,295,106689,1,10,0:0:0:0:
232,242,106839,1,8,0:0:0:0:
281,318,106989,6,0,P|338:353|405:338,1,140,6|0,1:2|1:2,0:0:0:0:
504,187,107589,1,10,0:0:0:0:
504,187,107739,2,0,B|452:194|452:194|423:175|423:175|370:181,1,140,4|8,1:2|0:0,0:0:0:0:
299,123,108189,6,0,L|308:53,1,70,6|0,1:2|0:0,0:0:0:0:
217,37,108489,2,0,L|208:107,1,70,0|0,1:2|0:0,0:0:0:0:
235,193,108789,2,0,L|244:263,1,70,10|4,0:0|1:2,0:0:0:0:
198,343,109089,1,6,0:3:0:0:
198,343,109239,1,8,0:3:0:0:
127,285,109389,6,1,B|39:296|39:296|-1:260,1,140,6|0,1:2|1:2,0:2:0:0:
45,186,109839,1,0,1:0:0:0:
45,186,109914,1,0,1:0:0:0:
45,186,109989,2,0,L|115:195,1,70,10|0,0:0|1:0,0:0:0:0:
179,130,110289,2,0,L|249:139,1,70,10|0,0:0|1:0,0:0:0:0:
315,76,110589,5,2,0:0:0:0:
315,76,110739,1,8,0:0:0:0:
257,5,110889,2,0,L|187:14,1,70,2|8,1:2|0:0,0:0:0:0:
113,66,111189,1,10,0:0:0:0:
113,66,111339,1,4,1:3:0:0:
179,130,111489,2,0,L|170:200,1,70,10|8,0:0|0:0,0:0:0:0:
235,264,111789,6,0,P|292:228|359:243,2,140,6|0|10,1:2|1:0|0:0,0:0:0:0:
377,377,112689,1,2,1:2:0:0:
494,237,112989,5,0,1:0:0:0:
494,237,113139,2,0,L|503:167,1,70,8|0,0:0|1:0,0:0:0:0:
416,156,113439,1,0,1:0:0:0:
416,156,113589,2,0,L|407:226,1,70,10|0,0:0|1:0,0:0:0:0:
327,270,113889,2,0,P|316:237|292:211,1,70,2|0,1:2|1:0,0:0:0:0:
229,145,114189,6,0,L|89:160,2,140,6|0|8,1:2|1:0|0:0,0:0:0:0:
262,338,115089,2,0,L|192:329,1,70,2|0,1:2|1:0,0:0:0:0:
114,377,115389,6,0,P|78:319|93:252,1,140,2|2,1:2|1:2,0:0:0:0:
175,208,115839,1,0,1:0:0:0:
175,208,115989,2,0,L|184:138,1,70,10|0,0:0|1:0,0:0:0:0:
130,70,116289,1,2,1:2:0:0:
130,70,116439,1,0,1:0:0:0:
201,18,116589,6,0,B|260:25|260:25|269:18|269:18|305:51|305:51|314:44|314:44|374:51,1,188.999994232178,6|0,1:2|0:0,0:0:0:0:
426,119,117189,2,0,L|457:116,7,31.4999990386963,2|0|0|0|0|0|0|0,1:2|1:0|1:0|1:0|1:0|1:0|1:0|1:0,0:0:0:0:
498,98,117789,6,0,L|482:223,1,125.999996154785,12|0,0:0|0:0,0:0:0:0:
417,280,118239,1,0,1:0:0:0:
417,280,118314,1,0,1:0:0:0:
417,280,118389,2,0,L|425:342,1,62.9999980773926,0|0,1:0|1:0,0:0:0:0:
338,362,118689,2,0,L|330:299,1,62.9999980773926,0|0,1:0|1:0,0:0:0:0:
276,216,118989,6,0,P|216:177|150:193,1,140,12|0,0:0|1:0,0:0:0:0:
80,257,119439,2,0,L|89:327,1,70,12|0,0:0|1:0,0:0:0:0:
171,379,119739,1,0,1:0:0:0:
242,312,119889,1,12,0:0:0:0:
118,159,120189,5,8,0:0:0:0:
136,157,120264,1,8,0:0:0:0:
153,155,120339,1,8,0:0:0:0:
170,153,120414,1,8,0:0:0:0:
188,151,120489,2,0,L|258:142,1,70,8|0,0:0|1:0,0:0:0:0:
330,75,120789,1,8,0:0:0:0:
330,75,120939,1,8,0:0:0:0:
406,144,121089,1,8,0:0:0:0:
406,144,121239,1,8,0:0:0:0:
483,63,121389,5,14,1:2:0:0:
