osu file format v14

[General]
AudioFilename: audio.mp3
AudioLeadIn: 0
PreviewTime: 61393
Countdown: 0
SampleSet: Soft
StackLeniency: 0.2
Mode: 0
LetterboxInBreaks: 0
EpilepsyWarning: 1
WidescreenStoryboard: 1

[Editor]
DistanceSpacing: 0.6
BeatDivisor: 4
GridSize: 8
TimelineZoom: 2

[Metadata]
Title:Undefeatable (feat. Kellin Quinn)
TitleUnicode:Undefeatable (feat. Kellin Quinn)
Artist:Tomoya Ohtani
ArtistUnicode:大谷智哉
Creator:Voli
Version:Senjougahara's Extra
Source:Sonic Frontiers
Tags:synitri infinite giganto boss shadow silver super hedgehog senjougahara h byd bite you death renumi zerephiehell nintendo switch dangerkids tyler smyth julian comeau sleeping with sirens fly south music group Jun Senoue ソニックフロンティア english video game rock metal sega
BeatmapID:3898950
BeatmapSetID:1892271

[Difficulty]
HPDrainRate:5.4
CircleSize:3.7
OverallDifficulty:9
ApproachRate:9.3
SliderMultiplier:1.7
SliderTickRate:1

[Events]
//Background and Video events
Video,141,"video.mp4"
0,0,"f3qq7ldxo7v91.png",0,0
//Break Periods
//Storyboard Layer 0 (Background)
//Storyboard Layer 1 (Fail)
//Storyboard Layer 2 (Pass)
//Storyboard Layer 3 (Foreground)
//Storyboard Layer 4 (Overlay)
//Storyboard Sound Samples

[TimingPoints]
194,300,4,2,1,55,1,0
9718,-100,4,2,1,55,0,0
9793,-100,4,2,1,55,0,0
14593,-76.9230769230769,4,2,1,55,0,0
28993,-83.3333333333333,4,2,1,55,0,0
29594,-83.3333333333333,4,2,1,60,0,0
32818,-83.3333333333333,4,2,1,60,0,0
32893,-83.3333333333333,4,2,1,60,0,0
47968,-83.3333333333333,4,2,1,5,0,0
48193,-142.857142857143,4,2,1,55,0,0
51793,-111.111111111111,4,2,1,55,0,0
61993,-90.9090909090908,4,2,1,55,0,0
62444,-90.9090909090908,4,2,1,60,0,0
62593,-90.9090909090908,4,2,1,60,0,0
63194,-90.9090909090908,4,2,1,65,0,0
63794,-76.9230769230769,4,2,1,65,0,1
78043,-66.6666666666667,4,2,1,65,0,1
78493,-76.9230769230769,4,2,1,65,0,1
82919,-76.9230769230769,4,2,1,65,0,0
82994,-90.9090909090909,4,2,1,65,0,1
92594,-90.9090909090909,4,2,1,65,0,1
102194,-90.9090909090909,4,2,1,65,0,0
102494,-90.9090909090909,4,2,1,60,0,0
111793,-90.9090909090909,4,2,1,60,0,0
116593,-76.9230769230769,4,2,1,60,0,0
117793,-90.9090909090909,4,2,1,60,0,0

[Colours]
Combo1 : 88,88,88
Combo2 : 255,255,108
Combo3 : 66,202,253
Combo4 : 232,87,90
Combo5 : 102,179,186
Combo6 : 214,214,214
SliderBorder : 255,215,0

[HitObjects]
259,138,9794,70,0,L|218:129,1,42.5,4|0,1:2|0:0,0:0:0:0:
93,165,9944,2,0,L|35:227,1,85,0|0,2:2|2:2,0:0:0:0:
103,81,10244,2,0,L|77:0,1,85,0|0,2:2|0:0,0:0:0:0:
173,132,10544,2,0,L|256:150,1,85,0|0,2:2|0:0,0:0:0:0:
394,182,10844,1,0,2:2:0:0:
485,87,10994,6,0,P|469:48|429:39,1,85,0|0,2:2|2:2,0:0:0:0:
350,94,11294,2,0,P|365:133|380:173,1,85,0|0,2:2|2:2,0:0:0:0:
236,287,11594,70,0,P|251:248|291:239,1,85,0|0,2:2|2:2,0:0:0:0:
392,284,11894,2,0,P|376:323|361:363,1,85,0|0,2:2|2:2,0:0:0:0:
304,233,12194,6,0,L|291:193,1,42.5,0|0,2:2|0:0,0:0:0:0:
232,120,12344,2,0,L|148:102,1,85,0|0,2:2|2:2,0:0:0:0:
60,252,12569,1,0,2:2:0:0:
60,252,12644,2,0,L|116:188,1,85,0|0,2:2|0:0,0:0:0:0:
30,37,12944,2,0,L|56:117,1,85,0|0,2:2|0:0,0:0:0:0:
131,309,13244,1,0,2:2:0:0:
219,166,13394,69,8,2:2:0:0:
226,115,13469,1,8,2:2:0:0:
270,89,13544,1,8,2:2:0:0:
321,93,13619,1,8,2:2:0:0:
347,137,13694,5,0,1:1:0:0:
344,145,13769,1,0,1:1:0:0:
341,153,13844,1,0,1:1:0:0:
338,161,13919,1,0,1:1:0:0:
330,180,13994,70,0,L|311:51,1,127.5,8|0,2:2|1:1,0:0:0:0:
323,22,14294,5,10,2:3:0:0:
377,4,14369,1,8,2:3:0:0:
406,53,14444,1,4,2:3:0:0:
457,78,14519,1,4,2:3:0:0:
501,55,14595,70,0,L|514:-6,2,55.2499974708558,4|0|8,1:2|1:1|2:2,0:0:0:0:
443,318,14894,1,0,1:1:0:0:
443,318,14969,1,0,1:1:0:0:
443,318,15044,2,0,P|407:281|341:281,1,110.499994941712,8|0,2:2|1:1,0:0:0:0:
190,377,15344,1,8,1:2:0:0:
248,204,15494,1,0,1:1:0:0:
248,204,15569,1,0,1:1:0:0:
248,204,15644,1,8,2:2:0:0:
90,374,15794,6,0,P|35:367|4:313,1,110.499994941712,0|8,1:1|2:2,0:0:0:0:
25,182,16094,1,0,1:1:0:0:
40,167,16169,1,0,1:1:0:0:
65,172,16244,1,8,2:2:0:0:
247,297,16394,70,0,P|300:288|333:245,1,110.499994941712,0|8,1:1|2:2,0:0:0:0:
235,96,16694,1,0,1:1:0:0:
215,83,16769,1,0,1:1:0:0:
186,88,16844,1,8,2:2:0:0:
82,292,16994,5,4,1:2:0:0:
12,83,17144,1,8,2:2:0:0:
141,226,17294,1,0,1:1:0:0:
141,226,17369,1,0,1:1:0:0:
140,226,17444,70,0,P|194:212|249:203,1,110.499994941712,8|0,2:2|1:1,0:0:0:0:
428,138,17744,2,0,P|374:124|319:115,1,110.499994941712,8|0,2:2|1:1,0:0:0:0:
256,324,18044,1,8,2:2:0:0:
462,218,18194,6,0,P|506:188|513:135,1,110.499994941712,0|8,1:1|0:0,0:0:0:0:
411,20,18494,1,0,1:1:0:0:
381,13,18569,1,0,1:1:0:0:
357,31,18644,1,8,2:2:0:0:
331,276,18794,69,0,1:1:0:0:
345,243,18869,1,0,1:1:0:0:
327,212,18944,1,8,2:2:0:0:
292,208,19019,1,0,1:1:0:0:
264,231,19094,5,0,1:1:0:0:
205,236,19169,1,0,1:1:0:0:
167,192,19244,1,8,2:2:0:0:
188,138,19319,1,0,1:1:0:0:
245,127,19395,70,0,L|258:66,2,55.2499974708558,4|0|8,1:2|0:0|2:2,0:0:0:0:
128,354,19694,1,0,1:1:0:0:
128,354,19769,1,0,1:1:0:0:
128,354,19844,2,0,P|180:338|233:324,1,110.499994941712,8|0,2:2|1:1,0:0:0:0:
420,379,20144,1,8,2:2:0:0:
254,226,20294,1,0,1:1:0:0:
254,226,20369,1,0,1:1:0:0:
254,226,20444,1,8,2:2:0:0:
423,84,20594,6,0,P|469:109|473:162,1,110.499994941712,0|8,1:1|2:2,0:0:0:0:
337,339,20894,1,0,1:1:0:0:
349,308,20969,1,0,1:1:0:0:
381,297,21044,1,8,2:2:0:0:
216,308,21194,70,0,P|169:282|165:229,1,110.499994941712,0|8,1:1|2:2,0:0:0:0:
307,139,21494,1,0,1:1:0:0:
339,150,21569,1,0,1:1:0:0:
351,181,21644,1,8,2:2:0:0:
67,220,21794,5,4,1:2:0:0:
135,21,21944,1,8,2:2:0:0:
266,225,22094,1,0,1:1:0:0:
266,225,22169,1,0,1:1:0:0:
265,224,22244,2,0,P|215:208|154:200,1,110.499994941712,8|0,2:2|1:1,0:0:0:0:
60,337,22544,1,8,2:2:0:0:
0,145,22694,1,0,1:1:0:0:
23,118,22769,1,0,1:1:0:0:
59,121,22844,1,8,2:2:0:0:
201,304,22994,70,0,P|215:333|224:363,3,55.2499974708558,4|0|8|0,1:2|0:0|0:0|2:2,0:0:0:0:
306,323,23294,2,0,P|291:293|283:264,3,55.2499974708558,0|0|8|0,1:1|1:1|2:2|0:0,0:0:0:0:
289,193,23594,5,8,2:2:0:0:
318,136,23669,1,0,1:1:0:0:
372,126,23744,1,0,1:1:0:0:
418,157,23819,1,0,1:1:0:0:
466,169,23894,69,8,2:3:0:0:
506,148,23969,1,8,2:3:0:0:
512,105,24044,1,4,2:3:0:0:
485,74,24119,1,4,2:3:0:0:
440,87,24194,6,0,L|432:32,2,55.2499974708558,4|0|8,1:2|0:0|2:2,0:0:0:0:
507,311,24494,1,0,1:1:0:0:
507,311,24569,1,0,1:1:0:0:
507,311,24644,2,0,P|454:294|399:285,1,110.499994941712,8|0,2:2|1:1,0:0:0:0:
218,370,24944,1,8,2:2:0:0:
362,199,25094,1,0,1:1:0:0:
362,199,25169,1,0,1:1:0:0:
362,199,25244,1,8,2:2:0:0:
115,334,25394,70,0,P|87:287|108:239,1,110.499994941712,0|8,1:1|2:2,0:0:0:0:
303,106,25694,1,0,1:1:0:0:
301,141,25769,1,0,1:1:0:0:
276,161,25844,1,8,2:2:0:0:
72,128,25994,6,0,P|21:117|0:67,1,110.499994941712,0|8,1:1|2:2,0:0:0:0:
169,0,26294,1,0,1:1:0:0:
209,8,26369,1,0,1:1:0:0:
229,47,26444,1,8,2:2:0:0:
50,314,26594,69,8,1:2:0:0:
47,270,26669,1,0,1:1:0:0:
78,243,26744,1,0,1:1:0:0:
120,245,26819,1,0,0:0:0:0:
163,234,26894,5,0,1:1:0:0:
190,195,26969,1,0,1:1:0:0:
153,155,27045,2,0,L|143:209,1,55.2499974708558,0|0,1:1|1:1,0:0:0:0:
200,340,27194,1,8,1:2:0:0:
142,159,27344,69,0,1:1:0:0:
108,130,27419,1,0,1:1:0:0:
117,82,27494,1,0,1:1:0:0:
166,63,27569,1,0,1:1:0:0:
213,85,27644,1,0,1:1:0:0:
269,85,27719,1,0,1:1:0:0:
312,54,27794,6,0,P|320:23|323:1,3,55.2499974708558,8|0|0|0,2:2|1:1|1:1|1:1,0:0:0:0:
409,13,28094,2,0,P|400:43|398:66,3,55.2499974708558,0|0|2|0,1:1|1:1|1:2|1:1,0:0:0:0:
512,290,28394,70,0,P|498:236|482:183,1,110.499994941712,14|8,2:2|2:3,0:0:0:0:
444,146,28619,1,8,2:3:0:0:
382,140,28694,1,0,1:1:0:0:
344,181,28769,1,0,1:1:0:0:
323,238,28844,1,4,2:3:0:0:
273,262,28919,1,4,2:3:0:0:
218,237,28994,5,4,1:2:0:0:
179,43,29144,2,0,P|194:90|212:145,1,101.999996887207,0|8,1:1|2:2,0:0:0:0:
122,283,29444,1,0,1:1:0:0:
0,157,29594,2,0,P|20:117|87:115,1,101.999996887207,2|2,1:2|1:2,0:0:0:0:
93,117,29819,1,0,1:1:0:0:
93,117,29894,1,10,2:2:0:0:
282,310,30044,1,2,1:2:0:0:
282,310,30119,1,0,1:1:0:0:
282,310,30194,70,0,P|262:270|195:268,1,101.999996887207,2|0,1:2|1:1,0:0:0:0:
98,368,30494,2,0,P|49:352|0:340,1,101.999996887207,10|2,2:2|1:2,0:0:0:0:
121,197,30719,1,0,1:1:0:0:
121,197,30794,2,0,P|170:185|219:169,1,101.999996887207,10|2,2:2|1:2,0:0:0:0:
231,149,31019,1,0,1:1:0:0:
231,149,31094,1,10,2:3:0:0:
147,31,31244,1,0,1:1:0:0:
147,31,31319,1,4,2:3:0:0:
147,31,31394,5,4,1:2:0:0:
226,252,31544,1,0,1:1:0:0:
275,70,31694,2,0,P|323:53|378:42,1,101.999996887207,10|0,2:2|1:1,0:0:0:0:
512,198,31994,2,0,P|463:181|409:170,1,101.999996887207,2|0,1:2|1:1,0:0:0:0:
392,177,32219,1,0,1:1:0:0:
392,177,32294,1,10,2:2:0:0:
284,356,32444,1,0,1:1:0:0:
130,184,32594,70,0,P|141:135|186:116,1,101.999996887207,2|0,1:2|0:0,0:0:0:0:
328,280,32894,1,10,2:2:0:0:
385,48,33044,1,0,1:1:0:0:
357,30,33119,1,0,1:1:0:0:
317,39,33194,2,0,P|290:111|269:199,1,152.999995330811,10|0,2:2|1:1,0:0:0:0:
306,266,33495,1,10,2:2:0:0:
509,162,33644,1,0,1:1:0:0:
483,134,33719,1,0,1:1:0:0:
445,137,33794,5,4,1:2:0:0:
189,255,33944,2,0,P|169:207|152:159,1,101.999996887207,0|8,1:1|2:2,0:0:0:0:
222,22,34244,1,0,1:1:0:0:
51,173,34394,2,0,P|13:149|18:91,1,101.999996887207,2|2,1:2|1:2,0:0:0:0:
32,82,34619,1,0,1:1:0:0:
32,82,34694,1,10,2:2:0:0:
222,22,34844,1,2,1:2:0:0:
222,22,34919,1,0,1:1:0:0:
222,22,34994,70,0,P|260:46|255:104,1,101.999996887207,2|2,1:2|1:2,0:0:0:0:
178,300,35294,2,0,P|226:283|276:273,1,101.999996887207,10|2,2:2|1:2,0:0:0:0:
461,224,35519,1,0,1:1:0:0:
461,224,35594,2,0,P|411:214|362:197,1,101.999996887207,10|2,2:2|1:2,0:0:0:0:
344,174,35819,1,0,1:1:0:0:
344,174,35894,1,10,1:2:0:0:
479,91,36044,1,0,1:1:0:0:
479,91,36119,1,0,1:1:0:0:
479,91,36194,5,4,1:2:0:0:
382,313,36344,1,0,1:1:0:0:
223,134,36494,2,0,P|254:95|304:87,1,101.999996887207,10|0,2:2|1:1,0:0:0:0:
242,255,36719,1,0,0:0:0:0:
242,255,36794,2,0,P|192:241|142:231,1,101.999996887207,2|0,2:2|1:1,0:0:0:0:
0,372,37094,2,0,P|49:358|99:348,1,101.999996887207,10|0,2:2|1:1,0:0:0:0:
1,208,37394,69,10,2:2:0:0:
6,160,37469,1,8,2:2:0:0:
46,134,37544,1,8,2:2:0:0:
93,148,37619,1,8,2:2:0:0:
134,113,37694,2,0,P|125:87|110:61,3,50.9999984436036,2|0|0|0,1:2|1:1|1:1|1:1,0:0:0:0:
194,33,37994,2,0,P|203:59|218:85,3,50.9999984436036,6|4|4|4,2:3|2:3|2:3|2:3,0:0:0:0:
298,124,38294,5,10,2:2:0:0:
354,141,38369,1,8,2:2:0:0:
399,105,38444,1,8,2:2:0:0:
453,120,38519,1,8,2:2:0:0:
508,90,38594,69,4,1:2:0:0:
421,312,38744,2,0,P|371:299|321:290,1,101.999996887207,0|8,1:1|2:2,0:0:0:0:
466,213,39044,1,0,1:1:0:0:
242,381,39194,2,0,P|202:352|206:304,1,101.999996887207,2|2,1:2|1:2,0:0:0:0:
226,288,39419,1,0,1:1:0:0:
226,288,39494,1,10,2:2:0:0:
324,123,39644,1,2,1:2:0:0:
324,123,39719,1,0,1:1:0:0:
324,123,39794,6,0,P|327:171|286:199,1,101.999996887207,2|0,1:2|1:1,0:0:0:0:
118,239,40094,2,0,P|68:226|18:217,1,101.999996887207,10|2,2:2|1:2,0:0:0:0:
133,94,40319,1,0,1:1:0:0:
133,94,40394,2,0,P|183:84|232:72,1,101.999996887207,10|2,2:2|1:2,0:0:0:0:
251,51,40619,1,0,1:1:0:0:
251,51,40694,1,6,2:3:0:0:
442,150,40844,1,8,2:3:0:0:
442,150,40919,1,8,2:3:0:0:
442,150,40994,69,4,1:2:0:0:
360,23,41144,1,0,1:1:0:0:
480,264,41294,2,0,P|430:250|380:241,1,101.999996887207,10|0,2:2|1:1,0:0:0:0:
304,369,41594,1,2,2:2:0:0:
173,193,41744,1,0,1:1:0:0:
173,193,41819,1,0,1:1:0:0:
173,193,41894,2,0,P|222:179|272:171,1,101.999996887207,10|0,2:2|1:1,0:0:0:0:
298,184,42119,1,0,1:1:0:0:
298,184,42194,5,6,1:2:0:0:
114,88,42344,1,0,0:0:0:0:
228,354,42494,1,10,2:2:0:0:
402,122,42644,1,0,1:1:0:0:
402,122,42719,1,0,1:1:0:0:
402,122,42794,70,0,P|404:73|364:46,1,101.999996887207,10|0,2:2|1:1,0:0:0:0:
321,46,43019,1,0,1:1:0:0:
294,78,43094,1,10,2:3:0:0:
168,284,43244,1,0,1:1:0:0:
126,283,43319,1,0,1:1:0:0:
99,251,43394,5,4,1:2:0:0:
20,69,43544,1,0,1:1:0:0:
173,193,43694,2,0,P|221:178|272:170,1,101.999996887207,10|0,2:2|1:1,0:0:0:0:
480,146,43994,2,0,P|431:130|381:123,1,101.999996887207,2|0,2:2|1:1,0:0:0:0:
509,31,44294,1,10,2:2:0:0:
370,235,44444,1,0,1:1:0:0:
370,235,44519,1,0,1:1:0:0:
370,235,44594,69,2,1:2:0:0:
288,74,44744,1,0,1:1:0:0:
456,286,44894,2,0,P|449:334|407:360,1,101.999996887207,10|0,2:2|1:1,0:0:0:0:
195,236,45194,2,0,P|201:187|243:161,1,101.999996887207,10|8,2:2|2:3,0:0:0:0:
271,170,45419,1,8,2:3:0:0:
271,170,45494,1,0,1:1:0:0:
187,354,45644,1,4,2:3:0:0:
187,354,45719,1,4,2:3:0:0:
187,354,45794,5,4,1:2:0:0:
112,153,45944,1,0,1:1:0:0:
282,310,46094,1,10,2:2:0:0:
46,217,46244,2,0,P|12:180|16:130,1,101.999996887207,0|2,1:1|2:2,0:0:0:0:
223,59,46544,1,0,1:1:0:0:
223,59,46619,1,0,1:1:0:0:
223,59,46694,2,0,P|273:51|321:36,1,101.999996887207,10|0,2:2|1:1,0:0:0:0:
125,10,46994,69,10,2:2:0:0:
67,0,47069,1,8,2:3:0:0:
28,45,47144,1,0,1:1:0:0:
42,102,47219,1,0,1:1:0:0:
97,123,47294,2,0,P|118:136|130:158,3,50.9999984436036,2|0|0|0,1:2|1:1|1:1|1:1,0:0:0:0:
120,275,47594,5,6,2:3:0:0:
74,239,47669,1,4,2:3:0:0:
18,256,47744,1,4,2:3:0:0:
1,312,47819,1,4,2:3:0:0:
37,359,47894,2,0,L|46:308,1,50.9999984436036,14|0,2:2|0:0,0:0:0:0:
331,32,48195,70,0,P|318:90|307:148,1,118.999996368408,0|8,1:1|2:2,0:0:0:0:
230,222,48644,2,0,L|239:250,1,29.7499990921021,0|0,1:1|1:1,0:0:0:0:
310,305,48794,1,8,2:3:0:0:
308,308,48869,1,0,1:1:0:0:
307,312,48944,1,0,1:1:0:0:
306,315,49019,1,0,1:1:0:0:
305,319,49094,1,0,1:1:0:0:
303,322,49169,1,0,1:1:0:0:
302,326,49244,1,0,1:1:0:0:
301,329,49319,1,0,1:1:0:0:
300,333,49394,6,0,L|291:361,4,29.7499990921021,0|0|0|0|8,1:1|1:1|1:1|1:1|2:2,0:0:0:0:
468,152,49994,69,0,1:1:0:0:
325,222,50144,1,8,2:2:0:0:
325,222,50444,5,0,1:1:0:0:
510,277,50594,1,8,2:2:0:0:
372,137,50744,70,0,L|363:109,4,29.7499990921021,0|0|0|0|8,1:1|1:1|1:1|1:1|2:2,0:0:0:0:
421,228,51194,5,0,1:1:0:0:
368,369,51344,1,8,2:2:0:0:
213,318,51494,1,8,2:2:0:0:
265,163,51644,1,8,2:2:0:0:
290,361,51794,70,0,B|282:362|282:362|279:346|279:346|286:345|286:345|283:329|283:329|276:331|276:331|272:315|272:315|280:313|280:313|277:298|277:298|269:299|269:299|266:283|266:283|274:282|274:282|271:266|271:266|263:268|263:268|260:252|260:252|268:251|268:251|265:235|265:235|257:236|257:236|254:221|254:221|262:219|262:219|259:203|259:203|251:205|251:205|248:189|248:189|256:188|256:188|253:172|253:172|245:174|245:174,1,267.749991828919,4|0,1:2|2:2,0:0:0:0:
353,100,52394,1,8,2:3:0:0:
352,105,52469,1,0,1:1:0:0:
351,110,52544,1,0,1:1:0:0:
350,114,52619,1,0,1:1:0:0:
349,119,52694,1,0,1:1:0:0:
348,124,52769,1,0,1:1:0:0:
347,128,52844,1,0,1:1:0:0:
346,133,52919,1,0,1:1:0:0:
345,138,52994,5,12,2:2:0:0:
144,192,53144,1,0,1:1:0:0:
137,164,53219,1,0,1:1:0:0:
165,157,53294,1,8,2:2:0:0:
165,157,53594,69,0,1:1:0:0:
131,0,53744,1,8,2:2:0:0:
53,20,53894,1,0,1:1:0:0:
73,98,54044,1,0,1:1:0:0:
230,63,54194,5,8,2:2:0:0:
307,37,54345,2,0,L|314:0,4,38.2499988327027,0|0|0|0|8,1:1|1:1|1:1|1:1|2:2,0:0:0:0:
277,175,54794,1,0,1:1:0:0:
487,179,54944,70,0,L|473:143,1,38.2499988327027,8|8,2:2|2:2,0:0:0:0:
401,199,55094,2,0,L|362:193,1,38.2499988327027,0|0,1:1|1:1,0:0:0:0:
375,283,55244,2,0,L|350:313,1,38.2499988327027,4|4,2:3|2:3,0:0:0:0:
435,348,55394,6,0,L|449:384,4,38.2499988327027,0|0|0|0|8,1:1|1:1|1:1|1:1|2:2,0:0:0:0:
274,351,55994,69,8,2:3:0:0:
267,349,56069,1,0,1:1:0:0:
261,348,56144,1,0,1:1:0:0:
255,347,56219,1,0,1:1:0:0:
249,345,56294,1,0,1:1:0:0:
242,344,56369,1,0,1:1:0:0:
236,343,56444,1,0,1:1:0:0:
229,341,56519,1,0,1:1:0:0:
223,340,56594,5,8,2:3:0:0:
217,339,56669,1,0,0:0:0:0:
211,337,56744,1,0,1:1:0:0:
204,336,56819,1,0,1:1:0:0:
198,335,56894,1,8,2:2:0:0:
97,289,57044,69,0,0:0:0:0:
103,288,57119,1,0,1:1:0:0:
109,286,57194,1,0,1:1:0:0:
116,285,57269,1,0,1:1:0:0:
122,284,57344,1,8,2:2:0:0:
231,247,57494,5,0,1:1:0:0:
225,246,57569,1,0,1:1:0:0:
219,244,57644,1,4,2:3:0:0:
212,243,57719,1,0,0:0:0:0:
206,242,57794,1,8,2:2:0:0:
105,196,57944,69,0,1:1:0:0:
111,195,58019,1,0,1:1:0:0:
117,193,58094,1,4,2:3:0:0:
124,192,58169,1,4,2:3:0:0:
130,191,58244,1,8,2:2:0:0:
258,170,58394,5,0,1:1:0:0:
370,127,58544,1,8,2:2:0:0:
330,3,58694,1,8,2:2:0:0:
206,45,58844,1,8,2:2:0:0:
330,3,58994,70,0,B|322:2|322:2|319:18|319:18|326:19|326:19|323:35|323:35|316:33|316:33|312:49|312:49|320:51|320:51|317:66|317:66|309:65|309:65|306:81|306:81|314:82|314:82|311:98|311:98|303:96|303:96|300:112|300:112|308:113|308:113|305:129|305:129|297:128|297:128|294:143|294:143|302:145|302:145|299:161|299:161|291:159|291:159|288:175|288:175|296:176|296:176|293:192|293:192|285:190|285:190,1,267.749991828919,4|0,1:2|2:2,0:0:0:0:
209,231,59594,1,8,2:3:0:0:
209,235,59669,1,0,1:1:0:0:
210,240,59744,1,0,1:1:0:0:
211,245,59819,1,0,1:1:0:0:
212,249,59894,1,0,1:1:0:0:
213,254,59969,1,0,1:1:0:0:
214,259,60044,1,0,1:1:0:0:
215,263,60119,1,0,2:2:0:0:
216,268,60194,5,8,2:2:0:0:
419,233,60344,1,0,1:1:0:0:
447,225,60419,1,0,1:1:0:0:
440,196,60494,1,8,2:2:0:0:
357,93,60644,69,0,0:0:0:0:
359,102,60719,1,0,1:1:0:0:
361,111,60794,1,0,1:1:0:0:
363,120,60869,1,0,1:1:0:0:
366,130,60944,1,8,2:2:0:0:
297,212,61094,5,0,1:1:0:0:
295,203,61169,1,0,1:1:0:0:
293,194,61244,1,4,2:3:0:0:
291,185,61319,1,4,2:3:0:0:
288,175,61394,1,8,2:2:0:0:
219,257,61544,69,0,1:1:0:0:
222,267,61619,1,0,1:1:0:0:
224,276,61694,1,6,2:3:0:0:
226,285,61769,1,4,2:3:0:0:
228,294,61844,1,8,2:2:0:0:
149,368,61994,6,0,P|127:362|104:357,3,46.7500014266968,2|0|8|0,1:2|1:1|2:2|0:0,0:0:0:0:
6,299,62294,2,0,P|28:294|51:287,3,46.7500014266968,10|0|0|0,2:2|1:1|1:1|1:1,0:0:0:0:
119,237,62594,5,10,2:2:0:0:
133,210,62669,1,8,2:2:0:0:
116,185,62744,1,8,2:2:0:0:
86,181,62819,1,8,2:2:0:0:
51,182,62894,5,8,2:2:0:0:
27,157,62969,1,8,2:2:0:0:
36,123,63044,1,8,2:2:0:0:
67,107,63119,1,8,2:2:0:0:
99,121,63194,5,10,2:2:0:0:
78,73,63269,1,8,2:2:0:0:
106,29,63344,1,8,2:2:0:0:
158,24,63419,1,8,2:2:0:0:
195,61,63494,5,8,2:2:0:0:
233,102,63569,1,8,2:2:0:0:
289,96,63644,1,8,2:2:0:0:
314,46,63719,1,8,2:2:0:0:
279,0,63794,37,14,1:2:0:0:
224,196,63944,1,0,0:0:0:0:
490,121,64094,2,0,P|436:108|381:98,1,110.499994941712,8|0,2:2|1:1,0:0:0:0:
318,292,64394,1,0,1:1:0:0:
222,111,64544,1,0,1:1:0:0:
75,297,64694,2,0,P|128:283|182:273,1,110.499994941712,8|0,1:2|1:1,0:0:0:0:
394,219,64994,5,0,1:1:0:0:
296,379,65144,1,0,1:1:0:0:
166,180,65294,2,0,P|132:140|144:77,1,110.499994941712,10|0,2:2|1:1,0:0:0:0:
449,150,65594,2,0,P|483:190|471:253,1,110.499994941712,2|0,1:2|1:1,0:0:0:0:
268,6,65894,1,10,2:2:0:0:
386,225,66044,1,0,1:1:0:0:
386,225,66119,1,0,1:1:0:0:
386,225,66194,6,0,B|331:238|306:175|306:175|280:102|217:124,1,220.999989883423,2|8,1:2|2:2,0:0:0:0:
65,311,66644,1,0,1:1:0:0:
88,169,66794,6,0,P|194:139|303:123,1,220.999989883423,2|8,1:2|2:2,0:0:0:0:
295,6,67244,1,0,1:1:0:0:
268,0,67319,1,0,1:1:0:0:
245,15,67394,38,0,P|204:117|176:224,1,220.999989883423,2|8,1:2|2:2,0:0:0:0:
268,364,67844,1,0,1:1:0:0:
417,185,67994,5,10,2:2:0:0:
133,62,68144,1,0,1:1:0:0:
417,185,68294,1,0,1:1:0:0:
161,371,68444,6,0,B|215:388|255:329|255:329|295:264|348:282,1,220.999989883423,6|0,1:2|0:0,0:0:0:0:
409,90,68894,2,0,P|356:103|324:147,1,110.499994941712,8|0,2:2|1:1,0:0:0:0:
471,292,69194,1,0,1:1:0:0:
471,292,69344,1,0,1:1:0:0:
500,57,69494,2,0,P|468:13|415:0,1,110.499994941712,8|0,2:2|1:1,0:0:0:0:
249,42,69794,5,0,1:1:0:0:
191,238,69944,1,0,1:1:0:0:
26,127,70094,2,0,P|58:83|110:70,1,110.499994941712,10|0,2:2|1:1,0:0:0:0:
279,280,70394,2,0,P|246:323|194:336,1,110.499994941712,2|0,1:2|1:1,0:0:0:0:
241,81,70694,1,10,2:2:0:0:
91,222,70844,1,0,1:1:0:0:
96,189,70919,1,0,1:1:0:0:
121,167,70994,38,0,P|224:129|330:98,1,220.999989883423,2|8,1:2|2:2,0:0:0:0:
501,212,71444,1,0,1:1:0:0:
415,0,71594,6,0,P|353:91|298:187,1,220.999989883423,2|8,1:2|2:2,0:0:0:0:
416,303,72044,1,0,1:1:0:0:
485,122,72194,6,0,P|407:92|328:67,1,165.749992412568,2|0,1:2|0:0,0:0:0:0:
252,91,72494,1,8,2:2:0:0:
217,343,72644,1,0,1:1:0:0:
399,296,72794,5,10,2:2:0:0:
415,239,72869,1,8,2:2:0:0:
384,190,72944,1,0,1:1:0:0:
327,180,73019,1,0,1:1:0:0:
273,201,73094,37,10,2:3:0:0:
226,198,73169,1,8,2:3:0:0:
195,163,73244,1,4,2:3:0:0:
199,116,73319,1,4,2:3:0:0:
237,88,73394,5,6,1:2:0:0:
180,313,73544,1,0,0:0:0:0:
18,178,73694,2,0,P|70:160|124:150,1,110.499994941712,8|2,2:2|1:2,0:0:0:0:
307,44,73994,2,0,P|266:7|212:9,1,110.499994941712,0|0,1:1|1:1,0:0:0:0:
431,197,74294,2,0,P|482:184|512:138,1,110.499994941712,10|0,2:2|1:1,0:0:0:0:
392,40,74594,5,0,1:1:0:0:
272,181,74744,1,0,1:1:0:0:
406,29,74894,2,0,P|458:10|512:0,1,110.499994941712,10|0,2:2|1:1,0:0:0:0:
272,181,75194,2,0,P|235:140|237:86,1,110.499994941712,2|0,1:2|1:1,0:0:0:0:
442,185,75494,1,10,2:2:0:0:
322,322,75644,1,0,1:0:0:0:
322,322,75719,1,0,1:1:0:0:
322,322,75794,6,0,P|215:293|105:277,1,220.999989883423,2|8,1:2|2:2,0:0:0:0:
0,384,76244,1,0,1:1:0:0:
182,384,76394,38,0,P|222:281|251:174,1,220.999989883423,2|8,1:2|2:2,0:0:0:0:
224,0,76844,1,0,1:1:0:0:
48,92,76994,6,0,P|117:178|195:256,1,220.999989883423,2|8,1:2|2:2,0:0:0:0:
395,249,77444,1,0,1:1:0:0:
312,81,77594,5,10,2:2:0:0:
240,334,77744,1,0,1:1:0:0:
505,251,77894,1,0,1:1:0:0:
505,251,77969,1,0,2:2:0:0:
505,251,78044,6,0,P|386:203|264:167,1,255.000009727478,6|0,1:2|0:0,0:0:0:0:
420,82,78494,2,0,P|465:52|473:0,1,110.499994941712,10|0,2:2|1:1,0:0:0:0:
209,87,78794,2,0,P|163:114|153:167,1,110.499994941712,2|0,1:2|1:1,0:0:0:0:
365,311,79094,1,10,2:2:0:0:
250,174,79244,1,2,1:2:0:0:
250,174,79319,1,0,1:1:0:0:
250,174,79394,37,0,1:1:0:0:
319,384,79544,1,0,1:1:0:0:
98,296,79694,2,0,P|147:274|201:257,1,110.499994941712,10|0,2:2|1:1,0:0:0:0:
65,88,79994,2,0,P|23:119|13:182,1,110.499994941712,2|0,1:2|1:1,0:0:0:0:
244,40,80294,2,0,P|193:18|140:1,1,110.499994941712,10|0,2:2|1:1,0:0:0:0:
110,175,80519,1,0,0:0:0:0:
110,175,80594,6,0,P|216:143|323:117,1,220.999989883423,6|8,1:2|2:2,0:0:0:0:
492,363,81044,2,0,P|385:331|278:305,1,220.999989883423,2|0,1:2|1:1,0:3:0:0:
447,121,81494,2,0,P|491:154|500:207,1,110.499994941712,10|0,2:2|0:0,0:0:0:0:
216,358,81794,5,8,2:2:0:0:
419,196,81944,1,2,1:2:0:0:
177,101,82094,1,8,0:0:0:0:
324,209,82244,1,0,1:1:0:0:
337,16,82394,5,10,2:2:0:0:
293,13,82469,1,8,2:2:0:0:
271,51,82544,1,0,1:1:0:0:
294,88,82619,1,0,1:1:0:0:
338,85,82694,37,8,2:2:0:0:
396,58,82769,1,8,2:2:0:0:
452,87,82844,1,8,2:2:0:0:
463,149,82919,1,8,2:2:0:0:
419,196,82994,6,0,P|328:174|236:155,1,187.000005706787,4|8,1:2|2:2,0:0:0:0:
20,377,83594,1,10,2:3:0:0:
16,366,83669,1,0,1:1:0:0:
12,355,83744,1,4,2:3:0:0:
216,262,83894,1,8,2:2:0:0:
216,262,84194,5,10,2:3:0:0:
211,275,84269,1,0,1:1:0:0:
206,288,84344,1,4,2:3:0:0:
20,243,84494,1,8,2:2:0:0:
20,243,84794,6,0,P|49:206|102:207,1,93.5000028533936,2|0,1:2|1:1,0:0:0:0:
110,218,85019,1,0,1:1:0:0:
110,218,85094,1,8,2:2:0:0:
0,103,85244,1,0,1:1:0:0:
180,134,85394,38,0,P|271:114|359:83,1,187.000005706787,6|8,1:2|2:2,0:0:0:0:
257,8,85844,1,0,2:2:0:0:
445,42,85994,2,0,P|464:83|448:126,1,93.5000028533936,10|4,2:3|2:3,0:0:0:0:
256,226,86294,2,0,P|259:180|295:152,1,93.5000028533936,10|0,2:2|1:1,0:0:0:0:
304,359,86594,5,2,1:2:0:0:
512,288,86744,1,0,1:1:0:0:
512,288,86819,1,0,1:1:0:0:
512,288,86894,2,0,P|468:274|420:269,1,93.5000028533936,10|0,2:2|1:1,0:0:0:0:
294,152,87194,2,0,P|340:146|384:133,1,93.5000028533936,10|0,2:2|1:1,0:0:0:0:
392,113,87419,1,0,1:1:0:0:
392,113,87494,1,8,2:2:0:0:
242,16,87644,1,8,2:2:0:0:
78,126,87794,6,0,P|56:216|37:308,1,187.000005706787,0|8,1:1|2:2,0:0:0:0:
357,378,88394,5,10,2:3:0:0:
358,367,88469,1,0,1:1:0:0:
360,356,88544,1,4,2:3:0:0:
200,242,88694,1,8,2:2:0:0:
200,242,88994,37,6,2:3:0:0:
201,253,89069,1,0,1:1:0:0:
203,264,89144,1,0,1:1:0:0:
358,177,89294,1,8,2:2:0:0:
358,177,89594,5,10,2:2:0:0:
156,69,89744,1,0,1:1:0:0:
293,241,89894,1,0,1:1:0:0:
178,94,90044,1,0,1:1:0:0:
389,268,90194,6,0,P|433:254|479:244,1,93.5000028533936,6|0,1:2|1:1,0:0:0:0:
325,87,90494,2,0,P|283:106|271:149,1,93.5000028533936,8|0,2:2|2:2,0:0:0:0:
495,49,90794,2,0,P|451:35|405:25,1,93.5000028533936,2|0,1:2|1:1,0:0:0:0:
496,215,91094,1,10,2:2:0:0:
186,352,91244,6,0,P|195:264|280:241,1,187.000005706787,4|0,1:2|1:1,0:0:0:0:
421,134,91694,1,8,2:2:0:0:
406,178,91769,1,0,1:1:0:0:
392,223,91844,1,0,1:1:0:0:
380,268,91919,1,0,1:1:0:0:
370,313,91994,37,10,2:2:0:0:
496,215,92144,1,0,1:1:0:0:
451,18,92294,5,10,2:3:0:0:
404,6,92369,1,8,2:3:0:0:
361,21,92444,1,4,2:3:0:0:
332,57,92519,1,4,2:3:0:0:
328,104,92594,5,4,1:2:0:0:
485,229,92744,1,0,0:0:0:0:
274,325,92894,2,0,P|283:279|298:234,1,93.5000028533936,8|0,2:2|1:1,0:0:0:0:
425,96,93194,53,10,2:3:0:0:
421,110,93269,1,0,1:1:0:0:
418,124,93344,1,4,2:3:0:0:
209,150,93494,1,8,2:2:0:0:
209,150,93794,5,6,2:3:0:0:
205,136,93869,1,0,1:1:0:0:
202,122,93944,1,0,1:1:0:0:
388,256,94094,1,8,2:2:0:0:
388,256,94394,6,0,P|358:221|312:220,1,93.5000028533936,2|0,1:2|1:1,0:0:0:0:
297,238,94619,1,0,1:1:0:0:
297,238,94694,1,8,2:2:0:0:
367,375,94844,1,0,1:1:0:0:
196,270,94994,6,0,P|107:238|16:218,1,187.000005706787,6|8,1:2|2:2,0:0:0:0:
170,161,95444,1,0,2:2:0:0:
31,312,95594,2,0,P|1:284|6:235,1,93.5000028533936,10|4,2:3|2:3,0:0:0:0:
155,78,95894,2,0,P|185:106|180:155,1,93.5000028533936,10|0,2:2|2:2,0:0:0:0:
15,75,96194,37,2,1:2:0:0:
116,270,96344,1,0,0:0:0:0:
116,270,96419,1,0,0:0:0:0:
115,270,96494,2,0,P|158:254|206:242,1,93.5000028533936,10|0,2:2|1:1,0:0:0:0:
461,142,96794,2,0,P|417:126|371:114,1,93.5000028533936,10|8,2:2|2:3,0:0:0:0:
199,4,97094,5,10,2:2:0:0:
234,43,97169,1,8,2:2:0:0:
261,90,97244,1,8,2:2:0:0:
277,141,97319,1,8,2:2:0:0:
282,194,97394,6,0,P|371:162|462:142,1,187.000005706787,4|8,1:2|2:2,0:0:0:0:
393,371,97994,5,2,1:2:0:0:
377,368,98069,1,0,1:1:0:0:
361,366,98144,1,0,1:1:0:0:
137,317,98294,1,8,2:2:0:0:
137,317,98594,37,2,1:2:0:0:
153,314,98669,1,0,1:1:0:0:
169,312,98744,1,0,1:1:0:0:
365,268,98894,1,8,2:2:0:0:
365,268,99194,5,10,2:2:0:0:
171,187,99344,1,0,1:1:0:0:
346,108,99494,1,8,2:2:0:0:
196,196,99644,1,0,1:1:0:0:
410,346,99794,6,0,P|446:317|452:272,1,93.5000028533936,6|0,1:2|1:1,0:0:0:0:
318,122,100094,2,0,P|300:165|291:211,1,93.5000028533936,8|0,2:2|1:1,0:0:0:0:
446,98,100394,2,0,P|439:52|403:24,1,93.5000028533936,2|0,1:2|1:1,0:0:0:0:
209,153,100694,1,10,2:2:0:0:
315,22,100844,1,0,1:1:0:0:
118,96,100994,6,0,P|74:78|28:69,1,93.5000028533936,2|0,1:2|1:1,0:0:0:0:
7,83,101219,1,0,1:1:0:0:
7,83,101294,1,8,2:2:0:0:
215,46,101444,1,8,2:2:0:0:
215,46,101519,1,8,2:2:0:0:
215,46,101594,37,10,2:2:0:0:
304,221,101744,1,8,2:2:0:0:
115,191,101894,1,10,2:2:0:0:
341,117,102044,1,8,2:2:0:0:
292,349,102194,5,4,1:2:0:0:
6,197,102494,1,0,1:1:0:0:
292,349,102794,1,10,2:2:0:0:
222,261,102944,2,0,P|130:276|39:296,1,187.000005706787,0|0,1:1|1:1,0:0:0:0:
6,197,103394,5,4,1:2:0:0:
379,106,103694,1,0,1:1:0:0:
6,197,103994,1,10,2:2:0:0:
79,88,104144,2,0,P|171:102|262:122,1,187.000005706787,0|0,1:1|1:1,0:0:0:0:
379,106,104594,5,4,1:2:0:0:
6,197,104894,1,0,1:1:0:0:
96,60,105044,1,0,1:1:0:0:
96,60,105119,1,0,1:1:0:0:
96,60,105194,1,8,2:2:0:0:
230,222,105344,1,0,2:2:0:0:
311,28,105494,2,0,P|265:37|222:54,1,93.5000028533936,10|0,2:2|1:1,0:0:0:0:
370,217,105794,37,2,1:2:0:0:
311,28,105944,1,8,2:2:0:0:
370,217,106094,2,0,P|414:199|460:190,1,93.5000028533936,2|0,1:2|1:1,0:0:0:0:
512,44,106394,2,0,P|481:10|435:11,1,93.5000028533936,10|0,2:2|1:1,0:0:0:0:
417,26,106619,1,0,0:0:0:0:
417,26,106694,1,10,2:2:0:0:
291,151,106844,1,8,2:2:0:0:
473,371,106994,5,4,1:2:0:0:
107,259,107294,1,0,1:1:0:0:
473,371,107594,1,10,2:2:0:0:
396,259,107744,2,0,P|304:276|213:298,1,187.000005706787,0|0,1:1|1:1,0:0:0:0:
107,259,108194,5,4,1:2:0:0:
505,152,108494,1,0,1:1:0:0:
107,259,108794,1,10,2:2:0:0:
196,145,108944,2,0,P|288:160|377:186,1,187.000005706787,0|0,1:1|1:1,0:0:0:0:
505,152,109394,5,4,1:2:0:0:
107,259,109694,1,0,1:1:0:0:
219,98,109844,1,0,1:1:0:0:
219,98,109919,1,0,1:1:0:0:
219,98,109994,1,10,2:2:0:0:
210,285,110144,1,0,1:1:0:0:
100,100,110294,2,8,P|55:107|11:125,1,93.5000028533936,10|0,2:2|1:1,0:0:0:0:
210,285,110594,37,2,1:2:0:0:
100,100,110744,1,8,2:2:0:0:
289,213,110894,2,0,P|332:194|377:186,1,93.5000028533936,2|8,1:2|2:2,0:0:0:0:
407,193,111119,1,8,2:2:0:0:
407,193,111194,5,10,2:2:0:0:
441,345,111344,1,0,1:1:0:0:
512,118,111494,1,10,2:2:0:0:
400,360,111644,1,8,2:2:0:0:
246,142,111794,5,4,1:2:0:0:
269,70,111944,1,0,1:1:0:0:
338,41,112094,1,0,1:1:0:0:
404,74,112244,1,0,1:1:0:0:
512,287,112394,5,10,2:2:0:0:
450,211,112544,2,0,P|361:183|270:163,1,187.000005706787,0|0,1:1|1:1,0:0:0:0:
180,204,112994,37,4,1:2:0:0:
0,138,113144,1,8,2:2:0:0:
41,70,113294,1,0,1:1:0:0:
119,61,113444,1,0,1:1:0:0:
28,280,113594,5,10,2:2:0:0:
63,203,113744,2,0,P|152:175|244:157,1,187.000005706787,0|0,1:1|1:1,0:0:0:0:
275,167,114119,1,0,0:0:0:0:
275,167,114194,5,12,1:2:0:0:
337,216,114344,1,0,1:1:0:0:
414,196,114494,1,0,1:1:0:0:
443,122,114644,1,0,1:1:0:0:
303,29,114794,5,8,2:2:0:0:
214,255,114944,1,0,1:1:0:0:
37,87,115094,2,0,P|81:72|127:62,1,93.5000028533936,2|0,1:2|1:1,0:0:0:0:
158,72,115319,1,0,0:0:0:0:
158,72,115394,37,6,1:2:0:0:
420,112,115544,1,8,2:2:0:0:
172,179,115694,2,0,P|137:209|129:254,1,93.5000028533936,2|0,1:2|1:1,0:0:0:0:
469,192,115994,2,0,P|503:161|511:116,1,93.5000028533936,10|0,2:2|1:1,0:0:0:0:
262,113,116294,1,2,1:2:0:0:
354,328,116444,1,0,1:1:0:0:
465,33,116594,6,0,B|360:0|282:80|282:80|204:158|112:120,1,386.749982295991,4|0,1:2|2:2,0:0:0:0:
46,60,117194,1,0,1:1:0:0:
50,56,117269,1,0,1:1:0:0:
54,52,117344,1,0,1:1:0:0:
58,50,117419,1,0,1:1:0:0:
62,46,117494,1,0,1:1:0:0:
66,42,117569,1,0,1:1:0:0:
70,38,117644,1,0,1:1:0:0:
74,34,117719,1,0,1:1:0:0:
78,30,117794,6,0,B|155:5|214:65|214:65|273:124|332:99,1,280.500008560181,12|0,2:2|1:1,0:0:0:0:
348,81,118319,1,0,1:1:0:0:
348,81,118394,1,2,1:2:0:0:
499,7,118544,1,0,1:1:0:0:
475,97,118694,1,2,1:2:0:0:
451,187,118844,1,0,1:1:0:0:
246,294,118994,6,0,P|180:268|112:253,1,140.25000428009,12|0,2:2|2:2,0:0:0:0:
87,267,119294,1,0,1:1:0:0:
250,62,119444,1,8,2:2:0:0:
139,365,119594,37,0,1:1:0:0:
154,98,119744,1,0,1:1:0:0:
376,244,119894,1,8,2:2:0:0:
376,244,120194,5,8,2:2:0:0:
333,233,120269,1,8,2:2:0:0:
290,222,120344,1,8,2:2:0:0:
247,211,120419,1,8,2:2:0:0:
204,200,120494,1,8,2:2:0:0:
424,155,120644,5,0,1:1:0:0:
458,146,120719,1,0,1:1:0:0:
492,137,120794,1,8,2:2:0:0:
250,62,120944,1,8,2:2:0:0:
353,343,121094,1,8,2:2:0:0:
439,54,121244,1,8,2:2:0:0:
358,324,121394,5,4,1:2:0:0:
