osu file format v14

[General]
AudioFilename: audio.mp3
AudioLeadIn: 0
PreviewTime: 61393
Countdown: 0
SampleSet: Soft
StackLeniency: 0.4
Mode: 0
LetterboxInBreaks: 0
EpilepsyWarning: 1
WidescreenStoryboard: 1

[Editor]
DistanceSpacing: 0.6
BeatDivisor: 4
GridSize: 8
TimelineZoom: 2.4

[Metadata]
Title:Undefeatable (feat. Kellin Quinn)
TitleUnicode:Undefeatable (feat. Kellin Quinn)
Artist:Tomoya Ohtani
ArtistUnicode:大谷智哉
Creator:Voli
Version:Light Insane
Source:Sonic Frontiers
Tags:synitri infinite giganto boss shadow silver super hedgehog senjougahara h byd bite you death renumi zerephiehell nintendo switch dangerkids tyler smyth julian comeau sleeping with sirens fly south music group Jun Senoue ソニックフロンティア english video game rock metal sega
BeatmapID:3900704
BeatmapSetID:1892271

[Difficulty]
HPDrainRate:5
CircleSize:3.5
OverallDifficulty:8
ApproachRate:8.8
SliderMultiplier:1.5
SliderTickRate:1

[Events]
//Background and Video events
Video,141,"video.mp4"
0,0,"f3qq7ldxo7v91.png",0,0
//Break Periods
//Storyboard Layer 0 (Background)
//Storyboard Layer 1 (Fail)
//Storyboard Layer 2 (Pass)
//Storyboard Layer 3 (Foreground)
//Storyboard Layer 4 (Overlay)
//Storyboard Sound Samples

[TimingPoints]
194,300,4,2,1,55,1,0
9794,-133.333333333333,4,2,1,55,0,0
14593,-133.333333333333,4,2,1,55,0,0
28393,-74.0740740740741,4,2,1,55,0,0
29143,-100,4,2,1,55,0,0
29594,-100,4,2,1,60,0,0
32818,-100,4,2,1,60,0,0
32893,-100,4,2,1,60,0,0
42193,-80,4,2,1,60,0,0
43393,-100,4,2,1,60,0,0
48194,-80,4,2,1,55,0,0
49543,-133.333333333333,4,2,1,55,0,0
55393,-80,4,2,1,55,0,0
56743,-133.333333333333,4,2,1,55,0,0
61993,-117.647058823529,4,2,1,55,0,0
62444,-117.647058823529,4,2,1,60,0,0
62593,-100,4,2,1,60,0,0
63794,-80,4,2,1,65,0,1
64093,-100,4,2,1,65,0,1
71593,-83.3333333333333,4,2,1,65,0,1
71893,-100,4,2,1,65,0,1
74293,-133.333333333333,4,2,1,65,0,1
74893,-100,4,2,1,65,0,1
78043,-83.3333333333333,4,2,1,65,0,1
78343,-100,4,2,1,65,0,1
79243,-200,4,2,1,65,0,1
79693,-100,4,2,1,65,0,1
80593,-66.6666666666667,4,2,1,65,0,1
82543,-100,4,2,1,65,0,1
82919,-100,4,2,1,65,0,0
82994,-100,4,2,1,65,0,1
93943,-83.3333333333333,4,2,1,65,0,1
94543,-76.9230769230769,4,2,1,65,0,1
94993,-71.4285714285714,4,2,1,65,0,1
95293,-100,4,2,1,65,0,1
96193,-50,4,2,1,65,0,1
96793,-100,4,2,1,65,0,1
98143,-71.4285714285714,4,2,1,65,0,1
98743,-76.9230769230769,4,2,1,65,0,1
99193,-100,4,2,1,65,0,1
102194,-100,4,2,1,60,0,0
103393,-83.3333333333333,4,2,1,60,0,0
103693,-100,4,2,1,60,0,0
104593,-76.9230769230769,4,2,1,60,0,0
104893,-100,4,2,1,60,0,0
108193,-83.3333333333333,4,2,1,60,0,0
108493,-100,4,2,1,60,0,0
109393,-76.9230769230769,4,2,1,60,0,0
109693,-100,4,2,1,60,0,0
112993,-83.3333333333333,4,2,1,60,0,0
113593,-100,4,2,1,60,0,0
114193,-76.9230769230769,4,2,1,60,0,0
114793,-100,4,2,1,60,0,0
116593,-80,4,2,1,60,0,0
117193,-100,4,2,1,60,0,0
117793,-74.0740740740741,4,2,1,60,0,0
118243,-100,4,2,1,60,0,0
118993,-71.4285714285714,4,2,1,60,0,0
120194,-100,4,2,1,60,0,0
120343,-100,4,2,1,60,0,0

[Colours]
Combo1 : 88,88,88
Combo2 : 255,255,108
Combo3 : 66,202,253
Combo4 : 232,87,90
Combo5 : 102,179,186
Combo6 : 214,214,214
SliderBorder : 255,215,0

[HitObjects]
108,25,9794,69,4,1:2:0:0:
68,125,9944,2,0,L|179:107,2,112.500004291535,0|0|0,2:2|2:2|2:2,0:0:0:0:
136,214,10844,5,0,2:2:0:0:
200,283,10994,2,0,B|214:308|214:308|208:336,2,56.2500021457673,0|0|0,2:2|2:2|2:2,0:0:0:0:
136,214,11444,1,0,2:2:0:0:
107,302,11594,2,0,B|101:328|101:328|115:353,2,56.2500021457673,0|0|0,2:2|2:2|2:2,0:0:0:0:
136,214,12044,1,0,2:2:0:0:
239,130,12194,70,0,L|248:74,1,56.2500021457673,0|0,2:2|2:2,0:0:0:0:
333,22,12494,2,0,L|373:29,1,28.1250010728836,0|0,2:2|2:2,0:0:0:0:
350,60,12644,2,0,L|460:78,2,112.500004291535,0|0|0,2:2|2:2|2:2,0:0:0:0:
256,82,13394,5,8,2:2:0:0:
256,82,13469,1,8,2:2:0:0:
256,82,13544,2,0,L|216:89,1,28.1250010728836,8|8,2:2|2:2,0:0:0:0:
189,14,13694,2,0,L|161:9,3,28.1250010728836,0|0|0|0,1:1|1:1|1:1|1:1,0:0:0:0:
132,88,13994,2,0,L|104:92,3,28.1250010728836,8|0|0|0,2:2|1:1|1:1|1:1,0:0:0:0:
37,25,14294,69,10,2:3:0:0:
121,214,14594,5,4,1:2:0:0:
204,356,14744,2,0,P|214:317|213:287,1,56.2500021457673,8|0,2:2|1:1,0:0:0:0:
121,214,15044,2,0,P|123:241|131:268,1,56.2500021457673,8|0,2:2|1:1,0:0:0:0:
34,349,15344,2,0,P|42:322|44:294,1,56.2500021457673,8|0,1:2|1:1,0:0:0:0:
0,208,15644,1,8,2:2:0:0:
75,25,15794,70,0,L|140:33,1,56.2500021457673,0|8,1:1|2:2,0:0:0:0:
222,48,16094,1,0,1:1:0:0:
222,48,16169,1,0,1:1:0:0:
222,48,16244,1,8,2:2:0:0:
336,125,16394,2,0,L|271:133,1,56.2500021457673,0|8,1:1|2:2,0:0:0:0:
189,148,16694,1,0,1:1:0:0:
189,148,16769,1,0,1:1:0:0:
189,148,16844,1,8,2:2:0:0:
350,288,16994,6,0,P|347:259|351:233,1,56.2500021457673,4|8,1:2|2:2,0:0:0:0:
455,261,17294,2,0,P|457:274|455:288,2,28.1250010728836,0|0|8,1:1|1:1|2:2,0:0:0:0:
385,371,17594,2,0,P|357:375|329:372,1,56.2500021457673,0|8,1:1|2:2,0:0:0:0:
430,176,17894,2,0,P|457:171|485:174,1,56.2500021457673,0|8,1:1|2:2,0:0:0:0:
208,244,18194,70,0,L|229:363,1,112.500004291535,0|0,1:1|1:1,0:0:0:0:
227,354,18569,1,0,1:1:0:0:
227,354,18644,1,8,2:2:0:0:
88,303,18794,2,0,L|107:192,1,112.500004291535,0|0,1:1|1:1,0:0:0:0:
106,192,19169,1,0,1:1:0:0:
106,192,19244,1,8,2:2:0:0:
35,26,19394,5,4,1:2:0:0:
156,78,19544,2,0,P|130:89|102:88,1,56.2500021457673,8|0,2:2|1:1,0:0:0:0:
229,19,19844,2,0,P|256:18|282:29,1,56.2500021457673,8|0,2:2|1:1,0:0:0:0:
340,99,20144,2,0,P|367:99|393:88,1,56.2500021457673,8|0,2:2|1:1,0:0:0:0:
453,19,20444,1,8,2:2:0:0:
455,180,20594,70,0,L|460:238,1,56.2500021457673,0|8,1:1|2:2,0:0:0:0:
471,330,20894,1,0,1:1:0:0:
471,330,20969,1,0,1:1:0:0:
471,330,21044,1,8,2:2:0:0:
325,367,21194,2,0,L|329:310,1,56.2500021457673,0|8,1:1|2:2,0:0:0:0:
341,218,21495,1,0,1:1:0:0:
341,218,21570,1,0,1:1:0:0:
341,218,21645,1,8,2:2:0:0:
192,321,21794,6,0,P|156:335|127:329,1,56.2500021457673,4|8,1:2|2:2,0:0:0:0:
68,240,22094,2,0,P|55:233|41:232,2,28.1250010728836,0|0|8,1:1|1:1|2:2,0:0:0:0:
44,372,22394,2,0,L|35:295,1,56.2500021457673,0|8,1:1|2:2,0:0:0:0:
161,192,22694,2,0,L|154:247,1,56.2500021457673,0|8,1:1|2:2,0:0:0:0:
31,89,22994,70,0,B|78:82|78:82|82:68|82:68|132:62,1,112.500004291535,4|0,1:2|1:1,0:0:0:0:
132,62,23369,1,0,1:1:0:0:
132,62,23444,1,8,2:2:0:0:
234,116,23594,2,0,L|227:85,3,28.1250010728836,8|0|0|0,2:2|1:1|1:1|1:1,0:0:0:0:
295,32,23894,2,0,L|301:4,3,28.1250010728836,8|8|4|4,2:3|2:3|2:3|2:3,0:0:0:0:
363,142,24194,5,4,1:2:0:0:
505,175,24344,2,0,P|478:183|450:185,1,56.2500021457673,8|0,2:2|1:1,0:0:0:0:
370,262,24644,2,0,P|397:264|424:272,1,56.2500021457673,8|0,2:2|1:1,0:0:0:0:
512,345,24944,2,0,P|473:355|443:354,1,56.2500021457673,8|0,2:2|1:1,0:0:0:0:
512,262,25244,1,8,2:2:0:0:
294,372,25394,70,0,L|286:307,1,56.2500021457673,0|8,1:1|2:2,0:0:0:0:
271,225,25694,1,0,1:1:0:0:
271,225,25769,1,0,1:1:0:0:
271,225,25844,1,8,2:2:0:0:
142,242,25994,2,0,L|77:250,1,56.2500021457673,0|8,1:1|2:2,0:0:0:0:
4,268,26294,1,0,1:1:0:0:
4,268,26369,1,0,1:1:0:0:
4,268,26444,1,8,2:2:0:0:
156,100,26594,6,0,P|154:72|162:41,1,56.2500021457673,8|0,1:2|1:1,0:0:0:0:
245,79,26894,2,0,P|257:85|269:79,2,28.1250010728836,0|0|0,1:1|1:1|1:1,0:0:0:0:
353,43,27194,2,0,P|359:70|357:98,1,56.2500021457673,8|0,1:2|1:1,0:0:0:0:
285,168,27494,2,0,P|257:173|230:167,1,56.2500021457673,0|0,1:1|1:1,0:0:0:0:
125,245,27794,70,0,L|134:276,3,28.1250010728836,8|0|0|0,2:2|1:1|1:1|1:1,0:0:0:0:
208,342,28094,2,0,L|215:314,3,28.1250010728836,0|0|2|0,1:1|1:1|1:2|1:1,0:0:0:0:
306,292,28394,6,0,B|318:246|318:246|350:226|350:226|392:237|392:237|402:268|402:268|389:314|389:314|377:354|377:354|327:375,1,303.750001158714,14|4,2:2|2:3,0:0:0:0:
478,345,28994,1,4,1:2:0:0:
478,345,29144,2,0,L|497:272,1,75,0|8,1:1|2:2,0:0:0:0:
462,184,29444,1,0,1:1:0:0:
512,55,29594,70,0,P|477:68|440:65,1,75,2|2,1:2|1:2,0:0:0:0:
371,1,29894,1,10,2:2:0:0:
371,1,30044,1,2,1:2:0:0:
267,26,30194,2,0,L|289:190,1,150,2|10,1:2|2:2,0:0:0:0:
302,267,30644,1,2,1:2:0:0:
227,334,30794,2,0,L|190:326,3,37.5,10|0|0|0,0:2|1:0|1:2|1:1,0:0:0:0:
153,253,31094,2,0,L|116:260,3,37.5,10|4|0|4,2:3|2:3|1:1|2:3,0:0:0:0:
60,325,31394,6,0,P|38:295|34:258,1,75,4|0,1:2|1:1,0:0:0:0:
37,107,31694,2,0,P|33:143|11:173,1,75,10|0,2:2|1:1,0:0:0:0:
5,13,31994,2,0,L|166:26,1,150,2|10,1:2|2:2,0:0:0:0:
278,35,32444,69,0,1:1:0:0:
278,35,32519,1,0,1:1:0:0:
278,35,32594,2,0,L|288:116,1,75,2|0,1:2|0:0,0:0:0:0:
440,35,32894,2,0,L|359:45,1,75,10|0,2:2|1:1,0:0:0:0:
417,203,33194,2,0,L|427:122,1,75,10|0,2:2|1:1,0:0:0:0:
251,214,33494,2,0,L|325:204,1,75,10|0,2:2|1:1,0:0:0:0:
481,336,33794,6,0,P|408:318|333:312,1,150,4|8,1:2|2:2,0:0:0:0:
261,383,34244,1,0,1:1:0:0:
162,340,34394,70,0,L|148:267,1,75,2|2,1:2|1:2,0:0:0:0:
58,311,34694,2,0,L|44:384,1,75,10|2,2:2|1:2,0:0:0:0:
26,224,34994,2,0,L|40:151,1,75,2|2,1:2|1:2,0:0:0:0:
116,87,35294,2,0,L|130:160,1,75,10|2,2:2|1:2,0:0:0:0:
218,96,35594,1,10,2:2:0:0:
173,13,35744,1,2,1:2:0:0:
173,13,35819,1,0,1:1:0:0:
173,13,35894,2,0,P|103:-4|35:40,1,150,10|4,1:2|1:2,0:0:0:0:
305,133,36494,6,0,L|392:139,1,75,10|0,2:2|1:1,0:0:0:0:
512,27,36794,2,0,L|437:32,1,75,2|0,2:2|1:1,0:0:0:0:
470,147,37094,1,10,2:2:0:0:
503,316,37394,70,0,L|516:363,3,37.5,10|8|8|8,2:2|2:2|2:2|2:2,0:0:0:0:
408,289,37694,2,0,L|417:252,3,37.5,2|0|0|0,1:2|1:1|1:1|1:1,0:0:0:0:
320,321,37994,2,0,L|329:357,3,37.5,6|4|4|4,2:3|2:3|2:3|2:3,0:0:0:0:
233,287,38294,6,0,L|242:250,1,37.5,10|8,2:2|2:2,0:0:0:0:
201,308,38444,2,0,L|210:345,1,37.5,8|8,2:2|2:2,0:0:0:0:
186,277,38594,2,0,P|148:278|117:297,1,75,4|0,1:2|1:1,0:0:0:0:
72,377,38894,1,8,2:2:0:0:
72,377,39044,1,0,1:1:0:0:
8,296,39194,70,0,L|28:209,1,75,2|2,1:2|1:2,0:0:0:0:
46,132,39494,1,10,2:2:0:0:
46,132,39644,1,2,1:2:0:0:
0,32,39794,2,0,P|86:34|146:-1,1,150,2|10,1:2|2:2,0:0:0:0:
216,134,40244,5,2,1:2:0:0:
216,134,40319,1,0,1:1:0:0:
216,134,40394,2,0,P|183:114|147:109,1,75,10|2,2:2|1:2,0:0:0:0:
235,32,40694,2,0,P|250:21|269:18,3,37.5,6|4|8|8,2:3|2:3|2:3|2:3,0:0:0:0:
334,73,40994,1,4,1:2:0:0:
413,260,41294,70,0,L|498:275,1,75,10|0,2:2|1:1,0:0:0:0:
424,354,41594,2,0,L|351:368,1,75,2|0,2:2|1:1,0:0:0:0:
303,188,41894,2,0,L|376:174,1,75,10|0,2:2|1:1,0:0:0:0:
313,280,42194,6,0,P|231:246|220:157,1,187.5,6|10,1:2|2:2,0:0:0:0:
100,6,42644,1,0,1:1:0:0:
100,6,42719,1,0,1:1:0:0:
100,6,42794,2,0,P|89:94|6:128,1,187.5,10|10,2:2|2:3,0:0:0:0:
113,215,43244,69,0,1:1:0:0:
113,215,43319,1,0,1:1:0:0:
113,215,43394,2,0,P|114:258|120:289,1,75,4|0,1:2|1:1,0:0:0:0:
207,364,43694,2,0,P|214:327|214:289,1,75,10|0,2:2|1:1,0:0:0:0:
257,90,43994,2,0,P|258:133|264:164,1,75,2|0,2:2|1:1,0:0:0:0:
351,239,44294,2,0,P|358:202|358:164,1,75,10|0,2:2|1:1,0:0:0:0:
364,71,44519,5,0,1:1:0:0:
364,71,44594,2,0,L|528:96,1,150,2|10,1:2|2:2,0:0:0:0:
410,329,45194,2,0,L|246:354,1,150,10|0,2:2|1:1,0:0:0:0:
132,191,45644,69,4,2:3:0:0:
132,191,45719,1,4,2:3:0:0:
132,191,45794,2,0,L|115:282,1,75,4|0,1:2|1:1,0:0:0:0:
52,383,46094,2,0,L|38:309,1,75,10|0,2:2|1:1,0:0:0:0:
17,218,46394,1,2,2:2:0:0:
151,367,46544,1,0,1:1:0:0:
151,367,46619,1,0,1:1:0:0:
151,367,46694,1,10,2:2:0:0:
262,255,46994,6,0,P|270:241|277:215,3,37.5,10|8|0|0,2:2|2:3|1:1|1:1,0:0:0:0:
363,206,47294,2,0,P|358:190|345:167,3,37.5,2|0|0|0,1:2|1:1|1:1|1:1,0:0:0:0:
398,104,47594,2,0,P|384:96|357:89,3,37.5,6|4|4|4,2:3|2:3|2:3|2:3,0:0:0:0:
343,10,47894,2,0,P|310:25|289:56,1,75,14|0,2:2|2:2,0:0:0:0:
169,113,48194,70,0,B|155:133|155:189|155:189|100:162|49:169,1,187.5,2|8,1:2|2:2,0:0:0:0:
61,38,48644,2,0,B|85:39|133:11|133:11|138:72|169:113,1,187.5,2|0,1:2|1:1,0:0:0:0:
49,169,49094,2,0,B|38:147|-10:119|-10:119|40:85|61:38,1,187.5,2|0,1:2|1:1,0:0:0:0:
0,263,49544,5,0,1:1:0:0:
0,263,49619,1,0,1:1:0:0:
0,263,49694,2,0,L|10:335,1,56.2500021457673,8|0,2:2|2:2,0:0:0:0:
98,261,49994,1,0,1:1:0:0:
172,375,50144,2,0,L|182:303,1,56.2500021457673,8|0,2:2|2:2,0:0:0:0:
270,377,50444,1,0,1:1:0:0:
319,251,50594,2,0,L|329:323,1,56.2500021457673,8|0,2:2|1:1,0:0:0:0:
417,249,50894,1,0,1:1:0:0:
469,384,51044,2,0,L|479:312,1,56.2500021457673,8|0,2:2|1:1,0:0:0:0:
512,174,51344,69,8,2:2:0:0:
480,94,51494,1,8,2:2:0:0:
399,119,51644,1,8,2:2:0:0:
377,37,51794,6,0,B|305:22|305:22|292:30|292:30|198:10,1,168.750006437302,4|0,1:2|0:0,0:0:0:0:
138,67,52394,2,0,L|146:101,3,28.1250010728836,8|0|0|0,2:3|1:1|1:1|1:1,0:0:0:0:
62,129,52694,2,0,L|55:156,3,28.1250010728836,0|0|0|0,1:1|1:1|1:1|1:1,0:0:0:0:
0,63,52994,1,12,2:2:0:0:
23,244,53144,69,0,1:1:0:0:
23,244,53219,1,0,1:1:0:0:
23,244,53294,2,0,L|101:232,1,56.2500021457673,8|0,2:2|2:2,0:0:0:0:
119,315,53594,1,0,1:1:0:0:
170,195,53744,2,0,L|248:207,1,56.2500021457673,8|0,2:2|2:2,0:0:0:0:
268,121,54044,1,0,1:1:0:0:
258,289,54194,2,0,L|336:277,1,56.2500021457673,8|0,2:2|1:1,0:0:0:0:
360,356,54494,1,0,1:1:0:0:
406,228,54644,2,0,L|484:240,1,56.2500021457673,8|0,2:2|1:1,0:0:0:0:
479,330,54944,5,8,2:2:0:0:
479,330,55019,1,8,2:2:0:0:
479,330,55094,2,0,L|486:366,2,28.1250010728836,0|0|4,1:1|1:1|2:3,0:0:0:0:
497,134,55394,70,0,B|483:114|483:58|483:58|428:85|377:78,1,187.5,2|8,1:2|2:2,0:0:0:0:
389,209,55844,2,0,B|413:208|461:236|461:236|466:175|497:134,1,187.5,2|0,1:2|1:1,0:0:0:0:
377,78,56294,2,0,B|366:100|318:128|318:128|368:162|389:209,1,187.5,2|8,1:2|2:3,0:0:0:0:
288,33,56744,5,0,1:1:0:0:
288,33,56819,1,0,1:1:0:0:
288,33,56894,2,0,L|232:40,1,56.2500021457673,8|0,2:2|0:0,0:0:0:0:
143,52,57194,1,0,1:1:0:0:
221,145,57344,2,0,L|165:138,1,56.2500021457673,8|0,2:2|1:1,0:0:0:0:
67,120,57644,1,4,2:3:0:0:
0,240,57794,2,8,L|56:233,1,56.2500021457673,8|0,2:2|1:1,0:0:0:0:
155,224,58094,1,4,2:3:0:0:
70,325,58244,2,0,L|126:332,1,56.2500021457673,8|0,2:2|1:1,0:0:0:0:
275,368,58544,69,8,2:2:0:0:
346,314,58694,1,8,2:2:0:0:
432,340,58844,1,8,2:2:0:0:
409,232,58994,6,0,B|365:231|327:211|327:211|298:242|258:258,1,168.750006437302,4|0,1:2|0:0,0:0:0:0:
354,134,59594,2,0,P|357:118|355:98,3,28.1250010728836,8|0|0|0,2:3|1:1|1:1|1:1,0:0:0:0:
270,155,59894,2,0,P|260:143|255:130,3,28.1250010728836,0|0|0|0,1:1|1:1|1:1|2:2,0:0:0:0:
290,49,60194,1,8,2:2:0:0:
136,22,60344,69,0,1:1:0:0:
136,22,60419,1,0,1:1:0:0:
136,22,60494,2,0,L|145:83,1,56.2500021457673,8|0,2:2|0:0,0:0:0:0:
0,105,60794,1,0,1:1:0:0:
0,105,60944,2,0,L|48:66,1,56.2500021457673,8|0,2:2|1:1,0:0:0:0:
135,173,61244,1,4,2:3:0:0:
135,173,61394,2,0,L|108:162,2,28.1250010728836,8|0|0,2:2|0:0|1:1,0:0:0:0:
201,253,61694,6,0,P|209:290|208:318,1,56.2500021457673,6|8,2:3|2:2,0:0:0:0:
299,311,61994,2,0,P|292:341|281:362,2,31.8750006079674,2|0|8,1:2|1:1|2:2,0:0:0:0:
292,220,62294,1,10,2:2:0:0:
292,220,62369,1,0,1:1:0:0:
292,220,62444,1,0,1:1:0:0:
366,37,62594,6,0,L|361:-5,3,37.5,10|8|8|8,2:2|2:2|2:2|2:2,0:0:0:0:
451,44,62894,2,0,L|446:81,3,37.5,8|8|8|8,2:2|2:2|2:2|2:2,0:0:0:0:
453,166,63195,6,0,L|490:158,1,37.5,10|8,2:2|2:2,0:0:0:0:
409,245,63344,2,0,L|373:237,1,37.5,8|8,2:2|2:2,0:0:0:0:
469,308,63494,2,0,L|506:300,1,37.5,8|8,2:2|2:2,0:0:0:0:
413,373,63644,2,0,L|377:365,1,37.5,8|8,2:2|2:2,0:0:0:0:
299,301,63794,6,0,B|196:285|219:368|126:350,1,187.5,14|8,1:2|2:2,0:0:0:0:
110,226,64244,1,0,1:1:0:0:
45,312,64394,2,0,P|35:357|44:387,1,75,0|0,1:1|1:1,0:0:0:0:
110,226,64694,2,0,P|119:180|110:150,1,75,8|0,1:2|1:1,0:0:0:0:
29,100,64994,1,0,1:1:0:0:
29,100,65144,1,0,1:1:0:0:
119,0,65294,54,0,L|203:25,1,75,10|0,2:2|1:1,0:0:0:0:
215,113,65594,2,0,L|286:91,1,75,2|0,1:2|1:1,0:0:0:0:
310,0,65894,2,0,L|381:22,1,75,10|0,2:2|1:1,0:0:0:0:
466,53,66119,5,0,1:1:0:0:
466,53,66194,2,0,P|456:116|481:210,1,150,2|8,1:2|2:2,0:0:0:0:
497,316,66644,1,0,1:1:0:0:
392,362,66794,2,0,P|401:288|382:215,1,150,2|8,1:2|2:2,0:0:0:0:
341,119,67244,1,0,1:1:0:0:
202,226,67394,6,0,L|178:384,1,150,2|8,1:2|2:2,0:0:0:0:
73,328,67844,1,0,1:1:0:0:
73,328,67994,2,0,L|24:339,2,37.5,10|0|0,2:2|0:0|1:1,0:0:0:0:
109,162,68294,1,0,1:1:0:0:
22,249,68444,6,0,L|0:100,1,150,6|0,1:2|0:0,0:0:0:0:
0,13,68894,2,0,P|36:18|63:43,1,75,8|0,2:2|1:1,0:0:0:0:
113,166,69194,1,0,1:1:0:0:
113,166,69344,1,0,1:1:0:0:
174,69,69494,2,0,P|210:63|237:38,1,75,8|0,2:2|1:1,0:0:0:0:
327,74,69794,1,0,1:1:0:0:
327,74,69944,1,0,1:1:0:0:
346,206,70094,38,0,L|338:285,1,75,10|0,2:2|1:1,0:0:0:0:
345,383,70394,2,0,L|417:350,1,75,2|0,1:2|1:1,0:0:0:0:
492,288,70694,2,0,L|427:241,1,75,10|0,2:2|1:1,0:0:0:0:
462,162,70919,5,0,1:1:0:0:
462,162,70994,2,0,P|442:78|484:23,1,150,2|8,1:2|2:2,0:0:0:0:
359,0,71444,1,0,1:1:0:0:
299,112,71594,2,0,P|327:194|287:273,1,179.999994506836,2|8,1:2|2:2,0:0:0:0:
215,347,72044,1,0,1:1:0:0:
150,264,72194,6,0,L|76:250,1,75,2|0,1:2|1:1,0:0:0:0:
11,371,72494,2,0,L|84:357,1,75,8|0,2:2|1:1,0:0:0:0:
121,164,72794,6,0,L|114:122,3,37.5,10|8|0|0,2:2|2:2|1:1|1:1,0:0:0:0:
201,122,73094,2,0,L|207:85,3,37.5,10|8|4|4,2:3|2:3|2:3|2:3,0:0:0:0:
271,32,73394,38,0,P|206:0|141:32,1,150,6|8,1:2|2:2,0:0:0:0:
292,117,73844,2,0,P|356:149|421:116,1,150,2|0,1:2|1:1,0:0:0:0:
498,20,74294,2,0,P|502:78|514:136,1,112.500004291535,10|0,2:2|1:1,0:0:0:0:
469,222,74744,1,0,1:1:0:0:
511,335,74894,6,0,L|424:351,1,75,10|0,2:2|1:1,0:0:0:0:
334,366,75194,2,0,L|318:279,1,75,2|0,1:2|1:1,0:0:0:0:
219,310,75494,2,0,L|145:323,1,75,10|0,2:2|1:0,0:0:0:0:
64,363,75719,5,0,1:1:0:0:
64,363,75794,2,0,B|55:309|55:309|66:289|66:289|56:212,1,150,2|8,1:2|2:2,0:0:0:0:
45,129,76244,1,0,1:1:0:0:
141,23,76394,2,0,B|131:95|131:95|142:115|142:115|134:169,1,150,2|8,1:2|2:2,0:0:0:0:
203,229,76844,1,0,1:1:0:0:
285,103,76994,6,0,P|272:71|273:28,1,75,2|0,1:2|1:1,0:0:0:0:
440,12,77294,2,0,P|453:46|451:83,1,75,8|0,2:2|1:1,0:0:0:0:
375,149,77594,1,10,2:2:0:0:
366,57,77744,1,0,1:1:0:0:
366,57,77894,1,0,1:1:0:0:
307,221,78044,38,0,B|387:259|387:259|460:204,1,179.999994506836,6|0,1:2|0:0,0:0:0:0:
460,203,78494,6,0,B|482:233|482:233|467:266,1,75,10|0,2:2|1:1,0:0:0:0:
320,348,78794,2,0,B|274:288|274:288|306:220,1,150,2|10,1:2|2:2,0:0:0:0:
485,363,79244,2,0,L|410:354,1,75,2|0,1:2|1:1,0:0:0:0:
262,151,79694,6,0,P|296:136|333:140,1,75,10|0,2:2|1:1,0:0:0:0:
198,259,79994,2,0,P|161:263|126:248,1,75,2|0,1:2|1:1,0:0:0:0:
65,139,80294,1,10,2:2:0:0:
238,32,80444,53,0,1:1:0:0:
238,32,80519,1,0,0:0:0:0:
238,32,80594,2,0,L|475:41,1,225.000008583069,6|8,1:2|2:2,0:0:0:0:
332,139,81044,2,0,L|107:147,1,225.000008583069,2|0,1:2|1:1,0:3:0:0:
219,255,81494,2,0,L|444:247,1,225.000008583069,10|8,2:2|2:2,0:0:0:0:
313,362,81944,2,0,L|76:353,1,225.000008583069,2|0,1:2|1:1,0:3:0:0:
16,234,82394,5,10,2:2:0:0:
16,234,82469,1,8,2:2:0:0:
16,234,82544,1,0,1:1:0:0:
91,71,82694,2,0,L|77:27,3,37.5,8|8|8|8,2:2|2:2|2:2|2:2,0:0:0:0:
16,119,82994,2,0,P|77:157|147:137,1,150,4|8,1:2|2:2,0:0:0:0:
404,40,83594,5,10,2:3:0:0:
404,40,83669,1,0,1:1:0:0:
404,40,83744,2,0,L|422:126,1,75,4|8,2:3|2:2,0:0:0:0:
476,330,84194,5,10,2:3:0:0:
476,330,84269,1,0,1:1:0:0:
476,330,84344,2,0,L|494:244,1,75,4|8,2:3|2:2,0:0:0:0:
506,92,84794,37,2,1:2:0:0:
331,146,84944,1,0,1:1:0:0:
331,146,85019,1,0,1:1:0:0:
331,146,85094,2,0,L|349:232,1,75,8|0,2:2|1:1,0:0:0:0:
371,329,85394,2,0,P|300:348|239:307,1,150,6|8,1:2|2:2,0:0:0:0:
216,213,85844,1,0,2:2:0:0:
132,279,85994,5,10,2:3:0:0:
132,279,86069,1,0,1:1:0:0:
132,279,86144,2,0,P|144:326|134:368,1,75,4|10,2:3|2:2,0:0:0:0:
10,339,86444,1,0,1:1:0:0:
39,238,86594,2,0,P|35:200|47:165,1,75,2|0,1:2|1:1,0:0:0:0:
99,100,86819,5,0,1:1:0:0:
99,100,86894,2,0,L|85:13,1,75,10|0,2:2|1:1,0:0:0:0:
198,59,87194,2,0,L|209:133,1,75,10|0,2:2|1:1,0:0:0:0:
307,98,87494,1,8,2:2:0:0:
290,1,87644,1,8,2:2:0:0:
417,99,87794,6,0,P|436:169|500:204,1,150,0|8,1:1|2:2,0:0:0:0:
512,108,88244,1,0,1:1:0:0:
421,192,88394,37,10,2:3:0:0:
421,192,88469,1,0,1:1:0:0:
421,192,88544,2,0,L|335:210,1,75,4|8,2:3|2:2,0:0:0:0:
200,318,88994,5,6,2:3:0:0:
200,318,89069,1,0,1:1:0:0:
200,318,89144,2,0,L|286:336,1,75,0|8,1:1|2:2,0:0:0:0:
363,357,89444,1,0,2:2:0:0:
264,231,89594,6,0,P|260:194|274:159,1,75,10|0,2:2|1:1,0:0:0:0:
171,36,89894,2,0,P|185:70|181:107,1,75,0|0,1:1|1:1,0:0:0:0:
70,184,90194,2,0,P|36:123|92:83,1,150,6|8,1:2|2:2,0:0:0:0:
171,36,90644,1,0,2:2:0:0:
269,77,90794,6,0,L|417:59,1,150,2|10,1:2|2:2,0:0:0:0:
496,122,91244,1,4,1:2:0:0:
432,197,91394,2,0,L|446:282,1,75,2|0,1:2|1:1,0:0:0:0:
351,353,91694,38,0,L|361:287,3,37.5,8|0|0|0,2:2|1:1|1:1|1:1,0:0:0:0:
286,283,91994,2,0,L|279:245,3,37.5,10|0|0|0,2:2|1:1|1:1|1:1,0:0:0:0:
209,321,92294,6,0,L|202:358,1,37.5,10|8,2:3|2:3,0:0:0:0:
188,304,92444,2,0,L|181:266,1,37.5,4|4,2:3|2:3,0:0:0:0:
160,328,92594,2,0,P|90:300|17:309,1,150,4|8,1:2|2:2,0:0:0:0:
0,214,93044,1,0,1:1:0:0:
72,131,93194,5,10,2:3:0:0:
72,131,93269,1,0,1:1:0:0:
72,131,93344,2,0,L|60:45,1,75,4|8,2:3|2:2,0:0:0:0:
203,201,93794,5,6,2:3:0:0:
203,201,93869,1,0,1:1:0:0:
203,201,93944,2,0,L|215:111,1,89.9999972534181,0|8,1:1|2:2,0:0:0:0:
329,279,94394,37,2,1:2:0:0:
345,132,94544,1,0,1:1:0:0:
345,132,94619,1,0,1:1:0:0:
345,132,94694,2,0,L|331:35,1,97.4999955368044,8|0,2:2|1:1,0:0:0:0:
476,0,94994,6,0,L|453:155,1,157.499995193482,6|0,1:2|2:2,0:0:0:0:
453,156,95294,2,0,P|479:181|488:217,1,75,8|0,2:2|2:2,0:0:0:0:
486,335,95594,2,0,P|430:287|357:291,1,150,10|10,2:3|2:2,0:0:0:0:
293,364,96044,1,0,2:2:0:0:
252,205,96194,22,0,B|275:190|275:190|246:179|246:179|240:149|240:149|218:175|218:175|187:172|187:172|206:197|206:197|192:226|192:226|222:216|222:216|248:238|248:238|248:219,2,300,2|10|10,1:2|2:2|2:2,0:0:0:0:
203,319,96944,1,8,2:3:0:0:
95,348,97094,38,0,L|44:362,1,37.5,10|8,2:2|2:2,0:0:0:0:
89,318,97244,2,0,L|43:291,1,37.5,8|8,2:2|2:2,0:0:0:0:
90,284,97394,2,0,L|69:208,1,75,4|0,1:2|1:1,0:0:0:0:
19,63,97694,2,0,L|-2:139,1,75,8|0,2:2|2:2,0:0:0:0:
153,99,97994,5,2,1:2:0:0:
153,99,98069,1,0,1:1:0:0:
152,98,98144,2,0,P|132:49|104:4,1,104.999996795654,0|8,1:1|2:2,0:0:0:0:
279,144,98594,5,2,1:2:0:0:
279,144,98669,1,0,1:1:0:0:
279,143,98744,2,0,P|298:97|309:48,1,97.4999955368044,0|8,1:1|2:2,0:0:0:0:
326,251,99194,6,0,P|360:238|393:219,1,75,10|0,2:2|1:1,0:0:0:0:
405,356,99494,2,0,P|369:348|334:335,1,75,8|0,2:2|1:1,0:0:0:0:
472,294,99794,38,0,B|456:220|522:237|508:155,1,150,6|8,1:2|2:2,0:0:0:0:
509,56,100244,1,0,1:1:0:0:
407,27,100394,2,0,P|370:43|329:41,1,75,2|0,1:2|1:1,0:0:0:0:
249,0,100694,1,10,2:2:0:0:
249,0,100844,1,0,1:1:0:0:
121,48,100994,6,0,L|139:143,1,75,2|0,1:2|1:1,0:0:0:0:
157,202,101219,1,0,1:1:0:0:
157,202,101294,1,8,2:2:0:0:
216,104,101444,2,0,L|253:96,2,37.5,8|8|10,2:2|2:2|2:2,0:0:0:0:
57,139,101744,1,8,2:2:0:0:
173,285,101894,2,0,L|186:358,1,75,10|8,2:2|2:2,0:0:0:0:
308,384,102194,6,0,P|359:333|350:261,1,150,4|0,1:2|1:1,0:0:0:0:
370,92,102794,1,10,2:2:0:0:
318,170,102944,2,0,P|391:182|466:173,1,150,0|0,1:1|1:1,0:0:0:0:
488,9,103394,6,0,P|423:3|375:108,1,179.999994506836,4|0,1:2|1:1,0:0:0:0:
350,260,103994,1,10,2:2:0:0:
318,170,104144,2,0,P|245:182|170:173,1,150,0|0,1:1|1:1,0:0:0:0:
17,193,104594,38,0,P|102:234|134:324,1,194.999991073609,4|0,1:2|1:1,0:0:0:0:
305,356,105044,2,0,L|355:349,2,37.5,0|0|8,1:1|1:1|2:2,0:0:0:0:
213,369,105344,1,0,2:2:0:0:
336,260,105494,6,0,L|410:270,1,75,10|0,2:2|1:1,0:0:0:0:
308,175,105794,2,0,L|318:100,1,75,2|8,1:2|2:2,0:0:0:0:
248,242,106094,2,0,L|164:230,1,75,2|0,1:2|1:1,0:0:0:0:
104,284,106394,2,0,L|94:358,1,75,10|0,2:2|1:1,0:0:0:0:
194,368,106694,1,10,2:2:0:0:
194,368,106844,1,8,2:2:0:0:
99,193,106994,6,0,P|83:119|78:44,1,150,4|0,1:2|1:1,0:0:0:0:
240,15,107594,1,10,2:2:0:0:
225,100,107744,2,0,P|216:29|149:3,1,150,0|0,1:1|1:1,0:0:0:0:
99,193,108194,6,0,P|186:212|276:220,1,179.999994506836,4|0,1:2|1:1,0:0:0:0:
385,61,108794,1,10,2:2:0:0:
420,144,108944,2,0,P|419:180|403:220,2,75,0|0|0,1:1|1:1|1:1,0:0:0:0:
245,28,109394,38,0,P|266:123|276:220,1,194.999991073609,4|0,1:2|1:1,0:0:0:0:
196,342,109844,5,0,1:1:0:0:
196,342,109919,1,0,1:1:0:0:
196,342,109994,2,0,L|118:357,1,75,10|0,2:2|1:1,0:0:0:0:
48,238,110294,2,8,L|121:252,1,75,10|0,2:2|1:1,0:0:0:0:
44,137,110594,2,8,L|29:63,1,75,2|8,1:2|2:2,0:0:0:0:
170,8,110894,2,0,L|155:81,1,75,2|8,1:2|2:2,0:0:0:0:
138,165,111119,5,8,2:2:0:0:
138,165,111194,1,10,2:2:0:0:
226,148,111344,2,0,P|259:131|277:99,2,75,0|10|8,1:1|2:2|2:2,0:0:0:0:
221,270,111794,6,0,L|233:359,1,75,4|0,1:2|1:1,0:0:0:0:
307,269,112094,2,0,L|317:343,1,75,0|0,1:1|1:1,0:0:0:0:
410,370,112394,2,0,P|410:296|456:238,1,150,10|2,2:2|1:2,0:0:0:0:
502,40,112994,38,0,L|489:129,1,89.9999972534181,4|8,1:2|2:2,0:0:0:0:
417,25,113294,2,0,L|404:114,1,89.9999972534181,0|0,1:1|1:1,0:0:0:0:
313,168,113594,2,0,P|312:94|266:36,1,150,10|2,2:2|1:2,0:0:0:0:
212,357,114194,6,0,L|197:260,1,97.4999955368044,12|0,2:2|1:1,0:0:0:0:
124,371,114494,2,0,L|109:274,1,97.4999955368044,0|0,1:1|1:1,0:0:0:0:
21,291,114794,1,8,2:2:0:0:
21,291,114944,1,0,1:1:0:0:
66,183,115094,6,0,P|83:144|81:105,1,75,2|0,1:2|1:1,0:0:0:0:
129,0,115394,2,0,P|154:34|189:51,1,75,6|8,1:2|2:2,0:0:0:0:
258,138,115694,2,0,P|215:142|182:164,1,75,2|0,1:2|1:1,0:0:0:0:
151,249,115994,1,10,2:2:0:0:
151,249,116144,1,0,1:1:0:0:
238,298,116294,2,0,L|231:372,1,75,2|0,1:2|1:1,0:0:0:0:
384,350,116594,6,0,B|409:268|354:223|312:215|312:215|361:269|341:324,1,281.25,4|0,1:2|0:0,0:0:0:0:
471,371,117194,2,0,P|478:347|493:332,3,37.5,0|0|0|0,1:1|1:1|1:1|1:1,0:0:0:0:
471,252,117494,2,0,P|460:236|455:218,3,37.5,0|0|0|0,1:1|1:1|1:1|1:1,0:0:0:0:
425,141,117794,38,0,B|413:83|454:54|483:52|483:52|446:85|457:125,1,202.500000772476,12|0,2:2|0:0,0:0:0:0:
333,58,118244,5,0,1:1:0:0:
333,58,118319,1,0,1:1:0:0:
333,58,118394,1,2,1:2:0:0:
299,138,118544,1,0,1:1:0:0:
355,207,118694,2,0,P|323:225|286:224,1,75,2|0,1:2|1:1,0:0:0:0:
172,115,118994,6,0,B|215:71|198:21|174:2|174:2|186:53|152:81,1,209.999993591309,12|0,2:2|1:1,0:0:0:0:
91,24,119444,2,0,B|31:5|-3:45|-7:76|-7:76|30:40|71:55,1,209.999993591309,8|0,2:2|1:1,0:0:0:0:
56,135,119894,2,0,B|63:166|91:172|106:166|106:166|79:158|75:135,1,104.999996795654,8|0,2:2|2:2,0:0:0:0:
121,277,120195,6,0,P|139:274|156:266,4,37.5,8|8|8|8|8,2:2|2:2|2:2|2:2|2:2,0:0:0:0:
21,265,120645,37,0,1:1:0:0:
21,265,120720,1,0,1:1:0:0:
21,265,120794,1,8,2:2:0:0:
46,352,120944,1,8,2:2:0:0:
135,381,121094,1,8,2:2:0:0:
218,343,121244,1,8,2:2:0:0:
256,192,121394,5,4,1:2:0:0:
