osu file format v14

[General]
AudioFilename: audio.mp3
AudioLeadIn: 0
PreviewTime: 51493
Countdown: 1
SampleSet: None
StackLeniency: 0.7
Mode: 0
LetterboxInBreaks: 0
WidescreenStoryboard: 0

[Editor]
DistanceSpacing: 1
BeatDivisor: 4
GridSize: 4
TimelineZoom: 2

[Metadata]
Title:Fist Bump (Short Ver.)
TitleUnicode:Fist Bump (Short Ver.)
Artist:Tomoya Ohtani
ArtistUnicode:Tomoya Ohtani
Creator:Happy190
Version:Insane
Source:Sonic Forces
Tags:
BeatmapID:1521186
BeatmapSetID:720499

[Difficulty]
HPDrainRate:6
CircleSize:4.5
OverallDifficulty:6
ApproachRate:8
SliderMultiplier:1
SliderTickRate:1

[Events]
//Background and Video events
0,0,"bg.png",0,0
//Break Periods
2,57084,82402
//Storyboard Layer 0 (Background)
//Storyboard Layer 1 (Fail)
//Storyboard Layer 2 (Pass)
//Storyboard Layer 3 (Foreground)
//Storyboard Sound Samples

[TimingPoints]
341,276.497695852535,4,2,0,70,1,0
4695,-100,4,3,0,80,0,0
6907,-66.6666666666667,4,1,0,75,0,0
13543,-66.6666666666667,4,3,0,75,0,0
15755,-100,4,2,0,30,0,0
15893,-100,4,2,0,65,0,0
22599,-100,4,1,0,75,0,0
23497,-80,4,3,0,75,0,0
24672,-80,4,1,0,65,0,0
31308,-66.6666666666667,4,3,0,80,0,0
33451,-62.5,4,1,0,80,0,0
42368,-100,4,3,0,80,0,0
46792,-80,4,3,0,80,0,0
51216,-133.333333333333,4,3,0,80,0,0
52184,-60.6060606060606,4,1,0,80,0,1
65594,-66.6666666666667,4,3,0,80,0,1
70018,-80,4,3,0,80,0,1
83290,-100,4,3,0,80,0,0
87714,-133.333333333333,4,3,0,80,0,0
89926,-66.6666666666667,4,1,0,80,0,0
94281,-100,4,3,0,35,0,0

[Colours]
Combo1 : 220,114,35
Combo2 : 209,199,1
Combo3 : 0,75,168
Combo4 : 155,9,31

[HitObjects]
124,152,341,6,0,P|84:136|112:84,1,100
200,144,755,2,0,P|193:185|138:231,1,100
20,320,1308,2,0,P|60:312|120:328,1,100
264,372,1861,6,0,L|276:312,1,50
360,216,2138,2,0,L|350:265,1,50
384,376,2414,1,0,0:0:0:0:
440,288,2552,6,0,P|476:264|448:216,1,100
360,216,2967,2,0,P|324:192|304:136,1,100
428,28,3520,2,0,P|412:76|444:128,1,100
512,264,4073,2,0,L|460:304,1,50
336,316,4350,2,0,L|392:272,1,50
432,184,4626,1,0,0:0:0:0:
328,208,4764,6,0,P|296:244|256:224,1,100,4|0,0:0|0:0,0:0:0:0:
156,152,5179,2,0,P|204:140|256:148,1,100
416,92,5732,2,0,P|376:104|320:96,1,100
248,24,6285,2,0,L|216:72,1,50
120,128,6562,2,0,L|144:80,1,50
140,0,6838,1,0,0:0:0:0:
24,96,6976,6,0,P|20:160|88:212,1,150.000005722046,4|0,0:0|0:0,0:0:0:0:
208,300,7391,2,0,P|280:276|356:304,1,150.000005722046
484,156,7944,2,0,P|476:200|336:176,1,225.000008583069,0|4,0:0|0:0,0:0:0:0:
288,128,8497,1,0,0:0:0:0:
228,92,8635,2,0,P|216:60|232:16,1,75.0000028610231
176,144,8912,2,0,P|187:179|175:214,1,75.0000028610231
76,56,9188,6,0,P|40:116|48:200,1,150.000005722046
56,352,9603,2,0,P|80:304|184:268,1,150.000005722046
132,88,10156,2,0,P|160:132|304:92,1,225.000008583069,0|4,0:0|0:0,0:0:0:0:
360,40,10709,1,0,0:0:0:0:
424,84,10847,2,0,P|464:132|464:172,1,75.0000028610231
452,304,11124,2,0,P|423:280|409:245,1,75.0000028610231
336,272,11400,6,0,P|256:292|180:260,1,150.000005722046
64,192,11815,2,0,P|124:208|232:180,1,150.000005722046
332,56,12368,2,0,P|392:56|376:188,1,225.000008583069
316,200,12921,1,0,0:0:0:0:
252,248,13059,2,0,P|212:256|168:244,1,75.0000028610231
44,324,13336,2,0,P|80:315|117:322,1,75.0000028610231
212,364,13612,6,0,P|260:356|296:320,1,75.0000028610231,2|0,0:0|0:0,0:0:0:0:
348,340,13889,2,0,P|368:312|368:268,1,75.0000028610231,2|0,0:0|0:0,0:0:0:0:
424,228,14165,2,0,P|416:188|372:156,1,75.0000028610231,2|0,0:0|0:0,0:0:0:0:
424,100,14442,2,0,P|392:80|344:80,1,75.0000028610231,2|0,0:0|0:0,0:0:0:0:
308,20,14718,6,0,P|268:28|236:73,1,75.0000028610231,8|0,0:0|0:0,0:0:0:0:
176,24,14995,2,0,P|156:56|157:104,1,75.0000028610231,8|0,0:0|0:0,0:0:0:0:
84,104,15271,2,0,P|88:152|124:184,1,75.0000028610231,8|0,0:0|0:0,0:0:0:0:
60,232,15548,2,0,P|108:260|152:252,1,75.0000028610231,8|0,0:0|0:0,0:0:0:0:
124,340,15824,5,4,0:0:0:0:
248,304,16101,1,0,0:0:0:0:
124,340,16377,5,0,0:0:0:0:
248,304,16654,1,0,0:0:0:0:
352,340,16930,2,0,P|392:288|388:240,1,100
464,204,17345,2,0,P|376:168|320:196,1,150
252,244,18036,5,0,0:0:0:0:
152,212,18313,1,0,0:0:0:0:
252,244,18589,5,0,0:0:0:0:
152,212,18866,1,0,0:0:0:0:
60,256,19142,2,0,P|32:208|56:164,1,100
112,116,19557,2,0,B|144:104|184:124|184:124|220:140|264:116,1,150
352,72,20248,5,0,0:0:0:0:
452,104,20525,1,0,0:0:0:0:
352,72,20801,5,0,0:0:0:0:
452,104,21078,1,0,0:0:0:0:
416,192,21354,2,0,P|412:220|468:284,1,100
348,280,21769,2,2,P|284:256|312:312,1,150,0|0,0:0|0:0,0:0:0:0:
352,176,22460,6,0,P|304:168|248:192,1,100
120,264,23013,1,0,0:0:0:0:
200,144,23290,1,0,0:0:0:0:
52,192,23566,6,0,L|68:232,5,31.25
60,120,23981,6,0,L|44:84,5,31.25
124,156,24396,6,0,L|140:188,3,31.25
152,92,24672,6,0,P|208:76|284:88,1,125
388,144,25087,1,0,0:0:0:0:
308,248,25225,2,0,P|272:264|248:300,1,62.5
128,288,25502,2,0,P|164:272|188:236,1,62.5
256,156,25778,2,0,P|196:152|132:200,1,125
216,72,26193,2,0,P|272:76|328:112,1,125
404,232,26608,2,0,P|360:236|336:224,1,62.5
208,232,26884,6,0,P|240:232|272:256,1,62.5
152,288,27161,2,0,P|99:282|116:228,1,125
224,152,27576,1,0,0:0:0:0:
116,64,27714,2,0,P|164:60|204:68,1,62.5
224,152,27990,6,0,P|260:156|356:116,1,125
264,232,28405,2,0,P|189:221|141:183,1,125
241,297,28820,2,0,P|281:293|325:277,1,62.5
456,186,29096,6,0,P|461:217|453:247,1,62.5
413,355,29373,2,0,P|351:348|285:379,1,125
174,374,29788,1,0,0:0:0:0:
81,290,29926,2,0,P|113:282|161:290,1,62.5
12,344,30202,2,0,P|-8:284|12:220,1,125
138,187,30617,2,0,B|186:211|230:191|230:191|270:175|330:199,1,187.5
319,195,31585,5,8,0:0:0:0:
472,272,31861,1,8,0:0:0:0:
319,195,32138,5,0,0:0:0:0:
351,38,32414,2,0,P|392:37|432:183,1,225.000008583069,8|0,0:0|0:0,0:0:0:0:
340,360,32967,2,0,P|325:290|200:316,1,225.000008583069,8|0,0:0|0:0,0:0:0:0:
114,229,33520,6,0,P|178:220|248:151,1,160,4|0,0:0|0:0,0:0:0:0:
321,29,33935,2,0,P|257:38|189:104,1,160,4|0,0:0|0:0,0:0:0:0:
114,229,34350,1,0,0:0:0:0:
251,314,34488,2,0,P|289:327|234:259,1,240,4|0,0:0|0:0,0:0:0:0:
119,317,35041,1,0,0:0:0:0:
44,166,35179,2,0,P|32:210|41:261,1,80
132,126,35456,2,0,P|134:86|123:48,1,80
247,155,35732,6,0,P|328:159|391:205,1,160,4|0,0:0|0:0,0:0:0:0:
236,224,36147,2,0,P|157:246|106:305,1,160,4|0,0:0|0:0,0:0:0:0:
268,288,36562,1,0,0:0:0:0:
192,140,36700,2,0,P|176:102|161:188,1,240,4|0,0:0|0:0,0:0:0:0:
296,216,37253,1,0,0:0:0:0:
420,120,37391,2,0,P|452:160|444:224,1,80
392,336,37668,2,0,P|360:296|368:232,1,80
264,143,37944,6,0,P|220:191|112:179,1,160,4|0,0:0|0:0,0:0:0:0:
272,256,38359,2,0,P|316:208|424:220,1,160,4|0,0:0|0:0,0:0:0:0:
464,352,38774,1,0,0:0:0:0:
340,267,38912,2,0,P|328:339|272:255,1,240
472,280,39465,1,0,0:0:0:0:
352,160,39603,2,0,P|344:120|376:76,1,80
261,181,39880,2,0,P|278:216|270:254,1,80
124,320,40156,6,0,P|88:256|100:164,1,160
404,128,40709,6,0,P|434:201|418:278,1,160
95,172,41262,6,0,B|151:160|203:176|203:176|231:200|183:208,1,160
332,304,41815,2,0,P|295:319|255:317,1,80
132,256,42092,2,0,P|116:216|144:176,1,80
44,152,42368,6,0,P|84:120|240:140,1,200,4|0,0:0|0:0,0:0:0:0:
288,168,43059,1,2,0:0:0:0:
416,256,43336,6,0,P|376:288|220:268,1,200,4|0,0:0|0:0,0:0:0:0:
176,236,44027,1,2,0:0:0:0:
44,152,44304,1,0,0:0:0:0:
228,60,44580,6,0,P|248:104|228:156,1,100,4|0,0:0|0:0,0:0:0:0:
160,168,44995,1,2,0:0:0:0:
48,288,45271,2,0,P|104:256|148:280,1,100
200,312,45686,2,0,P|247:320|285:290,1,100
332,140,46239,1,0,0:0:0:0:
88,96,46792,6,0,P|76:156|212:264,1,250,4|8,0:0|0:0,0:0:0:0:
256,216,47483,1,2,0:0:0:0:
424,280,47760,6,0,P|376:280|312:172,1,187.5,8|2,0:0|0:0,0:0:0:0:
88,104,48451,6,0,P|136:104|200:212,1,187.5,8|2,0:0|0:0,0:0:0:0:
199,212,49142,5,2,0:0:0:0:
64,300,49281,1,0,0:0:0:0:
199,212,49557,5,2,0:0:0:0:
64,300,49695,1,0,0:0:0:0:
199,212,49972,6,0,P|272:196|332:224,1,125
444,296,50387,2,0,P|371:312|311:284,1,125
312,284,50732,1,0,0:0:0:0:
292,272,50801,1,0,0:0:0:0:
272,264,50870,1,0,0:0:0:0:
248,260,50940,1,0,0:0:0:0:
224,264,51009,1,0,0:0:0:0:
204,272,51078,1,0,0:0:0:0:
184,288,51147,1,0,0:0:0:0:
172,304,51216,1,8,0:0:0:0:
60,320,51493,6,0,P|48:268|52:232,1,75.0000028610231
88,184,51907,1,0,0:0:0:0:
176,56,52184,6,0,P|260:52|344:68,1,165.000001573563,4|0,0:0|0:0,0:0:0:0:
448,156,52599,5,0,0:0:0:0:
368,200,52737,1,0,0:0:0:0:
448,156,52875,6,0,P|480:204|476:248,1,82.5000007867813
400,364,53152,2,0,P|368:316|372:272,1,82.5000007867813
320,136,53428,2,0,P|264:128|144:144,1,165.000001573563
288,60,53843,2,0,P|348:64|456:112,1,165.000001573563
480,256,54258,1,0,0:0:0:0:
320,136,54396,6,0,P|288:192|324:288,1,165.000001573563,4|0,0:0|0:0,0:0:0:0:
204,172,54811,6,0,P|232:136|224:100,1,82.5000007867813
88,192,55087,2,0,P|60:228|68:264,1,82.5000007867813
200,364,55364,2,0,P|216:324|196:276,1,82.5000007867813
320,280,55640,6,0,B|288:216|360:172|312:116,1,165.000001573563
394,203,56055,6,0,B|344:264|432:296|392:360,1,165.000001573563
452,248,56470,1,0,0:0:0:0:
320,352,56608,6,0,P|248:360|152:328,1,165.000001573563,4|0,0:0|0:0,0:0:0:0:
124,172,83152,5,0,0:0:0:0:
124,172,83290,2,0,P|212:148|272:172,1,150
168,84,83843,2,0,P|88:112|40:176,1,150
40,284,84396,2,0,P|108:352|196:300,1,200,8|2,0:0|0:0,0:0:0:0:
324,248,85502,6,0,P|344:216|328:160,1,100
264,28,86055,6,0,P|244:60|260:116,1,100
332,76,86608,6,0,P|349:109|406:123,1,100
264,32,87161,5,0,0:0:0:0:
220,120,87714,6,0,B|168:112|120:140|124:180|124:180|140:228|208:232|236:204|268:176|324:152|364:204|364:204|340:276|264:260,1,525.000020027161
104,264,89926,6,0,P|60:224|56:136,1,150.000005722046,4|0,0:0|0:0,0:0:0:0:
184,32,90341,2,0,P|140:72|136:160,1,150.000005722046,4|0,0:0|0:0,0:0:0:0:
236,336,90893,2,0,P|284:344|240:244,1,225.000008583069,4|0,0:0|0:0,0:0:0:0:
104,264,91446,2,0,P|96:312|120:344,1,75.0000028610231
156,192,91723,2,0,P|169:157|159:122,1,75.0000028610231
256,192,92138,12,0,94350,0:0:0:0:
