osu file format v14

[General]
AudioFilename: audio.mp3
AudioLeadIn: 0
PreviewTime: 51512
Countdown: 0
SampleSet: None
StackLeniency: 0.7
Mode: 3
LetterboxInBreaks: 0
SpecialStyle: 0
WidescreenStoryboard: 1

[Editor]
DistanceSpacing: 0.8
BeatDivisor: 4
GridSize: 4
TimelineZoom: 2.799999

[Metadata]
Title:Fist Bump
TitleUnicode:Fist Bump
Artist:Tomoya Ohtani [vocal by Douglass Robb]
ArtistUnicode:Tomoya Ohtani [vocal by Douglass Robb]
Creator:BossMadWolf
Version:Dark Force
Source:Sonic Forces
Tags:4k sega 7k
BeatmapID:1809382
BeatmapSetID:850815

[Difficulty]
HPDrainRate:8.7
CircleSize:7
OverallDifficulty:8.7
ApproachRate:5
SliderMultiplier:1.4
SliderTickRate:1

[Events]
//Background and Video events
0,0,"bg.jpg",0,0
//Break Periods
//Storyboard Layer 0 (Background)
//Storyboard Layer 1 (Fail)
//Storyboard Layer 2 (Pass)
//Storyboard Layer 3 (Foreground)
//Storyboard Sound Samples

[TimingPoints]
153,276.497695852535,4,3,1,15,1,0
7065,-100,4,3,1,25,0,0
15982,-100,4,3,1,10,0,0
22549,-100,4,3,1,25,0,0
31397,-166.666666666667,4,3,1,35,0,0
31604,-62.5,4,3,1,35,0,0
31673,-166.666666666667,4,3,1,35,0,0
31880,-62.5,4,3,1,35,0,0
31950,-166.666666666667,4,3,1,35,0,0
32157,-62.5,4,3,1,35,0,0
32226,-166.666666666667,4,3,1,35,0,0
32433,-62.5,4,3,1,35,0,0
32503,-95.2380952380952,4,3,1,25,0,0
33056,-90.9090909090909,4,3,1,25,0,0
33609,-100,4,3,1,25,0,0
40245,-100,4,3,1,30,0,0
42180,-111.111111111111,4,3,1,20,0,0
46604,-100,4,3,1,20,0,0
46881,-100,4,3,1,25,0,0
48954,-100,4,3,1,35,0,0
51305,-10,4,3,1,30,0,0
51581,-250,4,3,1,30,0,0
52272,-100,4,3,1,30,0,1
70106,-100,4,3,1,15,0,0
83102,-100,4,3,1,20,0,0
85314,-100,4,3,1,25,0,0
87802,-111.111111111111,4,3,1,15,0,0
90014,-100,4,3,1,25,0,0
98862,-100,4,3,1,20,0,0
105498,-100,4,3,1,25,0,0
114346,-166.666666666667,4,3,1,35,0,0
114553,-62.5,4,3,1,35,0,0
114623,-166.666666666667,4,3,1,35,0,0
114830,-62.5,4,3,1,35,0,0
114899,-166.666666666667,4,3,1,35,0,0
115106,-62.5,4,3,1,35,0,0
115176,-166.666666666667,4,3,1,35,0,0
115383,-62.5,4,3,1,35,0,0
115452,-95.2380952380952,4,3,1,25,0,0
116005,-90.9090909090909,4,3,1,25,0,0
116558,-100,4,3,1,25,0,0
125406,-111.111111111111,4,3,1,20,0,0
129830,-100,4,3,1,25,0,0
131904,-100,4,3,1,35,0,0
134254,-10,4,3,1,30,0,0
134530,-250,4,3,1,30,0,0
135222,-100,4,3,1,30,0,1
153056,-111.111111111111,4,3,1,15,0,0
168678,-105.263157894737,4,3,1,20,0,0
170199,-100,4,3,1,25,0,0
177388,-100,4,3,1,30,0,0
179461,-100,4,3,1,25,0,0
188309,-125,4,3,1,15,0,1
190245,-125,4,3,1,30,0,1
190521,-125,4,3,1,15,0,1
192457,-125,4,3,1,30,0,1
192733,-125,4,3,1,15,0,1
194530,-125,4,3,1,30,0,1
194945,-100,4,3,1,30,0,1
206005,-100,4,3,1,20,0,0
236973,-100,4,3,1,25,0,0
239047,-100,4,3,1,30,0,0
241535,-111.111111111111,4,3,1,20,0,0
243747,-100,4,3,1,30,0,0
250383,-100,4,3,1,35,0,0

[HitObjects]
64,192,429,128,0,2641:0:0:0:0:
448,192,429,1,0,0:0:0:0:
109,192,429,1,0,0:0:0:0:
256,192,567,1,0,0:0:0:0:
320,192,636,1,0,0:0:0:0:
402,192,705,1,0,0:0:0:0:
256,192,844,1,0,0:0:0:0:
475,192,844,1,0,0:0:0:0:
192,192,1120,1,0,0:0:0:0:
329,192,1120,1,0,0:0:0:0:
256,192,1258,1,0,0:0:0:0:
402,192,1397,1,0,0:0:0:0:
329,192,1397,1,0,0:0:0:0:
402,192,1673,1,0,0:0:0:0:
475,192,1673,1,0,0:0:0:0:
182,192,1950,128,0,2088:0:0:0:0:
256,192,1950,1,0,0:0:0:0:
475,192,2088,128,0,2226:0:0:0:0:
402,192,2088,1,0,0:0:0:0:
402,192,2226,128,0,2364:0:0:0:0:
182,192,2226,1,0,0:0:0:0:
329,192,2364,128,0,2503:0:0:0:0:
475,192,2364,1,0,0:0:0:0:
192,192,2503,1,0,0:0:0:0:
256,192,2503,128,0,2641:0:0:0:0:
448,192,2641,128,0,4853:0:0:0:0:
109,192,2641,1,0,0:0:0:0:
329,192,2779,1,0,0:0:0:0:
182,192,2848,1,0,0:0:0:0:
36,192,2917,1,0,0:0:0:0:
192,192,3056,1,0,0:0:0:0:
256,192,3056,1,0,0:0:0:0:
64,192,3332,1,0,0:0:0:0:
109,192,3332,1,0,0:0:0:0:
320,192,3470,1,0,0:0:0:0:
109,192,3609,1,0,0:0:0:0:
256,192,3609,1,0,0:0:0:0:
182,192,3885,1,0,0:0:0:0:
109,192,3885,1,0,0:0:0:0:
192,192,4162,1,0,0:0:0:0:
256,192,4162,1,0,0:0:0:0:
36,192,4300,1,0,0:0:0:0:
256,192,4300,1,0,0:0:0:0:
109,192,4369,1,0,0:0:0:0:
182,192,4438,1,0,0:0:0:0:
329,192,4438,1,0,0:0:0:0:
402,192,4507,1,0,0:0:0:0:
329,192,4576,1,0,0:0:0:0:
109,192,4576,1,0,0:0:0:0:
182,192,4646,1,0,0:0:0:0:
402,192,4715,1,0,0:0:0:0:
256,192,4715,1,0,0:0:0:0:
329,192,4784,1,0,0:0:0:0:
64,192,4853,128,0,7065:0:0:0:0:
256,192,4853,1,0,0:0:0:0:
182,192,4853,1,0,0:0:0:0:
402,192,4991,1,0,0:0:0:0:
329,192,5060,1,0,0:0:0:0:
256,192,5129,1,0,0:0:0:0:
448,192,5268,128,0,7065:0:0:0:0:
256,192,5268,1,0,0:0:0:0:
320,192,5544,1,0,0:0:0:0:
182,192,5544,1,0,0:0:0:0:
256,192,5682,1,0,0:0:0:0:
192,192,5821,1,0,0:0:0:0:
329,192,5821,1,0,0:0:0:0:
329,192,6097,1,0,0:0:0:0:
402,192,6097,1,0,0:0:0:0:
256,192,6235,1,0,0:0:0:0:
109,192,6374,1,0,0:0:0:0:
182,192,6374,1,0,0:0:0:0:
320,192,6650,1,0,0:0:0:0:
402,192,6650,1,0,0:0:0:0:
329,192,6788,1,0,0:0:0:0:
256,192,6788,1,0,0:0:0:0:
192,192,6927,1,0,0:0:0:0:
256,192,6927,1,0,0:0:0:0:
192,192,7065,1,0,0:0:0:0:
109,192,7065,1,0,0:0:0:0:
448,192,7203,1,0,0:0:0:0:
402,192,7203,1,0,0:0:0:0:
109,192,7203,1,0,0:0:0:0:
64,192,7341,1,0,0:0:0:0:
109,192,7341,1,0,0:0:0:0:
256,192,7341,1,0,0:0:0:0:
329,192,7341,1,0,0:0:0:0:
402,192,7341,1,0,0:0:0:0:
448,192,7480,1,0,0:0:0:0:
320,192,7480,1,0,0:0:0:0:
192,192,7480,1,0,0:0:0:0:
256,192,7480,1,0,0:0:0:0:
109,192,7756,1,0,0:0:0:0:
182,192,7756,1,0,0:0:0:0:
475,192,7756,1,0,0:0:0:0:
448,192,7894,1,0,0:0:0:0:
329,192,7894,1,0,0:0:0:0:
36,192,7894,1,0,0:0:0:0:
402,192,7894,1,0,0:0:0:0:
256,192,7894,1,0,0:0:0:0:
448,192,8033,1,0,0:0:0:0:
192,192,8033,1,0,0:0:0:0:
109,192,8033,1,0,0:0:0:0:
256,192,8033,1,0,0:0:0:0:
448,192,8309,1,0,0:0:0:0:
192,192,8309,1,0,0:0:0:0:
256,192,8309,1,0,0:0:0:0:
448,192,8447,1,0,0:0:0:0:
64,192,8447,1,0,0:0:0:0:
320,192,8447,1,0,0:0:0:0:
109,192,8447,1,0,0:0:0:0:
256,192,8447,1,0,0:0:0:0:
320,192,8586,1,0,0:0:0:0:
109,192,8586,1,0,0:0:0:0:
182,192,8586,1,0,0:0:0:0:
402,192,8586,1,0,0:0:0:0:
448,192,8724,1,0,0:0:0:0:
402,192,8724,1,0,0:0:0:0:
182,192,8724,1,0,0:0:0:0:
448,192,8862,1,0,0:0:0:0:
192,192,8862,1,0,0:0:0:0:
256,192,8862,1,0,0:0:0:0:
109,192,8862,1,0,0:0:0:0:
448,192,9000,1,0,0:0:0:0:
64,192,9000,1,0,0:0:0:0:
256,192,9000,1,0,0:0:0:0:
109,192,9000,1,0,0:0:0:0:
402,192,9000,1,0,0:0:0:0:
36,192,9277,1,0,0:0:0:0:
109,192,9277,1,0,0:0:0:0:
182,192,9277,1,0,0:0:0:0:
192,192,9415,1,0,0:0:0:0:
109,192,9415,1,0,0:0:0:0:
256,192,9415,1,0,0:0:0:0:
448,192,9553,1,0,0:0:0:0:
182,192,9553,1,0,0:0:0:0:
256,192,9553,1,0,0:0:0:0:
329,192,9553,1,0,0:0:0:0:
402,192,9553,1,0,0:0:0:0:
64,192,9692,1,0,0:0:0:0:
256,192,9692,1,0,0:0:0:0:
402,192,9692,1,0,0:0:0:0:
182,192,9692,1,0,0:0:0:0:
192,192,9968,1,0,0:0:0:0:
402,192,9968,1,0,0:0:0:0:
256,192,9968,1,0,0:0:0:0:
448,192,10106,1,0,0:0:0:0:
402,192,10106,1,0,0:0:0:0:
329,192,10106,1,0,0:0:0:0:
182,192,10106,1,0,0:0:0:0:
109,192,10106,1,0,0:0:0:0:
448,192,10245,1,0,0:0:0:0:
36,192,10245,1,0,0:0:0:0:
329,192,10245,1,0,0:0:0:0:
182,192,10245,1,0,0:0:0:0:
329,192,10521,1,0,0:0:0:0:
109,192,10521,1,0,0:0:0:0:
182,192,10521,1,0,0:0:0:0:
64,192,10659,1,0,0:0:0:0:
320,192,10659,1,0,0:0:0:0:
448,192,10659,1,0,0:0:0:0:
109,192,10659,1,0,0:0:0:0:
256,192,10659,1,0,0:0:0:0:
448,192,10798,1,0,0:0:0:0:
192,192,10798,1,0,0:0:0:0:
402,192,10798,1,0,0:0:0:0:
256,192,10798,1,0,0:0:0:0:
64,192,10936,1,0,0:0:0:0:
109,192,10936,1,0,0:0:0:0:
329,192,10936,1,0,0:0:0:0:
192,192,11074,1,0,0:0:0:0:
109,192,11074,1,0,0:0:0:0:
402,192,11074,1,0,0:0:0:0:
256,192,11074,1,0,0:0:0:0:
64,192,11212,1,0,0:0:0:0:
320,192,11212,1,0,0:0:0:0:
448,192,11212,1,0,0:0:0:0:
402,192,11212,1,0,0:0:0:0:
256,192,11212,1,0,0:0:0:0:
475,192,11489,1,0,0:0:0:0:
402,192,11489,1,0,0:0:0:0:
329,192,11489,1,0,0:0:0:0:
192,192,11627,1,0,0:0:0:0:
64,192,11627,1,0,0:0:0:0:
109,192,11627,1,0,0:0:0:0:
256,192,11627,1,0,0:0:0:0:
448,192,11765,1,0,0:0:0:0:
402,192,11765,1,0,0:0:0:0:
329,192,11765,1,0,0:0:0:0:
109,192,11765,1,0,0:0:0:0:
36,192,11765,1,0,0:0:0:0:
448,192,11904,1,0,0:0:0:0:
320,192,11904,1,0,0:0:0:0:
109,192,11904,1,0,0:0:0:0:
256,192,11904,1,0,0:0:0:0:
64,192,12180,1,0,0:0:0:0:
109,192,12180,1,0,0:0:0:0:
329,192,12180,1,0,0:0:0:0:
448,192,12318,1,0,0:0:0:0:
320,192,12318,1,0,0:0:0:0:
256,192,12318,1,0,0:0:0:0:
182,192,12318,1,0,0:0:0:0:
36,192,12318,1,0,0:0:0:0:
192,192,12457,1,0,0:0:0:0:
109,192,12457,1,0,0:0:0:0:
329,192,12457,1,0,0:0:0:0:
402,192,12457,1,0,0:0:0:0:
448,192,12733,1,0,0:0:0:0:
329,192,12733,1,0,0:0:0:0:
256,192,12733,1,0,0:0:0:0:
320,192,12871,1,0,0:0:0:0:
64,192,12871,1,0,0:0:0:0:
475,192,12871,1,0,0:0:0:0:
109,192,12871,1,0,0:0:0:0:
182,192,12871,1,0,0:0:0:0:
448,192,13010,1,0,0:0:0:0:
109,192,13010,1,0,0:0:0:0:
256,192,13010,1,0,0:0:0:0:
192,192,13148,1,0,0:0:0:0:
329,192,13148,1,0,0:0:0:0:
402,192,13148,1,0,0:0:0:0:
475,192,13148,1,0,0:0:0:0:
448,192,13286,1,0,0:0:0:0:
320,192,13286,1,0,0:0:0:0:
256,192,13286,1,0,0:0:0:0:
64,192,13424,128,0,13563:0:0:0:0:
109,192,13424,1,0,0:0:0:0:
256,192,13424,1,0,0:0:0:0:
402,192,13424,1,0,0:0:0:0:
448,192,13563,128,0,13701:0:0:0:0:
320,192,13563,1,0,0:0:0:0:
182,192,13563,1,0,0:0:0:0:
64,192,13701,1,0,0:0:0:0:
109,192,13701,1,0,0:0:0:0:
329,192,13701,1,0,0:0:0:0:
256,192,13701,1,0,0:0:0:0:
109,192,13839,1,0,0:0:0:0:
36,192,13839,1,0,0:0:0:0:
64,192,13977,1,0,0:0:0:0:
109,192,13977,1,0,0:0:0:0:
256,192,13977,1,0,0:0:0:0:
402,192,13977,1,0,0:0:0:0:
475,192,13977,1,0,0:0:0:0:
402,192,14116,1,0,0:0:0:0:
475,192,14116,1,0,0:0:0:0:
402,192,14254,1,0,0:0:0:0:
475,192,14254,1,0,0:0:0:0:
109,192,14254,1,0,0:0:0:0:
329,192,14254,1,0,0:0:0:0:
256,192,14254,1,0,0:0:0:0:
109,192,14392,1,0,0:0:0:0:
256,192,14392,1,0,0:0:0:0:
192,192,14530,1,0,0:0:0:0:
64,192,14530,1,0,0:0:0:0:
448,192,14530,1,0,0:0:0:0:
256,192,14530,1,0,0:0:0:0:
109,192,14530,1,0,0:0:0:0:
192,192,14669,1,0,0:0:0:0:
475,192,14669,1,0,0:0:0:0:
448,192,14807,1,0,0:0:0:0:
320,192,14807,1,0,0:0:0:0:
109,192,14807,1,0,0:0:0:0:
182,192,14807,1,0,0:0:0:0:
36,192,14807,1,0,0:0:0:0:
320,192,14945,1,0,0:0:0:0:
109,192,14945,1,0,0:0:0:0:
448,192,15083,1,0,0:0:0:0:
192,192,15083,1,0,0:0:0:0:
256,192,15083,1,0,0:0:0:0:
329,192,15083,1,0,0:0:0:0:
402,192,15083,1,0,0:0:0:0:
64,192,15222,1,0,0:0:0:0:
109,192,15222,1,0,0:0:0:0:
182,192,15222,1,0,0:0:0:0:
329,192,15222,1,0,0:0:0:0:
448,192,15291,1,0,0:0:0:0:
402,192,15291,1,0,0:0:0:0:
64,192,15360,1,0,0:0:0:0:
192,192,15360,1,0,0:0:0:0:
329,192,15360,1,0,0:0:0:0:
256,192,15360,1,0,0:0:0:0:
448,192,15429,1,0,0:0:0:0:
109,192,15429,1,0,0:0:0:0:
64,192,15498,1,0,0:0:0:0:
320,192,15498,1,0,0:0:0:0:
256,192,15498,1,0,0:0:0:0:
192,192,15567,1,0,0:0:0:0:
402,192,15567,1,0,0:0:0:0:
64,192,15636,1,0,0:0:0:0:
448,192,15636,1,0,0:0:0:0:
256,192,15636,1,0,0:0:0:0:
109,192,15636,1,0,0:0:0:0:
329,192,15705,1,0,0:0:0:0:
402,192,15705,1,0,0:0:0:0:
64,192,15775,1,0,0:0:0:0:
475,192,15775,1,0,0:0:0:0:
182,192,15775,1,0,0:0:0:0:
109,192,15775,1,0,0:0:0:0:
256,192,15844,1,0,0:0:0:0:
329,192,15844,1,0,0:0:0:0:
448,192,15913,1,0,0:0:0:0:
64,192,15913,1,0,0:0:0:0:
182,192,15913,1,0,0:0:0:0:
109,192,15913,1,0,0:0:0:0:
402,192,15913,1,0,0:0:0:0:
192,192,16189,1,0,0:0:0:0:
109,192,16189,128,0,16258:0:0:0:0:
256,192,16189,128,0,16258:0:0:0:0:
256,192,16466,1,0,0:0:0:0:
320,192,16466,128,0,16535:0:0:0:0:
402,192,16466,128,0,16535:0:0:0:0:
329,192,16742,1,0,0:0:0:0:
448,192,16742,128,0,16811:0:0:0:0:
109,192,16742,128,0,16811:0:0:0:0:
109,192,17019,1,0,0:0:0:0:
320,192,17019,128,0,17088:0:0:0:0:
402,192,17019,128,0,17088:0:0:0:0:
64,192,17295,1,0,0:0:0:0:
109,192,17295,1,0,0:0:0:0:
182,192,17295,1,0,0:0:0:0:
448,192,17434,128,0,18125:0:0:0:0:
320,192,17434,1,0,0:0:0:0:
402,192,17434,1,0,0:0:0:0:
64,192,17572,1,0,0:0:0:0:
192,192,17572,1,0,0:0:0:0:
109,192,17572,1,0,0:0:0:0:
109,192,17848,1,0,0:0:0:0:
182,192,17848,1,0,0:0:0:0:
256,192,17848,1,0,0:0:0:0:
320,192,18125,1,0,0:0:0:0:
256,192,18125,1,0,0:0:0:0:
402,192,18125,1,0,0:0:0:0:
109,192,18401,1,0,0:0:0:0:
64,192,18401,128,0,18470:0:0:0:0:
182,192,18401,128,0,18470:0:0:0:0:
192,192,18678,128,0,18747:0:0:0:0:
329,192,18678,128,0,18747:0:0:0:0:
256,192,18678,1,0,0:0:0:0:
448,192,18954,128,0,19023:0:0:0:0:
329,192,18954,128,0,19023:0:0:0:0:
402,192,18954,1,0,0:0:0:0:
109,192,19231,1,0,0:0:0:0:
36,192,19231,1,0,0:0:0:0:
475,192,19231,1,0,0:0:0:0:
256,192,19231,128,0,20337:0:0:0:0:
402,192,19369,1,0,0:0:0:0:
36,192,19369,1,0,0:0:0:0:
475,192,19369,1,0,0:0:0:0:
109,192,19646,128,0,20060:0:0:0:0:
402,192,19646,128,0,20060:0:0:0:0:
36,192,19646,1,0,0:0:0:0:
475,192,19646,1,0,0:0:0:0:
192,192,19784,1,0,0:0:0:0:
320,192,19784,1,0,0:0:0:0:
475,192,19922,1,0,0:0:0:0:
36,192,19922,1,0,0:0:0:0:
192,192,20060,1,0,0:0:0:0:
329,192,20060,1,0,0:0:0:0:
192,192,20337,1,0,0:0:0:0:
448,192,20337,1,0,0:0:0:0:
329,192,20337,1,0,0:0:0:0:
36,192,20337,1,0,0:0:0:0:
192,192,20613,128,0,20682:0:0:0:0:
109,192,20613,128,0,20682:0:0:0:0:
402,192,20613,1,0,0:0:0:0:
448,192,20890,128,0,20959:0:0:0:0:
329,192,20890,1,0,0:0:0:0:
182,192,20890,128,0,20959:0:0:0:0:
109,192,21166,128,0,21235:0:0:0:0:
320,192,21166,1,0,0:0:0:0:
256,192,21166,128,0,21235:0:0:0:0:
402,192,21443,128,0,21512:0:0:0:0:
192,192,21443,1,0,0:0:0:0:
256,192,21443,128,0,21512:0:0:0:0:
64,192,21719,1,0,0:0:0:0:
320,192,21719,1,0,0:0:0:0:
109,192,21719,1,0,0:0:0:0:
402,192,21858,128,0,22549:0:0:0:0:
192,192,21858,1,0,0:0:0:0:
256,192,21858,1,0,0:0:0:0:
64,192,21996,1,0,0:0:0:0:
475,192,21996,1,0,0:0:0:0:
329,192,21996,1,0,0:0:0:0:
192,192,22272,1,0,0:0:0:0:
320,192,22272,1,0,0:0:0:0:
109,192,22272,1,0,0:0:0:0:
64,192,22549,1,0,0:0:0:0:
320,192,22549,1,0,0:0:0:0:
109,192,22549,1,0,0:0:0:0:
475,192,22549,1,0,0:0:0:0:
36,192,22687,1,0,0:0:0:0:
182,192,22687,1,0,0:0:0:0:
448,192,22825,1,0,0:0:0:0:
320,192,22825,1,0,0:0:0:0:
192,192,22825,1,0,0:0:0:0:
109,192,22825,1,0,0:0:0:0:
256,192,22825,1,0,0:0:0:0:
402,192,22825,1,0,0:0:0:0:
329,192,22964,1,0,0:0:0:0:
475,192,22964,1,0,0:0:0:0:
448,192,23102,1,0,0:0:0:0:
320,192,23102,1,0,0:0:0:0:
64,192,23102,1,0,0:0:0:0:
192,192,23102,1,0,0:0:0:0:
256,192,23102,1,0,0:0:0:0:
109,192,23102,1,0,0:0:0:0:
182,192,23240,1,0,0:0:0:0:
109,192,23240,1,0,0:0:0:0:
448,192,23378,1,0,0:0:0:0:
320,192,23378,1,0,0:0:0:0:
192,192,23378,1,0,0:0:0:0:
64,192,23378,1,0,0:0:0:0:
256,192,23378,1,0,0:0:0:0:
402,192,23378,1,0,0:0:0:0:
448,192,23517,1,0,0:0:0:0:
402,192,23517,1,0,0:0:0:0:
448,192,23655,1,0,0:0:0:0:
192,192,23655,1,0,0:0:0:0:
64,192,23655,1,0,0:0:0:0:
402,192,23655,1,0,0:0:0:0:
256,192,23655,1,0,0:0:0:0:
109,192,23655,1,0,0:0:0:0:
64,192,23793,1,0,0:0:0:0:
109,192,23793,1,0,0:0:0:0:
192,192,23931,1,0,0:0:0:0:
320,192,23931,1,0,0:0:0:0:
448,192,23931,1,0,0:0:0:0:
109,192,23931,1,0,0:0:0:0:
256,192,23931,1,0,0:0:0:0:
402,192,23931,1,0,0:0:0:0:
192,192,24070,1,0,0:0:0:0:
36,192,24070,1,0,0:0:0:0:
475,192,24070,1,0,0:0:0:0:
109,192,24070,1,0,0:0:0:0:
256,192,24139,1,0,0:0:0:0:
329,192,24139,1,0,0:0:0:0:
64,192,24208,1,0,0:0:0:0:
448,192,24208,1,0,0:0:0:0:
402,192,24208,1,0,0:0:0:0:
109,192,24208,1,0,0:0:0:0:
182,192,24277,1,0,0:0:0:0:
256,192,24277,1,0,0:0:0:0:
64,192,24346,1,0,0:0:0:0:
448,192,24346,1,0,0:0:0:0:
329,192,24346,1,0,0:0:0:0:
402,192,24346,1,0,0:0:0:0:
192,192,24415,1,0,0:0:0:0:
109,192,24415,1,0,0:0:0:0:
320,192,24484,1,0,0:0:0:0:
256,192,24484,1,0,0:0:0:0:
402,192,24484,1,0,0:0:0:0:
475,192,24484,1,0,0:0:0:0:
109,192,24553,1,0,0:0:0:0:
36,192,24553,1,0,0:0:0:0:
182,192,24623,1,0,0:0:0:0:
256,192,24623,1,0,0:0:0:0:
402,192,24623,1,0,0:0:0:0:
329,192,24623,1,0,0:0:0:0:
448,192,24692,1,0,0:0:0:0:
192,192,24761,1,0,0:0:0:0:
64,192,24761,1,0,0:0:0:0:
109,192,24761,1,0,0:0:0:0:
256,192,24761,1,0,0:0:0:0:
192,192,25037,1,0,0:0:0:0:
320,192,25037,1,0,0:0:0:0:
64,192,25037,1,0,0:0:0:0:
109,192,25037,1,0,0:0:0:0:
256,192,25037,1,0,0:0:0:0:
448,192,25176,1,0,0:0:0:0:
402,192,25176,1,0,0:0:0:0:
64,192,25314,1,0,0:0:0:0:
192,192,25314,1,0,0:0:0:0:
475,192,25314,1,0,0:0:0:0:
329,192,25314,1,0,0:0:0:0:
109,192,25314,1,0,0:0:0:0:
192,192,25452,1,0,0:0:0:0:
36,192,25452,1,0,0:0:0:0:
448,192,25590,1,0,0:0:0:0:
320,192,25590,1,0,0:0:0:0:
64,192,25590,1,0,0:0:0:0:
109,192,25590,1,0,0:0:0:0:
256,192,25590,1,0,0:0:0:0:
192,192,25729,1,0,0:0:0:0:
256,192,25729,1,0,0:0:0:0:
192,192,25867,1,0,0:0:0:0:
320,192,25867,1,0,0:0:0:0:
448,192,25867,1,0,0:0:0:0:
109,192,25867,1,0,0:0:0:0:
402,192,25867,1,0,0:0:0:0:
64,192,26005,1,0,0:0:0:0:
109,192,26005,1,0,0:0:0:0:
448,192,26143,1,0,0:0:0:0:
320,192,26143,1,0,0:0:0:0:
192,192,26143,1,0,0:0:0:0:
109,192,26143,1,0,0:0:0:0:
402,192,26143,1,0,0:0:0:0:
256,192,26282,128,0,26973:0:0:0:0:
320,192,26282,1,0,0:0:0:0:
182,192,26282,1,0,0:0:0:0:
448,192,26558,1,0,0:0:0:0:
329,192,26558,1,0,0:0:0:0:
109,192,26696,1,0,0:0:0:0:
448,192,26696,1,0,0:0:0:0:
329,192,26696,1,0,0:0:0:0:
36,192,26696,1,0,0:0:0:0:
402,192,26696,1,0,0:0:0:0:
329,192,26835,1,0,0:0:0:0:
182,192,26835,1,0,0:0:0:0:
448,192,26973,1,0,0:0:0:0:
402,192,26973,1,0,0:0:0:0:
36,192,26973,1,0,0:0:0:0:
109,192,26973,1,0,0:0:0:0:
182,192,26973,1,0,0:0:0:0:
256,192,27249,1,0,0:0:0:0:
182,192,27249,1,0,0:0:0:0:
109,192,27249,1,0,0:0:0:0:
402,192,27249,1,0,0:0:0:0:
329,192,27249,1,0,0:0:0:0:
64,192,27388,1,0,0:0:0:0:
475,192,27388,1,0,0:0:0:0:
192,192,27526,1,0,0:0:0:0:
109,192,27526,1,0,0:0:0:0:
36,192,27526,1,0,0:0:0:0:
256,192,27526,1,0,0:0:0:0:
329,192,27526,1,0,0:0:0:0:
256,192,27664,1,0,0:0:0:0:
475,192,27664,1,0,0:0:0:0:
192,192,27802,1,0,0:0:0:0:
448,192,27802,1,0,0:0:0:0:
402,192,27802,1,0,0:0:0:0:
329,192,27802,1,0,0:0:0:0:
109,192,27802,1,0,0:0:0:0:
320,192,27941,1,0,0:0:0:0:
109,192,27941,1,0,0:0:0:0:
192,192,28079,1,0,0:0:0:0:
64,192,28079,128,0,28217:0:0:0:0:
109,192,28079,1,0,0:0:0:0:
256,192,28079,1,0,0:0:0:0:
448,192,28217,128,0,28494:0:0:0:0:
256,192,28217,1,0,0:0:0:0:
402,192,28217,1,0,0:0:0:0:
329,192,28217,1,0,0:0:0:0:
64,192,28355,1,0,0:0:0:0:
109,192,28355,1,0,0:0:0:0:
182,192,28355,1,0,0:0:0:0:
109,192,28494,128,0,29185:0:0:0:0:
448,192,28770,1,0,0:0:0:0:
402,192,28770,1,0,0:0:0:0:
320,192,28908,1,0,0:0:0:0:
64,192,28908,1,0,0:0:0:0:
475,192,28908,1,0,0:0:0:0:
402,192,28908,1,0,0:0:0:0:
182,192,28908,1,0,0:0:0:0:
256,192,29047,1,0,0:0:0:0:
329,192,29047,1,0,0:0:0:0:
320,192,29185,1,0,0:0:0:0:
256,192,29185,1,0,0:0:0:0:
36,192,29185,1,0,0:0:0:0:
402,192,29185,1,0,0:0:0:0:
475,192,29185,1,0,0:0:0:0:
256,192,29461,1,0,0:0:0:0:
448,192,29461,1,0,0:0:0:0:
109,192,29461,128,0,29600:0:0:0:0:
182,192,29461,1,0,0:0:0:0:
402,192,29461,128,0,29600:0:0:0:0:
448,192,29600,1,0,0:0:0:0:
329,192,29600,1,0,0:0:0:0:
36,192,29600,1,0,0:0:0:0:
192,192,29738,1,0,0:0:0:0:
320,192,29738,1,0,0:0:0:0:
256,192,29738,128,0,29876:0:0:0:0:
109,192,29738,1,0,0:0:0:0:
36,192,29738,128,0,29876:0:0:0:0:
182,192,29876,1,0,0:0:0:0:
475,192,29876,1,0,0:0:0:0:
402,192,29876,1,0,0:0:0:0:
320,192,30014,1,0,0:0:0:0:
402,192,30014,128,0,30153:0:0:0:0:
256,192,30014,1,0,0:0:0:0:
36,192,30014,1,0,0:0:0:0:
109,192,30014,128,0,30153:0:0:0:0:
320,192,30153,1,0,0:0:0:0:
182,192,30153,1,0,0:0:0:0:
475,192,30153,1,0,0:0:0:0:
64,192,30291,1,0,0:0:0:0:
329,192,30291,128,0,30429:0:0:0:0:
109,192,30291,1,0,0:0:0:0:
182,192,30291,128,0,30429:0:0:0:0:
402,192,30291,1,0,0:0:0:0:
256,192,30429,1,0,0:0:0:0:
475,192,30429,1,0,0:0:0:0:
402,192,30429,1,0,0:0:0:0:
64,192,30567,1,0,0:0:0:0:
402,192,30567,128,0,30705:0:0:0:0:
109,192,30567,1,0,0:0:0:0:
182,192,30567,1,0,0:0:0:0:
448,192,30705,128,0,31397:0:0:0:0:
320,192,30705,1,0,0:0:0:0:
256,192,30705,1,0,0:0:0:0:
256,192,30982,128,0,31120:0:0:0:0:
109,192,30982,1,0,0:0:0:0:
182,192,30982,128,0,31120:0:0:0:0:
36,192,30982,1,0,0:0:0:0:
320,192,31120,1,0,0:0:0:0:
402,192,31120,1,0,0:0:0:0:
402,192,31258,128,0,31397:0:0:0:0:
329,192,31258,128,0,31397:0:0:0:0:
256,192,31258,1,0,0:0:0:0:
182,192,31258,1,0,0:0:0:0:
64,192,31397,1,0,0:0:0:0:
109,192,31397,1,0,0:0:0:0:
64,192,31673,1,0,0:0:0:0:
448,192,31673,1,0,0:0:0:0:
320,192,31673,1,0,0:0:0:0:
109,192,31673,1,0,0:0:0:0:
182,192,31673,1,0,0:0:0:0:
256,192,31673,1,0,0:0:0:0:
192,192,31950,1,0,0:0:0:0:
320,192,31950,1,0,0:0:0:0:
109,192,31950,1,0,0:0:0:0:
256,192,31950,1,0,0:0:0:0:
402,192,31950,1,0,0:0:0:0:
475,192,31950,1,0,0:0:0:0:
320,192,32226,1,0,0:0:0:0:
192,192,32226,1,0,0:0:0:0:
448,192,32226,1,0,0:0:0:0:
402,192,32226,1,0,0:0:0:0:
109,192,32226,1,0,0:0:0:0:
36,192,32226,1,0,0:0:0:0:
64,192,32503,1,0,0:0:0:0:
192,192,32503,1,0,0:0:0:0:
448,192,32503,1,0,0:0:0:0:
109,192,32503,1,0,0:0:0:0:
256,192,32503,1,0,0:0:0:0:
402,192,32503,1,0,0:0:0:0:
109,192,32641,1,0,0:0:0:0:
182,192,32641,1,0,0:0:0:0:
256,192,32641,1,0,0:0:0:0:
329,192,32641,1,0,0:0:0:0:
475,192,32641,1,0,0:0:0:0:
192,192,32779,1,0,0:0:0:0:
320,192,32779,1,0,0:0:0:0:
256,192,32779,1,0,0:0:0:0:
402,192,32779,1,0,0:0:0:0:
36,192,32779,1,0,0:0:0:0:
448,192,32917,1,0,0:0:0:0:
320,192,32917,1,0,0:0:0:0:
402,192,32917,1,0,0:0:0:0:
256,192,32917,1,0,0:0:0:0:
109,192,32917,1,0,0:0:0:0:
475,192,33056,1,0,0:0:0:0:
402,192,33056,1,0,0:0:0:0:
329,192,33056,1,0,0:0:0:0:
182,192,33056,1,0,0:0:0:0:
36,192,33056,1,0,0:0:0:0:
64,192,33194,1,0,0:0:0:0:
109,192,33194,1,0,0:0:0:0:
402,192,33194,1,0,0:0:0:0:
475,192,33194,1,0,0:0:0:0:
182,192,33263,1,0,0:0:0:0:
256,192,33263,1,0,0:0:0:0:
329,192,33263,1,0,0:0:0:0:
64,192,33332,1,0,0:0:0:0:
475,192,33332,1,0,0:0:0:0:
402,192,33332,1,0,0:0:0:0:
109,192,33332,1,0,0:0:0:0:
182,192,33401,1,0,0:0:0:0:
256,192,33401,1,0,0:0:0:0:
329,192,33401,1,0,0:0:0:0:
64,192,33470,1,0,0:0:0:0:
475,192,33470,1,0,0:0:0:0:
402,192,33470,1,0,0:0:0:0:
109,192,33470,1,0,0:0:0:0:
320,192,33540,1,0,0:0:0:0:
182,192,33540,1,0,0:0:0:0:
256,192,33540,1,0,0:0:0:0:
64,192,33609,1,0,0:0:0:0:
109,192,33609,1,0,0:0:0:0:
402,192,33609,1,0,0:0:0:0:
475,192,33609,1,0,0:0:0:0:
64,192,33747,1,0,0:0:0:0:
109,192,33747,1,0,0:0:0:0:
182,192,33747,1,0,0:0:0:0:
192,192,33885,1,0,0:0:0:0:
448,192,33885,1,0,0:0:0:0:
256,192,33885,1,0,0:0:0:0:
329,192,33885,1,0,0:0:0:0:
402,192,33885,1,0,0:0:0:0:
320,192,34023,1,0,0:0:0:0:
64,192,34023,1,0,0:0:0:0:
109,192,34023,1,0,0:0:0:0:
402,192,34023,1,0,0:0:0:0:
192,192,34300,1,0,0:0:0:0:
256,192,34300,1,0,0:0:0:0:
475,192,34300,1,0,0:0:0:0:
192,192,34438,1,0,0:0:0:0:
320,192,34438,1,0,0:0:0:0:
402,192,34438,1,0,0:0:0:0:
109,192,34438,1,0,0:0:0:0:
256,192,34438,1,0,0:0:0:0:
448,192,34576,1,0,0:0:0:0:
109,192,34576,1,0,0:0:0:0:
36,192,34576,1,0,0:0:0:0:
402,192,34576,1,0,0:0:0:0:
448,192,34853,1,0,0:0:0:0:
402,192,34853,1,0,0:0:0:0:
329,192,34853,1,0,0:0:0:0:
64,192,34991,1,0,0:0:0:0:
192,192,34991,1,0,0:0:0:0:
109,192,34991,1,0,0:0:0:0:
329,192,34991,1,0,0:0:0:0:
256,192,34991,1,0,0:0:0:0:
320,192,35129,1,0,0:0:0:0:
256,192,35129,1,0,0:0:0:0:
182,192,35268,1,0,0:0:0:0:
402,192,35268,1,0,0:0:0:0:
109,192,35268,1,0,0:0:0:0:
192,192,35406,1,0,0:0:0:0:
448,192,35406,1,0,0:0:0:0:
256,192,35406,1,0,0:0:0:0:
402,192,35406,1,0,0:0:0:0:
448,192,35544,1,0,0:0:0:0:
64,192,35544,1,0,0:0:0:0:
320,192,35544,1,0,0:0:0:0:
256,192,35544,1,0,0:0:0:0:
109,192,35544,1,0,0:0:0:0:
109,192,35821,1,0,0:0:0:0:
182,192,35821,1,0,0:0:0:0:
256,192,35821,1,0,0:0:0:0:
475,192,35959,1,0,0:0:0:0:
402,192,35959,1,0,0:0:0:0:
329,192,35959,1,0,0:0:0:0:
182,192,35959,1,0,0:0:0:0:
192,192,36097,1,0,0:0:0:0:
36,192,36097,1,0,0:0:0:0:
109,192,36097,1,0,0:0:0:0:
320,192,36235,1,0,0:0:0:0:
448,192,36235,1,0,0:0:0:0:
402,192,36235,1,0,0:0:0:0:
256,192,36235,1,0,0:0:0:0:
36,192,36235,1,0,0:0:0:0:
448,192,36512,1,0,0:0:0:0:
402,192,36512,1,0,0:0:0:0:
256,192,36512,1,0,0:0:0:0:
64,192,36650,1,0,0:0:0:0:
109,192,36650,1,0,0:0:0:0:
329,192,36650,1,0,0:0:0:0:
182,192,36788,1,0,0:0:0:0:
109,192,36788,1,0,0:0:0:0:
329,192,36788,1,0,0:0:0:0:
475,192,36788,1,0,0:0:0:0:
402,192,36788,1,0,0:0:0:0:
329,192,37065,1,0,0:0:0:0:
256,192,37065,1,0,0:0:0:0:
182,192,37065,1,0,0:0:0:0:
64,192,37203,1,0,0:0:0:0:
109,192,37203,1,0,0:0:0:0:
402,192,37203,1,0,0:0:0:0:
475,192,37203,1,0,0:0:0:0:
329,192,37341,1,0,0:0:0:0:
182,192,37341,1,0,0:0:0:0:
182,192,37480,1,0,0:0:0:0:
329,192,37480,1,0,0:0:0:0:
256,192,37480,1,0,0:0:0:0:
448,192,37618,1,0,0:0:0:0:
64,192,37618,1,0,0:0:0:0:
109,192,37618,1,0,0:0:0:0:
402,192,37618,1,0,0:0:0:0:
448,192,37756,1,0,0:0:0:0:
320,192,37756,1,0,0:0:0:0:
192,192,37756,1,0,0:0:0:0:
256,192,37756,1,0,0:0:0:0:
36,192,37756,1,0,0:0:0:0:
320,192,38033,1,0,0:0:0:0:
182,192,38033,1,0,0:0:0:0:
256,192,38033,1,0,0:0:0:0:
64,192,38171,1,0,0:0:0:0:
402,192,38171,1,0,0:0:0:0:
109,192,38171,1,0,0:0:0:0:
329,192,38171,1,0,0:0:0:0:
320,192,38309,1,0,0:0:0:0:
182,192,38309,1,0,0:0:0:0:
256,192,38309,1,0,0:0:0:0:
320,192,38447,1,0,0:0:0:0:
192,192,38447,1,0,0:0:0:0:
64,192,38447,1,0,0:0:0:0:
402,192,38447,1,0,0:0:0:0:
475,192,38447,1,0,0:0:0:0:
109,192,38724,1,0,0:0:0:0:
182,192,38724,1,0,0:0:0:0:
256,192,38724,1,0,0:0:0:0:
320,192,38862,1,0,0:0:0:0:
475,192,38862,1,0,0:0:0:0:
402,192,38862,1,0,0:0:0:0:
64,192,39000,1,0,0:0:0:0:
192,192,39000,1,0,0:0:0:0:
448,192,39000,1,0,0:0:0:0:
109,192,39000,1,0,0:0:0:0:
256,192,39000,1,0,0:0:0:0:
192,192,39277,1,0,0:0:0:0:
256,192,39277,1,0,0:0:0:0:
329,192,39277,1,0,0:0:0:0:
109,192,39415,1,0,0:0:0:0:
36,192,39415,1,0,0:0:0:0:
256,192,39415,1,0,0:0:0:0:
402,192,39415,1,0,0:0:0:0:
402,192,39553,1,0,0:0:0:0:
182,192,39553,1,0,0:0:0:0:
320,192,39692,1,0,0:0:0:0:
109,192,39692,1,0,0:0:0:0:
256,192,39692,1,0,0:0:0:0:
64,192,39830,1,0,0:0:0:0:
475,192,39830,1,0,0:0:0:0:
402,192,39830,1,0,0:0:0:0:
182,192,39830,1,0,0:0:0:0:
192,192,39968,1,0,0:0:0:0:
320,192,39968,1,0,0:0:0:0:
448,192,39968,1,0,0:0:0:0:
256,192,39968,1,0,0:0:0:0:
36,192,39968,1,0,0:0:0:0:
448,192,40106,1,0,0:0:0:0:
402,192,40106,1,0,0:0:0:0:
320,192,40245,1,0,0:0:0:0:
192,192,40245,1,0,0:0:0:0:
64,192,40245,1,0,0:0:0:0:
448,192,40245,1,0,0:0:0:0:
109,192,40245,1,0,0:0:0:0:
402,192,40245,1,0,0:0:0:0:
64,192,40383,1,0,0:0:0:0:
109,192,40383,1,0,0:0:0:0:
192,192,40521,1,0,0:0:0:0:
448,192,40521,1,0,0:0:0:0:
320,192,40521,1,0,0:0:0:0:
36,192,40521,1,0,0:0:0:0:
109,192,40521,1,0,0:0:0:0:
402,192,40521,1,0,0:0:0:0:
109,192,40659,1,0,0:0:0:0:
329,192,40659,1,0,0:0:0:0:
64,192,40798,1,0,0:0:0:0:
192,192,40798,1,0,0:0:0:0:
320,192,40798,1,0,0:0:0:0:
448,192,40798,1,0,0:0:0:0:
109,192,40798,1,0,0:0:0:0:
402,192,40798,1,0,0:0:0:0:
448,192,40936,1,0,0:0:0:0:
402,192,40936,1,0,0:0:0:0:
192,192,41074,1,0,0:0:0:0:
320,192,41074,1,0,0:0:0:0:
448,192,41074,1,0,0:0:0:0:
402,192,41074,1,0,0:0:0:0:
109,192,41074,1,0,0:0:0:0:
36,192,41074,1,0,0:0:0:0:
109,192,41212,1,0,0:0:0:0:
329,192,41212,1,0,0:0:0:0:
64,192,41351,1,0,0:0:0:0:
192,192,41351,1,0,0:0:0:0:
320,192,41351,1,0,0:0:0:0:
448,192,41351,1,0,0:0:0:0:
109,192,41351,1,0,0:0:0:0:
402,192,41351,1,0,0:0:0:0:
448,192,41489,1,0,0:0:0:0:
192,192,41489,1,0,0:0:0:0:
192,192,41627,1,0,0:0:0:0:
64,192,41627,1,0,0:0:0:0:
109,192,41627,1,0,0:0:0:0:
475,192,41627,1,0,0:0:0:0:
402,192,41627,1,0,0:0:0:0:
329,192,41627,1,0,0:0:0:0:
109,192,41765,1,0,0:0:0:0:
36,192,41765,1,0,0:0:0:0:
475,192,41765,1,0,0:0:0:0:
402,192,41765,1,0,0:0:0:0:
182,192,41835,1,0,0:0:0:0:
256,192,41835,1,0,0:0:0:0:
475,192,41904,1,0,0:0:0:0:
402,192,41904,1,0,0:0:0:0:
109,192,41904,1,0,0:0:0:0:
36,192,41904,1,0,0:0:0:0:
329,192,41973,1,0,0:0:0:0:
256,192,41973,1,0,0:0:0:0:
109,192,42042,1,0,0:0:0:0:
182,192,42042,1,0,0:0:0:0:
402,192,42042,1,0,0:0:0:0:
475,192,42042,1,0,0:0:0:0:
36,192,42111,1,0,0:0:0:0:
329,192,42111,1,0,0:0:0:0:
448,192,42180,1,0,0:0:0:0:
256,192,42180,128,0,42457:0:0:0:0:
109,192,42180,1,0,0:0:0:0:
182,192,42180,1,0,0:0:0:0:
402,192,42180,1,0,0:0:0:0:
448,192,42457,1,0,0:0:0:0:
402,192,42457,1,0,0:0:0:0:
36,192,42457,1,0,0:0:0:0:
109,192,42457,1,0,0:0:0:0:
64,192,42733,1,0,0:0:0:0:
256,192,42733,1,0,0:0:0:0:
182,192,42733,1,0,0:0:0:0:
320,192,42871,1,0,0:0:0:0:
256,192,42871,1,0,0:0:0:0:
109,192,42871,1,0,0:0:0:0:
320,192,43010,1,0,0:0:0:0:
64,192,43010,1,0,0:0:0:0:
402,192,43010,1,0,0:0:0:0:
475,192,43010,1,0,0:0:0:0:
182,192,43010,1,0,0:0:0:0:
256,192,43148,1,0,0:0:0:0:
109,192,43148,1,0,0:0:0:0:
402,192,43148,1,0,0:0:0:0:
448,192,43424,128,0,44116:0:0:0:0:
402,192,43424,1,0,0:0:0:0:
182,192,43424,1,0,0:0:0:0:
109,192,43424,1,0,0:0:0:0:
192,192,43701,1,0,0:0:0:0:
109,192,43701,1,0,0:0:0:0:
36,192,43701,1,0,0:0:0:0:
320,192,43839,1,0,0:0:0:0:
256,192,43839,1,0,0:0:0:0:
402,192,43839,1,0,0:0:0:0:
320,192,44116,1,0,0:0:0:0:
402,192,44116,1,0,0:0:0:0:
36,192,44116,1,0,0:0:0:0:
109,192,44116,1,0,0:0:0:0:
182,192,44392,1,0,0:0:0:0:
256,192,44669,1,0,0:0:0:0:
182,192,44669,1,0,0:0:0:0:
402,192,44669,1,0,0:0:0:0:
402,192,44807,1,0,0:0:0:0:
329,192,44807,1,0,0:0:0:0:
109,192,44807,1,0,0:0:0:0:
320,192,44945,1,0,0:0:0:0:
192,192,44945,1,0,0:0:0:0:
64,192,44945,1,0,0:0:0:0:
109,192,44945,1,0,0:0:0:0:
475,192,44945,1,0,0:0:0:0:
448,192,45083,1,0,0:0:0:0:
182,192,45083,1,0,0:0:0:0:
256,192,45083,1,0,0:0:0:0:
64,192,45360,1,0,0:0:0:0:
109,192,45360,1,0,0:0:0:0:
256,192,45360,1,0,0:0:0:0:
448,192,45498,1,0,0:0:0:0:
256,192,45498,1,0,0:0:0:0:
402,192,45498,1,0,0:0:0:0:
36,192,45636,128,0,46328:0:0:0:0:
320,192,45636,1,0,0:0:0:0:
182,192,45636,1,0,0:0:0:0:
109,192,45636,1,0,0:0:0:0:
182,192,45913,1,0,0:0:0:0:
402,192,45913,1,0,0:0:0:0:
475,192,45913,1,0,0:0:0:0:
320,192,46051,1,0,0:0:0:0:
109,192,46051,1,0,0:0:0:0:
256,192,46051,1,0,0:0:0:0:
448,192,46328,1,0,0:0:0:0:
402,192,46328,1,0,0:0:0:0:
182,192,46328,1,0,0:0:0:0:
256,192,46604,1,0,0:0:0:0:
64,192,46881,1,0,0:0:0:0:
109,192,46881,1,0,0:0:0:0:
475,192,46881,1,0,0:0:0:0:
320,192,47019,1,0,0:0:0:0:
402,192,47019,1,0,0:0:0:0:
182,192,47019,1,0,0:0:0:0:
64,192,47157,1,0,0:0:0:0:
109,192,47157,1,0,0:0:0:0:
475,192,47157,1,0,0:0:0:0:
320,192,47295,1,0,0:0:0:0:
182,192,47295,1,0,0:0:0:0:
402,192,47295,1,0,0:0:0:0:
256,192,47434,1,0,0:0:0:0:
182,192,47434,1,0,0:0:0:0:
109,192,47434,1,0,0:0:0:0:
448,192,47572,1,0,0:0:0:0:
402,192,47572,1,0,0:0:0:0:
329,192,47572,1,0,0:0:0:0:
256,192,47710,1,0,0:0:0:0:
182,192,47710,1,0,0:0:0:0:
109,192,47710,1,0,0:0:0:0:
329,192,47848,1,0,0:0:0:0:
402,192,47848,1,0,0:0:0:0:
475,192,47848,1,0,0:0:0:0:
475,192,47987,1,0,0:0:0:0:
36,192,47987,1,0,0:0:0:0:
402,192,47987,1,0,0:0:0:0:
320,192,48125,1,0,0:0:0:0:
402,192,48125,1,0,0:0:0:0:
109,192,48125,1,0,0:0:0:0:
192,192,48263,1,0,0:0:0:0:
256,192,48263,1,0,0:0:0:0:
329,192,48263,1,0,0:0:0:0:
329,192,48401,1,0,0:0:0:0:
256,192,48401,1,0,0:0:0:0:
182,192,48401,1,0,0:0:0:0:
192,192,48540,1,0,0:0:0:0:
109,192,48540,1,0,0:0:0:0:
402,192,48540,1,0,0:0:0:0:
475,192,48678,1,0,0:0:0:0:
109,192,48678,1,0,0:0:0:0:
36,192,48678,1,0,0:0:0:0:
448,192,48816,128,0,48954:0:0:0:0:
402,192,48816,128,0,48954:0:0:0:0:
36,192,48816,128,0,48954:0:0:0:0:
109,192,48816,128,0,48954:0:0:0:0:
256,192,48816,1,0,0:0:0:0:
182,192,48954,1,0,0:0:0:0:
329,192,48954,1,0,0:0:0:0:
320,192,49231,1,0,0:0:0:0:
192,192,49231,1,0,0:0:0:0:
64,192,49231,1,0,0:0:0:0:
256,192,49231,1,0,0:0:0:0:
109,192,49231,1,0,0:0:0:0:
192,192,49369,1,0,0:0:0:0:
320,192,49369,1,0,0:0:0:0:
256,192,49369,1,0,0:0:0:0:
402,192,49369,1,0,0:0:0:0:
475,192,49369,1,0,0:0:0:0:
448,192,49646,1,0,0:0:0:0:
192,192,49646,1,0,0:0:0:0:
320,192,49646,1,0,0:0:0:0:
402,192,49646,1,0,0:0:0:0:
256,192,49646,1,0,0:0:0:0:
192,192,49784,1,0,0:0:0:0:
109,192,49784,1,0,0:0:0:0:
36,192,49784,1,0,0:0:0:0:
329,192,49784,1,0,0:0:0:0:
402,192,49784,1,0,0:0:0:0:
320,192,50060,1,0,0:0:0:0:
192,192,50060,1,0,0:0:0:0:
64,192,50060,1,0,0:0:0:0:
109,192,50060,1,0,0:0:0:0:
402,192,50060,1,0,0:0:0:0:
192,192,50337,1,0,0:0:0:0:
109,192,50337,1,0,0:0:0:0:
256,192,50337,1,0,0:0:0:0:
329,192,50337,1,0,0:0:0:0:
402,192,50337,1,0,0:0:0:0:
64,192,50475,1,0,0:0:0:0:
475,192,50475,1,0,0:0:0:0:
402,192,50475,1,0,0:0:0:0:
329,192,50475,1,0,0:0:0:0:
182,192,50544,1,0,0:0:0:0:
109,192,50544,1,0,0:0:0:0:
448,192,50613,1,0,0:0:0:0:
402,192,50613,1,0,0:0:0:0:
329,192,50613,1,0,0:0:0:0:
36,192,50613,1,0,0:0:0:0:
256,192,50682,1,0,0:0:0:0:
182,192,50682,1,0,0:0:0:0:
448,192,50752,1,0,0:0:0:0:
320,192,50752,1,0,0:0:0:0:
109,192,50752,1,0,0:0:0:0:
402,192,50752,1,0,0:0:0:0:
36,192,50821,1,0,0:0:0:0:
256,192,50821,1,0,0:0:0:0:
448,192,50890,1,0,0:0:0:0:
320,192,50890,1,0,0:0:0:0:
182,192,50890,1,0,0:0:0:0:
109,192,50890,1,0,0:0:0:0:
402,192,50959,1,0,0:0:0:0:
256,192,50959,1,0,0:0:0:0:
448,192,51028,1,0,0:0:0:0:
64,192,51028,1,0,0:0:0:0:
109,192,51028,1,0,0:0:0:0:
329,192,51028,1,0,0:0:0:0:
192,192,51097,1,0,0:0:0:0:
256,192,51097,1,0,0:0:0:0:
64,192,51166,1,0,0:0:0:0:
448,192,51166,1,0,0:0:0:0:
109,192,51166,1,0,0:0:0:0:
402,192,51166,1,0,0:0:0:0:
329,192,51235,1,0,0:0:0:0:
256,192,51235,1,0,0:0:0:0:
64,192,51305,1,0,0:0:0:0:
192,192,51305,1,0,0:0:0:0:
448,192,51305,1,0,0:0:0:0:
109,192,51305,1,0,0:0:0:0:
402,192,51305,1,0,0:0:0:0:
448,192,52272,1,0,0:0:0:0:
320,192,52272,1,0,0:0:0:0:
64,192,52272,1,0,0:0:0:0:
109,192,52272,1,0,0:0:0:0:
182,192,52272,1,0,0:0:0:0:
402,192,52272,1,0,0:0:0:0:
64,192,52549,1,0,0:0:0:0:
256,192,52549,1,0,0:0:0:0:
109,192,52549,1,0,0:0:0:0:
64,192,52687,1,0,0:0:0:0:
448,192,52687,1,0,0:0:0:0:
402,192,52687,1,0,0:0:0:0:
329,192,52687,1,0,0:0:0:0:
182,192,52687,1,0,0:0:0:0:
448,192,52825,1,0,0:0:0:0:
109,192,52825,1,0,0:0:0:0:
256,192,52825,1,0,0:0:0:0:
320,192,52964,1,0,0:0:0:0:
256,192,52964,1,0,0:0:0:0:
109,192,52964,1,0,0:0:0:0:
182,192,52964,1,0,0:0:0:0:
402,192,52964,1,0,0:0:0:0:
329,192,53102,1,0,0:0:0:0:
402,192,53102,1,0,0:0:0:0:
182,192,53102,1,0,0:0:0:0:
448,192,53240,1,0,0:0:0:0:
256,192,53240,1,0,0:0:0:0:
402,192,53240,1,0,0:0:0:0:
36,192,53240,1,0,0:0:0:0:
109,192,53240,1,0,0:0:0:0:
109,192,53378,1,0,0:0:0:0:
182,192,53378,1,0,0:0:0:0:
329,192,53378,1,0,0:0:0:0:
329,192,53517,1,0,0:0:0:0:
402,192,53517,1,0,0:0:0:0:
36,192,53517,1,0,0:0:0:0:
475,192,53517,1,0,0:0:0:0:
256,192,53517,1,0,0:0:0:0:
448,192,53793,1,0,0:0:0:0:
320,192,53793,1,0,0:0:0:0:
402,192,53793,1,0,0:0:0:0:
256,192,53793,1,0,0:0:0:0:
109,192,53793,1,0,0:0:0:0:
182,192,53793,1,0,0:0:0:0:
36,192,53931,1,0,0:0:0:0:
109,192,53931,1,0,0:0:0:0:
329,192,53931,1,0,0:0:0:0:
475,192,53931,1,0,0:0:0:0:
256,192,53931,1,0,0:0:0:0:
64,192,54208,1,0,0:0:0:0:
109,192,54208,1,0,0:0:0:0:
182,192,54208,1,0,0:0:0:0:
320,192,54346,1,0,0:0:0:0:
475,192,54346,1,0,0:0:0:0:
402,192,54346,1,0,0:0:0:0:
192,192,54484,1,0,0:0:0:0:
64,192,54484,1,0,0:0:0:0:
329,192,54484,1,0,0:0:0:0:
256,192,54484,1,0,0:0:0:0:
109,192,54484,1,0,0:0:0:0:
192,192,54761,1,0,0:0:0:0:
109,192,54761,1,0,0:0:0:0:
256,192,54761,1,0,0:0:0:0:
64,192,54899,1,0,0:0:0:0:
475,192,54899,1,0,0:0:0:0:
402,192,54899,1,0,0:0:0:0:
329,192,54899,1,0,0:0:0:0:
256,192,54899,1,0,0:0:0:0:
182,192,55037,1,0,0:0:0:0:
109,192,55037,1,0,0:0:0:0:
36,192,55037,1,0,0:0:0:0:
448,192,55176,1,0,0:0:0:0:
402,192,55176,1,0,0:0:0:0:
182,192,55176,1,0,0:0:0:0:
256,192,55176,1,0,0:0:0:0:
109,192,55176,1,0,0:0:0:0:
329,192,55314,1,0,0:0:0:0:
109,192,55314,1,0,0:0:0:0:
402,192,55314,1,0,0:0:0:0:
64,192,55452,1,0,0:0:0:0:
448,192,55452,1,0,0:0:0:0:
320,192,55452,1,0,0:0:0:0:
256,192,55452,1,0,0:0:0:0:
182,192,55452,1,0,0:0:0:0:
109,192,55590,1,0,0:0:0:0:
402,192,55590,1,0,0:0:0:0:
256,192,55590,1,0,0:0:0:0:
64,192,55729,1,0,0:0:0:0:
109,192,55729,1,0,0:0:0:0:
182,192,55729,1,0,0:0:0:0:
475,192,55729,1,0,0:0:0:0:
329,192,55729,1,0,0:0:0:0:
36,192,56005,1,0,0:0:0:0:
109,192,56005,1,0,0:0:0:0:
402,192,56005,1,0,0:0:0:0:
475,192,56005,1,0,0:0:0:0:
329,192,56005,1,0,0:0:0:0:
182,192,56005,1,0,0:0:0:0:
402,192,56143,1,0,0:0:0:0:
329,192,56143,1,0,0:0:0:0:
182,192,56143,1,0,0:0:0:0:
256,192,56143,1,0,0:0:0:0:
109,192,56143,1,0,0:0:0:0:
192,192,56420,1,0,0:0:0:0:
64,192,56420,1,0,0:0:0:0:
109,192,56420,1,0,0:0:0:0:
64,192,56558,1,0,0:0:0:0:
192,192,56558,1,0,0:0:0:0:
109,192,56558,1,0,0:0:0:0:
64,192,56696,1,0,0:0:0:0:
320,192,56696,1,0,0:0:0:0:
109,192,56696,1,0,0:0:0:0:
182,192,56696,1,0,0:0:0:0:
256,192,56696,1,0,0:0:0:0:
402,192,56696,1,0,0:0:0:0:
448,192,56973,1,0,0:0:0:0:
402,192,56973,1,0,0:0:0:0:
329,192,56973,1,0,0:0:0:0:
192,192,57111,1,0,0:0:0:0:
320,192,57111,1,0,0:0:0:0:
256,192,57111,1,0,0:0:0:0:
36,192,57111,1,0,0:0:0:0:
320,192,57388,1,0,0:0:0:0:
64,192,57388,1,0,0:0:0:0:
192,192,57388,1,0,0:0:0:0:
109,192,57388,1,0,0:0:0:0:
402,192,57526,1,0,0:0:0:0:
256,192,57526,1,0,0:0:0:0:
64,192,57664,1,0,0:0:0:0:
448,192,57664,1,0,0:0:0:0:
329,192,57664,1,0,0:0:0:0:
109,192,57664,1,0,0:0:0:0:
320,192,57941,1,0,0:0:0:0:
192,192,57941,1,0,0:0:0:0:
402,192,57941,1,0,0:0:0:0:
109,192,57941,1,0,0:0:0:0:
256,192,58079,1,0,0:0:0:0:
329,192,58079,1,0,0:0:0:0:
182,192,58079,1,0,0:0:0:0:
475,192,58217,1,0,0:0:0:0:
402,192,58217,1,0,0:0:0:0:
109,192,58217,1,0,0:0:0:0:
36,192,58217,1,0,0:0:0:0:
192,192,58355,1,0,0:0:0:0:
448,192,58355,1,0,0:0:0:0:
320,192,58355,1,0,0:0:0:0:
36,192,58355,1,0,0:0:0:0:
256,192,58355,1,0,0:0:0:0:
448,192,58632,1,0,0:0:0:0:
64,192,58632,1,0,0:0:0:0:
109,192,58632,1,0,0:0:0:0:
329,192,58632,1,0,0:0:0:0:
256,192,58632,1,0,0:0:0:0:
192,192,58770,1,0,0:0:0:0:
256,192,58770,1,0,0:0:0:0:
448,192,58908,1,0,0:0:0:0:
256,192,58908,128,0,59600:0:0:0:0:
182,192,58908,1,0,0:0:0:0:
109,192,58908,1,0,0:0:0:0:
402,192,58908,1,0,0:0:0:0:
192,192,59185,1,0,0:0:0:0:
109,192,59185,1,0,0:0:0:0:
402,192,59185,1,0,0:0:0:0:
320,192,59323,1,0,0:0:0:0:
448,192,59323,1,0,0:0:0:0:
402,192,59323,1,0,0:0:0:0:
36,192,59323,1,0,0:0:0:0:
448,192,59600,1,0,0:0:0:0:
182,192,59600,1,0,0:0:0:0:
402,192,59600,1,0,0:0:0:0:
192,192,59738,1,0,0:0:0:0:
109,192,59738,1,0,0:0:0:0:
402,192,59738,1,0,0:0:0:0:
64,192,59876,1,0,0:0:0:0:
320,192,59876,1,0,0:0:0:0:
109,192,59876,1,0,0:0:0:0:
256,192,59876,1,0,0:0:0:0:
475,192,59876,1,0,0:0:0:0:
109,192,60014,1,0,0:0:0:0:
182,192,60014,1,0,0:0:0:0:
320,192,60153,1,0,0:0:0:0:
64,192,60153,1,0,0:0:0:0:
109,192,60153,1,0,0:0:0:0:
182,192,60153,1,0,0:0:0:0:
402,192,60153,1,0,0:0:0:0:
256,192,60153,1,0,0:0:0:0:
329,192,60291,1,0,0:0:0:0:
402,192,60291,1,0,0:0:0:0:
192,192,60429,1,0,0:0:0:0:
320,192,60429,1,0,0:0:0:0:
448,192,60429,1,0,0:0:0:0:
402,192,60429,1,0,0:0:0:0:
109,192,60429,1,0,0:0:0:0:
256,192,60429,1,0,0:0:0:0:
182,192,60567,1,0,0:0:0:0:
109,192,60567,1,0,0:0:0:0:
320,192,60705,1,0,0:0:0:0:
64,192,60705,1,0,0:0:0:0:
192,192,60705,1,0,0:0:0:0:
109,192,60705,1,0,0:0:0:0:
256,192,60705,1,0,0:0:0:0:
402,192,60705,1,0,0:0:0:0:
192,192,60844,1,0,0:0:0:0:
109,192,60844,1,0,0:0:0:0:
36,192,60844,1,0,0:0:0:0:
475,192,60844,1,0,0:0:0:0:
329,192,60913,1,0,0:0:0:0:
402,192,60913,1,0,0:0:0:0:
256,192,60913,1,0,0:0:0:0:
109,192,60982,1,0,0:0:0:0:
36,192,60982,1,0,0:0:0:0:
182,192,60982,1,0,0:0:0:0:
475,192,60982,1,0,0:0:0:0:
475,192,61120,1,0,0:0:0:0:
329,192,61120,1,0,0:0:0:0:
402,192,61120,1,0,0:0:0:0:
320,192,61397,1,0,0:0:0:0:
182,192,61397,1,0,0:0:0:0:
109,192,61397,1,0,0:0:0:0:
192,192,61535,1,0,0:0:0:0:
320,192,61535,1,0,0:0:0:0:
448,192,61535,1,0,0:0:0:0:
256,192,61535,1,0,0:0:0:0:
36,192,61535,1,0,0:0:0:0:
109,192,61673,1,0,0:0:0:0:
402,192,61673,1,0,0:0:0:0:
256,192,61673,1,0,0:0:0:0:
192,192,61811,1,0,0:0:0:0:
64,192,61811,1,0,0:0:0:0:
320,192,61811,1,0,0:0:0:0:
402,192,61811,1,0,0:0:0:0:
475,192,61811,1,0,0:0:0:0:
109,192,61950,1,0,0:0:0:0:
329,192,61950,1,0,0:0:0:0:
182,192,61950,1,0,0:0:0:0:
64,192,62088,1,0,0:0:0:0:
182,192,62088,1,0,0:0:0:0:
256,192,62088,1,0,0:0:0:0:
402,192,62088,1,0,0:0:0:0:
475,192,62088,1,0,0:0:0:0:
402,192,62226,1,0,0:0:0:0:
109,192,62226,1,0,0:0:0:0:
329,192,62226,1,0,0:0:0:0:
448,192,62364,1,0,0:0:0:0:
109,192,62364,1,0,0:0:0:0:
182,192,62364,1,0,0:0:0:0:
402,192,62364,1,0,0:0:0:0:
256,192,62364,1,0,0:0:0:0:
448,192,62641,1,0,0:0:0:0:
320,192,62641,1,0,0:0:0:0:
192,192,62641,1,0,0:0:0:0:
402,192,62641,1,0,0:0:0:0:
256,192,62641,1,0,0:0:0:0:
36,192,62641,1,0,0:0:0:0:
402,192,62779,1,0,0:0:0:0:
329,192,62779,1,0,0:0:0:0:
256,192,62779,1,0,0:0:0:0:
182,192,62779,1,0,0:0:0:0:
109,192,62779,1,0,0:0:0:0:
448,192,63056,1,0,0:0:0:0:
320,192,63056,1,0,0:0:0:0:
402,192,63056,1,0,0:0:0:0:
192,192,63194,1,0,0:0:0:0:
320,192,63194,1,0,0:0:0:0:
256,192,63194,1,0,0:0:0:0:
64,192,63332,1,0,0:0:0:0:
192,192,63332,1,0,0:0:0:0:
448,192,63332,1,0,0:0:0:0:
109,192,63332,1,0,0:0:0:0:
402,192,63332,1,0,0:0:0:0:
64,192,63609,1,0,0:0:0:0:
109,192,63609,1,0,0:0:0:0:
256,192,63609,1,0,0:0:0:0:
192,192,63747,1,0,0:0:0:0:
448,192,63747,1,0,0:0:0:0:
109,192,63747,1,0,0:0:0:0:
402,192,63747,1,0,0:0:0:0:
329,192,63747,1,0,0:0:0:0:
256,192,63885,1,0,0:0:0:0:
475,192,63885,1,0,0:0:0:0:
36,192,63885,1,0,0:0:0:0:
448,192,64023,1,0,0:0:0:0:
64,192,64023,1,0,0:0:0:0:
109,192,64023,1,0,0:0:0:0:
402,192,64023,1,0,0:0:0:0:
256,192,64023,1,0,0:0:0:0:
109,192,64162,1,0,0:0:0:0:
182,192,64162,1,0,0:0:0:0:
329,192,64162,1,0,0:0:0:0:
64,192,64300,1,0,0:0:0:0:
448,192,64300,1,0,0:0:0:0:
402,192,64300,1,0,0:0:0:0:
329,192,64300,1,0,0:0:0:0:
256,192,64300,1,0,0:0:0:0:
320,192,64576,1,0,0:0:0:0:
64,192,64576,1,0,0:0:0:0:
192,192,64576,1,0,0:0:0:0:
109,192,64576,1,0,0:0:0:0:
256,192,64576,1,0,0:0:0:0:
402,192,64576,1,0,0:0:0:0:
448,192,64715,1,0,0:0:0:0:
320,192,64715,1,0,0:0:0:0:
192,192,64715,1,0,0:0:0:0:
402,192,64715,1,0,0:0:0:0:
256,192,64715,1,0,0:0:0:0:
64,192,64991,1,0,0:0:0:0:
448,192,64991,1,0,0:0:0:0:
109,192,64991,1,0,0:0:0:0:
256,192,64991,1,0,0:0:0:0:
402,192,64991,1,0,0:0:0:0:
192,192,65268,1,0,0:0:0:0:
64,192,65268,1,0,0:0:0:0:
109,192,65268,1,0,0:0:0:0:
448,192,65406,1,0,0:0:0:0:
329,192,65406,1,0,0:0:0:0:
402,192,65406,1,0,0:0:0:0:
192,192,65682,1,0,0:0:0:0:
109,192,65682,128,0,66097:0:0:0:0:
36,192,65682,1,0,0:0:0:0:
402,192,65682,1,0,0:0:0:0:
192,192,65959,1,0,0:0:0:0:
256,192,65959,1,0,0:0:0:0:
329,192,65959,1,0,0:0:0:0:
402,192,66097,128,0,66512:0:0:0:0:
36,192,66097,1,0,0:0:0:0:
475,192,66097,1,0,0:0:0:0:
256,192,66097,1,0,0:0:0:0:
320,192,66374,1,0,0:0:0:0:
256,192,66374,1,0,0:0:0:0:
109,192,66374,1,0,0:0:0:0:
192,192,66512,128,0,66788:0:0:0:0:
320,192,66788,128,0,67203:0:0:0:0:
64,192,66788,1,0,0:0:0:0:
109,192,66788,1,0,0:0:0:0:
64,192,67065,1,0,0:0:0:0:
109,192,67065,1,0,0:0:0:0:
402,192,67065,1,0,0:0:0:0:
192,192,67203,1,0,0:0:0:0:
256,192,67203,128,0,67618:0:0:0:0:
475,192,67203,1,0,0:0:0:0:
448,192,67480,1,0,0:0:0:0:
192,192,67480,1,0,0:0:0:0:
402,192,67480,1,0,0:0:0:0:
448,192,67618,128,0,67894:0:0:0:0:
320,192,67618,1,0,0:0:0:0:
36,192,67618,1,0,0:0:0:0:
109,192,67618,1,0,0:0:0:0:
256,192,67756,1,0,0:0:0:0:
182,192,67756,1,0,0:0:0:0:
64,192,67894,1,0,0:0:0:0:
192,192,67894,1,0,0:0:0:0:
320,192,67894,1,0,0:0:0:0:
109,192,67894,1,0,0:0:0:0:
402,192,67894,1,0,0:0:0:0:
192,192,68033,1,0,0:0:0:0:
109,192,68033,1,0,0:0:0:0:
448,192,68171,1,0,0:0:0:0:
64,192,68171,1,0,0:0:0:0:
320,192,68171,1,0,0:0:0:0:
192,192,68171,1,0,0:0:0:0:
109,192,68171,1,0,0:0:0:0:
402,192,68171,1,0,0:0:0:0:
448,192,68309,1,0,0:0:0:0:
402,192,68309,1,0,0:0:0:0:
320,192,68447,1,0,0:0:0:0:
448,192,68447,1,0,0:0:0:0:
192,192,68447,1,0,0:0:0:0:
64,192,68447,1,0,0:0:0:0:
402,192,68447,1,0,0:0:0:0:
109,192,68447,1,0,0:0:0:0:
109,192,68586,1,0,0:0:0:0:
36,192,68586,1,0,0:0:0:0:
192,192,68724,1,0,0:0:0:0:
320,192,68724,1,0,0:0:0:0:
109,192,68724,1,0,0:0:0:0:
256,192,68724,1,0,0:0:0:0:
402,192,68724,1,0,0:0:0:0:
475,192,68724,1,0,0:0:0:0:
402,192,68862,1,0,0:0:0:0:
475,192,68862,1,0,0:0:0:0:
64,192,69000,1,0,0:0:0:0:
192,192,69000,1,0,0:0:0:0:
320,192,69000,1,0,0:0:0:0:
402,192,69000,1,0,0:0:0:0:
256,192,69000,1,0,0:0:0:0:
109,192,69000,1,0,0:0:0:0:
64,192,69139,1,0,0:0:0:0:
182,192,69139,1,0,0:0:0:0:
448,192,69277,1,0,0:0:0:0:
36,192,69277,1,0,0:0:0:0:
182,192,69277,1,0,0:0:0:0:
256,192,69277,1,0,0:0:0:0:
329,192,69277,1,0,0:0:0:0:
402,192,69277,1,0,0:0:0:0:
475,192,69415,1,0,0:0:0:0:
402,192,69415,1,0,0:0:0:0:
329,192,69415,1,0,0:0:0:0:
182,192,69484,1,0,0:0:0:0:
256,192,69484,1,0,0:0:0:0:
64,192,69553,1,0,0:0:0:0:
109,192,69553,1,0,0:0:0:0:
475,192,69553,1,0,0:0:0:0:
402,192,69553,1,0,0:0:0:0:
329,192,69623,1,0,0:0:0:0:
256,192,69623,1,0,0:0:0:0:
192,192,69692,1,0,0:0:0:0:
109,192,69692,1,0,0:0:0:0:
36,192,69692,1,0,0:0:0:0:
475,192,69692,1,0,0:0:0:0:
402,192,69761,1,0,0:0:0:0:
329,192,69761,1,0,0:0:0:0:
256,192,69830,1,0,0:0:0:0:
182,192,69830,1,0,0:0:0:0:
109,192,69830,1,0,0:0:0:0:
36,192,69830,1,0,0:0:0:0:
475,192,69899,1,0,0:0:0:0:
402,192,69899,1,0,0:0:0:0:
320,192,69968,1,0,0:0:0:0:
256,192,69968,1,0,0:0:0:0:
182,192,69968,1,0,0:0:0:0:
109,192,69968,1,0,0:0:0:0:
36,192,70037,1,0,0:0:0:0:
475,192,70037,1,0,0:0:0:0:
320,192,70106,1,0,0:0:0:0:
256,192,70106,128,0,71212:0:0:0:0:
402,192,70106,1,0,0:0:0:0:
182,192,70106,1,0,0:0:0:0:
192,192,70383,1,0,0:0:0:0:
109,192,70383,1,0,0:0:0:0:
36,192,70383,1,0,0:0:0:0:
448,192,70521,1,0,0:0:0:0:
320,192,70521,1,0,0:0:0:0:
402,192,70521,1,0,0:0:0:0:
475,192,70798,1,0,0:0:0:0:
402,192,70798,1,0,0:0:0:0:
329,192,70798,1,0,0:0:0:0:
182,192,70936,1,0,0:0:0:0:
109,192,70936,1,0,0:0:0:0:
36,192,70936,1,0,0:0:0:0:
192,192,71212,1,0,0:0:0:0:
448,192,71212,128,0,72042:0:0:0:0:
109,192,71212,1,0,0:0:0:0:
402,192,71212,1,0,0:0:0:0:
320,192,71489,1,0,0:0:0:0:
64,192,71489,1,0,0:0:0:0:
256,192,71489,1,0,0:0:0:0:
192,192,71627,1,0,0:0:0:0:
109,192,71627,1,0,0:0:0:0:
402,192,71627,1,0,0:0:0:0:
64,192,71904,1,0,0:0:0:0:
256,192,71904,1,0,0:0:0:0:
329,192,71904,1,0,0:0:0:0:
109,192,72042,128,0,72318:0:0:0:0:
402,192,72042,1,0,0:0:0:0:
182,192,72042,1,0,0:0:0:0:
182,192,72318,128,0,73424:0:0:0:0:
448,192,72318,1,0,0:0:0:0:
402,192,72318,1,0,0:0:0:0:
64,192,72595,1,0,0:0:0:0:
109,192,72595,1,0,0:0:0:0:
402,192,72595,1,0,0:0:0:0:
256,192,72733,1,0,0:0:0:0:
329,192,72733,1,0,0:0:0:0:
475,192,72733,1,0,0:0:0:0:
64,192,73010,1,0,0:0:0:0:
448,192,73010,1,0,0:0:0:0:
402,192,73010,1,0,0:0:0:0:
109,192,73148,1,0,0:0:0:0:
256,192,73148,1,0,0:0:0:0:
329,192,73148,1,0,0:0:0:0:
402,192,73424,128,0,74530:0:0:0:0:
64,192,73424,1,0,0:0:0:0:
329,192,73424,1,0,0:0:0:0:
256,192,73424,1,0,0:0:0:0:
64,192,73701,1,0,0:0:0:0:
256,192,73701,1,0,0:0:0:0:
109,192,73701,1,0,0:0:0:0:
192,192,73839,1,0,0:0:0:0:
329,192,73839,1,0,0:0:0:0:
475,192,73839,1,0,0:0:0:0:
64,192,74116,1,0,0:0:0:0:
320,192,74116,1,0,0:0:0:0:
475,192,74116,1,0,0:0:0:0:
192,192,74254,1,0,0:0:0:0:
256,192,74254,1,0,0:0:0:0:
109,192,74254,1,0,0:0:0:0:
64,192,74530,128,0,75636:0:0:0:0:
109,192,74530,1,0,0:0:0:0:
475,192,74530,1,0,0:0:0:0:
329,192,74530,1,0,0:0:0:0:
448,192,74807,1,0,0:0:0:0:
192,192,74807,1,0,0:0:0:0:
256,192,74807,1,0,0:0:0:0:
402,192,74945,1,0,0:0:0:0:
329,192,74945,1,0,0:0:0:0:
109,192,74945,1,0,0:0:0:0:
192,192,75222,1,0,0:0:0:0:
109,192,75222,1,0,0:0:0:0:
256,192,75222,1,0,0:0:0:0:
448,192,75360,1,0,0:0:0:0:
320,192,75360,1,0,0:0:0:0:
402,192,75360,1,0,0:0:0:0:
192,192,75636,1,0,0:0:0:0:
256,192,75636,128,0,76466:0:0:0:0:
402,192,75636,1,0,0:0:0:0:
109,192,75636,1,0,0:0:0:0:
192,192,75913,1,0,0:0:0:0:
64,192,75913,1,0,0:0:0:0:
109,192,75913,1,0,0:0:0:0:
448,192,76051,1,0,0:0:0:0:
329,192,76051,1,0,0:0:0:0:
402,192,76051,1,0,0:0:0:0:
448,192,76328,1,0,0:0:0:0:
192,192,76328,1,0,0:0:0:0:
402,192,76328,1,0,0:0:0:0:
64,192,76466,128,0,76742:0:0:0:0:
329,192,76466,1,0,0:0:0:0:
109,192,76466,1,0,0:0:0:0:
109,192,76742,128,0,77848:0:0:0:0:
448,192,76742,1,0,0:0:0:0:
329,192,76742,1,0,0:0:0:0:
182,192,76742,1,0,0:0:0:0:
64,192,77019,1,0,0:0:0:0:
182,192,77019,1,0,0:0:0:0:
256,192,77019,1,0,0:0:0:0:
320,192,77157,1,0,0:0:0:0:
402,192,77157,1,0,0:0:0:0:
475,192,77157,1,0,0:0:0:0:
64,192,77434,1,0,0:0:0:0:
448,192,77434,1,0,0:0:0:0:
329,192,77434,1,0,0:0:0:0:
402,192,77572,1,0,0:0:0:0:
256,192,77572,1,0,0:0:0:0:
182,192,77572,1,0,0:0:0:0:
64,192,77848,1,0,0:0:0:0:
448,192,77848,1,0,0:0:0:0:
402,192,77848,128,0,78954:0:0:0:0:
256,192,77848,1,0,0:0:0:0:
64,192,78125,1,0,0:0:0:0:
448,192,78125,1,0,0:0:0:0:
109,192,78125,1,0,0:0:0:0:
192,192,78263,1,0,0:0:0:0:
256,192,78263,1,0,0:0:0:0:
329,192,78263,1,0,0:0:0:0:
192,192,78540,1,0,0:0:0:0:
64,192,78540,1,0,0:0:0:0:
109,192,78540,1,0,0:0:0:0:
448,192,78678,1,0,0:0:0:0:
256,192,78678,1,0,0:0:0:0:
329,192,78678,1,0,0:0:0:0:
448,192,78954,128,0,80060:0:0:0:0:
64,192,78954,1,0,0:0:0:0:
329,192,78954,1,0,0:0:0:0:
109,192,78954,1,0,0:0:0:0:
64,192,79231,1,0,0:0:0:0:
320,192,79231,1,0,0:0:0:0:
256,192,79231,1,0,0:0:0:0:
109,192,79369,1,0,0:0:0:0:
182,192,79369,1,0,0:0:0:0:
402,192,79369,1,0,0:0:0:0:
320,192,79646,1,0,0:0:0:0:
192,192,79646,1,0,0:0:0:0:
256,192,79646,1,0,0:0:0:0:
64,192,79784,1,0,0:0:0:0:
402,192,79784,1,0,0:0:0:0:
109,192,79784,1,0,0:0:0:0:
182,192,80060,128,0,80890:0:0:0:0:
320,192,80060,1,0,0:0:0:0:
109,192,80060,1,0,0:0:0:0:
256,192,80060,1,0,0:0:0:0:
402,192,80337,1,0,0:0:0:0:
475,192,80337,1,0,0:0:0:0:
256,192,80337,1,0,0:0:0:0:
109,192,80475,1,0,0:0:0:0:
36,192,80475,1,0,0:0:0:0:
329,192,80475,1,0,0:0:0:0:
109,192,80752,1,0,0:0:0:0:
448,192,80752,1,0,0:0:0:0:
402,192,80752,1,0,0:0:0:0:
402,192,80890,1,0,0:0:0:0:
329,192,80890,128,0,81166:0:0:0:0:
256,192,80890,1,0,0:0:0:0:
36,192,80890,1,0,0:0:0:0:
109,192,81028,1,0,0:0:0:0:
182,192,81028,1,0,0:0:0:0:
64,192,81166,1,0,0:0:0:0:
256,192,81166,1,0,0:0:0:0:
475,192,81166,1,0,0:0:0:0:
448,192,81443,1,0,0:0:0:0:
192,192,81443,1,0,0:0:0:0:
64,192,81443,1,0,0:0:0:0:
109,192,81443,1,0,0:0:0:0:
402,192,81443,1,0,0:0:0:0:
192,192,81581,1,0,0:0:0:0:
320,192,81581,1,0,0:0:0:0:
256,192,81581,1,0,0:0:0:0:
182,192,81858,1,0,0:0:0:0:
402,192,81858,1,0,0:0:0:0:
109,192,81858,1,0,0:0:0:0:
64,192,81996,1,0,0:0:0:0:
475,192,81996,1,0,0:0:0:0:
402,192,81996,1,0,0:0:0:0:
256,192,81996,1,0,0:0:0:0:
182,192,81996,1,0,0:0:0:0:
448,192,82272,1,0,0:0:0:0:
64,192,82272,1,0,0:0:0:0:
109,192,82272,1,0,0:0:0:0:
402,192,82272,1,0,0:0:0:0:
256,192,82272,1,0,0:0:0:0:
448,192,82549,1,0,0:0:0:0:
192,192,82549,1,0,0:0:0:0:
320,192,82549,1,0,0:0:0:0:
402,192,82549,1,0,0:0:0:0:
109,192,82549,1,0,0:0:0:0:
64,192,82687,1,0,0:0:0:0:
256,192,82687,1,0,0:0:0:0:
182,192,82687,1,0,0:0:0:0:
64,192,82964,1,0,0:0:0:0:
182,192,82964,1,0,0:0:0:0:
256,192,82964,1,0,0:0:0:0:
320,192,83102,1,0,0:0:0:0:
109,192,83102,1,0,0:0:0:0:
256,192,83102,1,0,0:0:0:0:
402,192,83102,1,0,0:0:0:0:
475,192,83102,1,0,0:0:0:0:
192,192,83240,128,0,83378:0:0:0:0:
329,192,83240,128,0,83378:0:0:0:0:
109,192,83240,1,0,0:0:0:0:
256,192,83240,128,0,83378:0:0:0:0:
402,192,83240,1,0,0:0:0:0:
475,192,83378,1,0,0:0:0:0:
64,192,83378,1,0,0:0:0:0:
182,192,83655,128,0,83793:0:0:0:0:
448,192,83655,1,0,0:0:0:0:
402,192,83655,1,0,0:0:0:0:
320,192,83793,128,0,84070:0:0:0:0:
109,192,83793,1,0,0:0:0:0:
36,192,83793,1,0,0:0:0:0:
109,192,84070,128,0,84346:0:0:0:0:
448,192,84070,1,0,0:0:0:0:
256,192,84070,1,0,0:0:0:0:
402,192,84346,128,0,84761:0:0:0:0:
64,192,84346,1,0,0:0:0:0:
182,192,84346,1,0,0:0:0:0:
475,192,84346,1,0,0:0:0:0:
320,192,84761,128,0,84899:0:0:0:0:
64,192,84761,1,0,0:0:0:0:
109,192,84761,1,0,0:0:0:0:
256,192,84899,128,0,85314:0:0:0:0:
182,192,85037,1,0,0:0:0:0:
402,192,85037,1,0,0:0:0:0:
109,192,85037,1,0,0:0:0:0:
448,192,85314,1,0,0:0:0:0:
36,192,85314,1,0,0:0:0:0:
64,192,85590,128,0,85867:0:0:0:0:
192,192,85590,1,0,0:0:0:0:
109,192,85590,128,0,85867:0:0:0:0:
256,192,85590,1,0,0:0:0:0:
448,192,85867,1,0,0:0:0:0:
402,192,85867,1,0,0:0:0:0:
448,192,86143,128,0,86420:0:0:0:0:
320,192,86143,1,0,0:0:0:0:
256,192,86143,1,0,0:0:0:0:
402,192,86143,128,0,86420:0:0:0:0:
109,192,86420,1,0,0:0:0:0:
64,192,86420,1,0,0:0:0:0:
320,192,86696,1,0,0:0:0:0:
64,192,86696,1,0,0:0:0:0:
109,192,86696,1,0,0:0:0:0:
475,192,86696,1,0,0:0:0:0:
402,192,86696,1,0,0:0:0:0:
192,192,86973,1,0,0:0:0:0:
64,192,86973,1,0,0:0:0:0:
109,192,86973,1,0,0:0:0:0:
329,192,86973,1,0,0:0:0:0:
256,192,86973,1,0,0:0:0:0:
192,192,87111,1,0,0:0:0:0:
320,192,87111,1,0,0:0:0:0:
109,192,87111,1,0,0:0:0:0:
256,192,87111,1,0,0:0:0:0:
402,192,87111,1,0,0:0:0:0:
448,192,87249,1,0,0:0:0:0:
320,192,87249,1,0,0:0:0:0:
192,192,87249,1,0,0:0:0:0:
256,192,87249,1,0,0:0:0:0:
402,192,87249,1,0,0:0:0:0:
448,192,87388,1,0,0:0:0:0:
64,192,87388,1,0,0:0:0:0:
402,192,87388,1,0,0:0:0:0:
329,192,87388,1,0,0:0:0:0:
256,192,87388,1,0,0:0:0:0:
448,192,87526,1,0,0:0:0:0:
402,192,87526,1,0,0:0:0:0:
329,192,87526,1,0,0:0:0:0:
36,192,87526,1,0,0:0:0:0:
109,192,87526,1,0,0:0:0:0:
402,192,87664,1,0,0:0:0:0:
475,192,87664,1,0,0:0:0:0:
182,192,87664,1,0,0:0:0:0:
109,192,87664,1,0,0:0:0:0:
36,192,87664,1,0,0:0:0:0:
36,192,87802,128,0,88010:0:0:0:0:
256,192,87802,128,0,88148:0:0:0:0:
182,192,87802,128,0,88424:0:0:0:0:
109,192,87802,128,0,88701:0:0:0:0:
475,192,87802,1,0,0:0:0:0:
36,192,88079,128,0,89530:0:0:0:0:
256,192,88217,128,0,88977:0:0:0:0:
182,192,88494,128,0,89116:0:0:0:0:
109,192,88770,128,0,89254:0:0:0:0:
256,192,89047,128,0,90014:0:0:0:0:
182,192,89185,128,0,89669:0:0:0:0:
109,192,89323,128,0,90014:0:0:0:0:
36,192,89600,128,0,90014:0:0:0:0:
182,192,89738,128,0,90014:0:0:0:0:
402,192,90014,1,0,0:0:0:0:
448,192,90014,1,0,0:0:0:0:
329,192,90014,1,0,0:0:0:0:
402,192,90153,1,0,0:0:0:0:
329,192,90153,1,0,0:0:0:0:
256,192,90153,1,0,0:0:0:0:
64,192,90291,1,0,0:0:0:0:
109,192,90291,1,0,0:0:0:0:
182,192,90291,1,0,0:0:0:0:
448,192,90429,1,0,0:0:0:0:
320,192,90429,1,0,0:0:0:0:
256,192,90429,1,0,0:0:0:0:
402,192,90429,1,0,0:0:0:0:
36,192,90429,1,0,0:0:0:0:
109,192,90429,1,0,0:0:0:0:
329,192,90705,1,0,0:0:0:0:
182,192,90705,1,0,0:0:0:0:
402,192,90705,1,0,0:0:0:0:
64,192,90844,1,0,0:0:0:0:
320,192,90844,1,0,0:0:0:0:
256,192,90844,1,0,0:0:0:0:
109,192,90844,1,0,0:0:0:0:
475,192,90844,1,0,0:0:0:0:
320,192,90982,1,0,0:0:0:0:
402,192,90982,1,0,0:0:0:0:
182,192,90982,1,0,0:0:0:0:
109,192,90982,1,0,0:0:0:0:
320,192,91258,1,0,0:0:0:0:
109,192,91258,1,0,0:0:0:0:
182,192,91258,1,0,0:0:0:0:
64,192,91397,1,0,0:0:0:0:
448,192,91397,1,0,0:0:0:0:
109,192,91397,1,0,0:0:0:0:
402,192,91397,1,0,0:0:0:0:
256,192,91397,1,0,0:0:0:0:
402,192,91535,1,0,0:0:0:0:
329,192,91535,1,0,0:0:0:0:
182,192,91673,1,0,0:0:0:0:
256,192,91673,1,0,0:0:0:0:
329,192,91673,1,0,0:0:0:0:
320,192,91811,1,0,0:0:0:0:
256,192,91811,1,0,0:0:0:0:
402,192,91811,1,0,0:0:0:0:
109,192,91811,1,0,0:0:0:0:
64,192,91950,1,0,0:0:0:0:
192,192,91950,1,0,0:0:0:0:
475,192,91950,1,0,0:0:0:0:
402,192,91950,1,0,0:0:0:0:
109,192,91950,1,0,0:0:0:0:
192,192,92226,1,0,0:0:0:0:
109,192,92226,1,0,0:0:0:0:
320,192,92364,1,0,0:0:0:0:
256,192,92364,1,0,0:0:0:0:
402,192,92364,1,0,0:0:0:0:
448,192,92503,1,0,0:0:0:0:
64,192,92503,1,0,0:0:0:0:
402,192,92503,1,0,0:0:0:0:
256,192,92503,1,0,0:0:0:0:
182,192,92503,1,0,0:0:0:0:
448,192,92641,1,0,0:0:0:0:
192,192,92641,1,0,0:0:0:0:
109,192,92641,1,0,0:0:0:0:
402,192,92641,1,0,0:0:0:0:
448,192,92917,1,0,0:0:0:0:
109,192,92917,1,0,0:0:0:0:
256,192,92917,1,0,0:0:0:0:
320,192,93056,1,0,0:0:0:0:
64,192,93056,1,0,0:0:0:0:
192,192,93056,1,0,0:0:0:0:
402,192,93056,1,0,0:0:0:0:
475,192,93056,1,0,0:0:0:0:
192,192,93194,1,0,0:0:0:0:
329,192,93194,1,0,0:0:0:0:
256,192,93194,1,0,0:0:0:0:
109,192,93194,1,0,0:0:0:0:
329,192,93470,1,0,0:0:0:0:
256,192,93470,1,0,0:0:0:0:
109,192,93470,1,0,0:0:0:0:
320,192,93609,1,0,0:0:0:0:
64,192,93609,1,0,0:0:0:0:
192,192,93609,1,0,0:0:0:0:
109,192,93609,1,0,0:0:0:0:
402,192,93609,1,0,0:0:0:0:
109,192,93747,1,0,0:0:0:0:
182,192,93747,1,0,0:0:0:0:
192,192,93885,1,0,0:0:0:0:
320,192,93885,1,0,0:0:0:0:
256,192,93885,1,0,0:0:0:0:
448,192,94023,1,0,0:0:0:0:
320,192,94023,1,0,0:0:0:0:
402,192,94023,1,0,0:0:0:0:
182,192,94023,1,0,0:0:0:0:
448,192,94162,1,0,0:0:0:0:
64,192,94162,1,0,0:0:0:0:
192,192,94162,1,0,0:0:0:0:
109,192,94162,1,0,0:0:0:0:
329,192,94162,1,0,0:0:0:0:
109,192,94438,1,0,0:0:0:0:
329,192,94438,1,0,0:0:0:0:
402,192,94438,1,0,0:0:0:0:
182,192,94438,1,0,0:0:0:0:
192,192,94576,1,0,0:0:0:0:
402,192,94576,1,0,0:0:0:0:
256,192,94576,1,0,0:0:0:0:
320,192,94715,1,0,0:0:0:0:
64,192,94715,1,0,0:0:0:0:
109,192,94715,1,0,0:0:0:0:
256,192,94715,1,0,0:0:0:0:
475,192,94715,1,0,0:0:0:0:
64,192,94853,1,0,0:0:0:0:
448,192,94853,1,0,0:0:0:0:
320,192,94853,1,0,0:0:0:0:
402,192,94853,1,0,0:0:0:0:
448,192,95129,1,0,0:0:0:0:
256,192,95129,1,0,0:0:0:0:
109,192,95129,1,0,0:0:0:0:
320,192,95268,1,0,0:0:0:0:
192,192,95268,1,0,0:0:0:0:
64,192,95268,1,0,0:0:0:0:
256,192,95268,1,0,0:0:0:0:
402,192,95268,1,0,0:0:0:0:
64,192,95406,1,0,0:0:0:0:
448,192,95406,1,0,0:0:0:0:
109,192,95406,1,0,0:0:0:0:
256,192,95406,1,0,0:0:0:0:
192,192,95682,1,0,0:0:0:0:
256,192,95682,1,0,0:0:0:0:
402,192,95682,1,0,0:0:0:0:
448,192,95821,1,0,0:0:0:0:
320,192,95821,1,0,0:0:0:0:
64,192,95821,1,0,0:0:0:0:
182,192,95821,1,0,0:0:0:0:
109,192,95821,1,0,0:0:0:0:
256,192,95959,1,0,0:0:0:0:
402,192,95959,1,0,0:0:0:0:
192,192,96097,1,0,0:0:0:0:
329,192,96097,1,0,0:0:0:0:
109,192,96097,1,0,0:0:0:0:
448,192,96235,1,0,0:0:0:0:
320,192,96235,1,0,0:0:0:0:
256,192,96235,1,0,0:0:0:0:
36,192,96235,1,0,0:0:0:0:
192,192,96374,1,0,0:0:0:0:
64,192,96374,1,0,0:0:0:0:
109,192,96374,1,0,0:0:0:0:
448,192,96512,1,0,0:0:0:0:
329,192,96512,1,0,0:0:0:0:
402,192,96512,1,0,0:0:0:0:
448,192,96650,1,0,0:0:0:0:
320,192,96650,1,0,0:0:0:0:
64,192,96650,1,0,0:0:0:0:
192,192,96650,1,0,0:0:0:0:
256,192,96650,1,0,0:0:0:0:
109,192,96650,1,0,0:0:0:0:
64,192,96788,1,0,0:0:0:0:
182,192,96788,1,0,0:0:0:0:
192,192,96927,1,0,0:0:0:0:
64,192,96927,1,0,0:0:0:0:
320,192,96927,1,0,0:0:0:0:
448,192,96927,1,0,0:0:0:0:
109,192,96927,1,0,0:0:0:0:
402,192,96927,1,0,0:0:0:0:
448,192,97065,1,0,0:0:0:0:
329,192,97065,1,0,0:0:0:0:
448,192,97203,1,0,0:0:0:0:
320,192,97203,1,0,0:0:0:0:
64,192,97203,1,0,0:0:0:0:
192,192,97203,1,0,0:0:0:0:
402,192,97203,1,0,0:0:0:0:
256,192,97203,1,0,0:0:0:0:
64,192,97341,1,0,0:0:0:0:
109,192,97341,1,0,0:0:0:0:
448,192,97480,1,0,0:0:0:0:
64,192,97480,1,0,0:0:0:0:
192,192,97480,1,0,0:0:0:0:
109,192,97480,1,0,0:0:0:0:
402,192,97480,1,0,0:0:0:0:
256,192,97480,1,0,0:0:0:0:
402,192,97618,1,0,0:0:0:0:
475,192,97618,1,0,0:0:0:0:
64,192,97756,1,0,0:0:0:0:
109,192,97756,1,0,0:0:0:0:
256,192,97756,1,0,0:0:0:0:
329,192,97756,1,0,0:0:0:0:
402,192,97756,1,0,0:0:0:0:
475,192,97756,1,0,0:0:0:0:
109,192,97894,1,0,0:0:0:0:
182,192,97894,1,0,0:0:0:0:
448,192,98033,1,0,0:0:0:0:
320,192,98033,1,0,0:0:0:0:
182,192,98033,1,0,0:0:0:0:
109,192,98033,1,0,0:0:0:0:
402,192,98033,1,0,0:0:0:0:
256,192,98033,1,0,0:0:0:0:
64,192,98171,1,0,0:0:0:0:
448,192,98171,1,0,0:0:0:0:
109,192,98171,1,0,0:0:0:0:
182,192,98171,1,0,0:0:0:0:
256,192,98240,1,0,0:0:0:0:
402,192,98240,1,0,0:0:0:0:
448,192,98309,1,0,0:0:0:0:
64,192,98309,1,0,0:0:0:0:
109,192,98309,1,0,0:0:0:0:
329,192,98309,1,0,0:0:0:0:
182,192,98378,1,0,0:0:0:0:
402,192,98378,1,0,0:0:0:0:
448,192,98447,1,0,0:0:0:0:
64,192,98447,1,0,0:0:0:0:
256,192,98447,1,0,0:0:0:0:
109,192,98447,1,0,0:0:0:0:
329,192,98517,1,0,0:0:0:0:
402,192,98517,1,0,0:0:0:0:
64,192,98586,1,0,0:0:0:0:
448,192,98586,1,0,0:0:0:0:
182,192,98586,1,0,0:0:0:0:
109,192,98586,1,0,0:0:0:0:
320,192,98655,1,0,0:0:0:0:
256,192,98655,1,0,0:0:0:0:
64,192,98724,1,0,0:0:0:0:
402,192,98724,1,0,0:0:0:0:
475,192,98724,1,0,0:0:0:0:
109,192,98724,1,0,0:0:0:0:
329,192,98793,1,0,0:0:0:0:
256,192,98793,1,0,0:0:0:0:
475,192,98862,1,0,0:0:0:0:
402,192,98862,1,0,0:0:0:0:
36,192,98862,1,0,0:0:0:0:
109,192,98862,1,0,0:0:0:0:
182,192,98862,1,0,0:0:0:0:
192,192,99139,1,0,0:0:0:0:
64,192,99139,1,0,0:0:0:0:
109,192,99139,1,0,0:0:0:0:
402,192,99139,1,0,0:0:0:0:
329,192,99139,1,0,0:0:0:0:
320,192,99415,1,0,0:0:0:0:
192,192,99415,1,0,0:0:0:0:
256,192,99415,1,0,0:0:0:0:
64,192,99553,1,0,0:0:0:0:
448,192,99553,1,0,0:0:0:0:
109,192,99553,1,0,0:0:0:0:
402,192,99553,1,0,0:0:0:0:
64,192,99968,1,0,0:0:0:0:
109,192,99968,1,0,0:0:0:0:
182,192,99968,1,0,0:0:0:0:
192,192,100106,1,0,0:0:0:0:
109,192,100106,1,0,0:0:0:0:
256,192,100106,1,0,0:0:0:0:
448,192,100245,1,0,0:0:0:0:
192,192,100245,1,0,0:0:0:0:
64,192,100245,1,0,0:0:0:0:
256,192,100245,1,0,0:0:0:0:
329,192,100245,1,0,0:0:0:0:
402,192,100383,128,0,100521:0:0:0:0:
256,192,100383,1,0,0:0:0:0:
182,192,100383,1,0,0:0:0:0:
109,192,100521,128,0,100659:0:0:0:0:
256,192,100521,1,0,0:0:0:0:
329,192,100521,1,0,0:0:0:0:
320,192,100659,128,0,100798:0:0:0:0:
256,192,100659,1,0,0:0:0:0:
36,192,100659,1,0,0:0:0:0:
182,192,100798,128,0,100936:0:0:0:0:
256,192,100798,1,0,0:0:0:0:
402,192,100798,1,0,0:0:0:0:
256,192,100936,1,0,0:0:0:0:
109,192,100936,1,0,0:0:0:0:
329,192,101005,1,0,0:0:0:0:
64,192,101074,1,0,0:0:0:0:
109,192,101074,1,0,0:0:0:0:
402,192,101074,1,0,0:0:0:0:
475,192,101074,1,0,0:0:0:0:
329,192,101212,1,0,0:0:0:0:
182,192,101212,1,0,0:0:0:0:
448,192,101351,1,0,0:0:0:0:
402,192,101351,1,0,0:0:0:0:
109,192,101351,1,0,0:0:0:0:
256,192,101351,1,0,0:0:0:0:
36,192,101351,1,0,0:0:0:0:
192,192,101627,1,0,0:0:0:0:
109,192,101627,1,0,0:0:0:0:
36,192,101627,1,0,0:0:0:0:
448,192,101765,1,0,0:0:0:0:
256,192,101765,1,0,0:0:0:0:
402,192,101765,1,0,0:0:0:0:
329,192,101765,1,0,0:0:0:0:
192,192,101904,1,0,0:0:0:0:
64,192,101904,1,0,0:0:0:0:
109,192,101904,1,0,0:0:0:0:
256,192,101904,1,0,0:0:0:0:
329,192,101904,1,0,0:0:0:0:
475,192,102042,1,0,0:0:0:0:
402,192,102042,1,0,0:0:0:0:
182,192,102042,1,0,0:0:0:0:
256,192,102111,1,0,0:0:0:0:
36,192,102180,1,0,0:0:0:0:
109,192,102180,1,0,0:0:0:0:
329,192,102180,1,0,0:0:0:0:
320,192,102318,1,0,0:0:0:0:
192,192,102318,1,0,0:0:0:0:
256,192,102318,1,0,0:0:0:0:
448,192,102457,1,0,0:0:0:0:
36,192,102457,1,0,0:0:0:0:
256,192,102457,1,0,0:0:0:0:
109,192,102457,1,0,0:0:0:0:
402,192,102457,1,0,0:0:0:0:
320,192,102595,1,0,0:0:0:0:
402,192,102595,1,0,0:0:0:0:
402,192,102733,128,0,102871:0:0:0:0:
192,192,102733,1,0,0:0:0:0:
109,192,102733,1,0,0:0:0:0:
109,192,102871,128,0,103010:0:0:0:0:
320,192,102871,1,0,0:0:0:0:
256,192,102871,1,0,0:0:0:0:
182,192,103010,128,0,103148:0:0:0:0:
448,192,103010,1,0,0:0:0:0:
402,192,103010,1,0,0:0:0:0:
329,192,103148,128,0,103286:0:0:0:0:
109,192,103148,1,0,0:0:0:0:
36,192,103148,1,0,0:0:0:0:
256,192,103217,1,0,0:0:0:0:
402,192,103286,1,0,0:0:0:0:
475,192,103286,1,0,0:0:0:0:
475,192,103424,1,0,0:0:0:0:
402,192,103424,1,0,0:0:0:0:
329,192,103424,1,0,0:0:0:0:
192,192,103563,1,0,0:0:0:0:
448,192,103563,1,0,0:0:0:0:
402,192,103563,1,0,0:0:0:0:
109,192,103563,1,0,0:0:0:0:
329,192,103563,1,0,0:0:0:0:
109,192,103701,1,0,0:0:0:0:
256,192,103701,1,0,0:0:0:0:
448,192,103839,1,0,0:0:0:0:
36,192,103839,1,0,0:0:0:0:
402,192,103839,1,0,0:0:0:0:
320,192,103977,1,0,0:0:0:0:
192,192,103977,1,0,0:0:0:0:
256,192,103977,1,0,0:0:0:0:
192,192,104116,1,0,0:0:0:0:
64,192,104116,1,0,0:0:0:0:
109,192,104116,1,0,0:0:0:0:
475,192,104116,1,0,0:0:0:0:
402,192,104116,1,0,0:0:0:0:
64,192,104254,1,0,0:0:0:0:
109,192,104254,1,0,0:0:0:0:
475,192,104254,1,0,0:0:0:0:
402,192,104323,1,0,0:0:0:0:
320,192,104392,1,0,0:0:0:0:
256,192,104392,1,0,0:0:0:0:
36,192,104392,1,0,0:0:0:0:
256,192,104530,1,0,0:0:0:0:
182,192,104530,1,0,0:0:0:0:
109,192,104530,1,0,0:0:0:0:
320,192,104669,1,0,0:0:0:0:
448,192,104669,1,0,0:0:0:0:
402,192,104669,1,0,0:0:0:0:
182,192,104669,1,0,0:0:0:0:
36,192,104669,1,0,0:0:0:0:
192,192,104807,1,0,0:0:0:0:
109,192,104807,1,0,0:0:0:0:
402,192,104945,128,0,105083:0:0:0:0:
192,192,104945,1,0,0:0:0:0:
109,192,104945,1,0,0:0:0:0:
109,192,105083,128,0,105222:0:0:0:0:
329,192,105083,1,0,0:0:0:0:
256,192,105083,1,0,0:0:0:0:
256,192,105222,128,0,105360:0:0:0:0:
475,192,105222,1,0,0:0:0:0:
402,192,105222,1,0,0:0:0:0:
329,192,105360,128,0,105498:0:0:0:0:
109,192,105360,1,0,0:0:0:0:
36,192,105360,1,0,0:0:0:0:
64,192,105498,1,0,0:0:0:0:
192,192,105498,1,0,0:0:0:0:
475,192,105498,1,0,0:0:0:0:
109,192,105498,1,0,0:0:0:0:
402,192,105498,1,0,0:0:0:0:
64,192,105636,1,0,0:0:0:0:
109,192,105636,1,0,0:0:0:0:
64,192,105775,1,0,0:0:0:0:
192,192,105775,1,0,0:0:0:0:
320,192,105775,1,0,0:0:0:0:
448,192,105775,1,0,0:0:0:0:
109,192,105775,1,0,0:0:0:0:
402,192,105775,1,0,0:0:0:0:
448,192,105913,1,0,0:0:0:0:
402,192,105913,1,0,0:0:0:0:
448,192,106051,1,0,0:0:0:0:
320,192,106051,1,0,0:0:0:0:
192,192,106051,1,0,0:0:0:0:
64,192,106051,1,0,0:0:0:0:
402,192,106051,1,0,0:0:0:0:
109,192,106051,1,0,0:0:0:0:
182,192,106189,1,0,0:0:0:0:
36,192,106189,1,0,0:0:0:0:
64,192,106328,1,0,0:0:0:0:
192,192,106328,1,0,0:0:0:0:
320,192,106328,1,0,0:0:0:0:
448,192,106328,1,0,0:0:0:0:
256,192,106328,1,0,0:0:0:0:
402,192,106328,1,0,0:0:0:0:
448,192,106466,1,0,0:0:0:0:
320,192,106466,1,0,0:0:0:0:
448,192,106604,1,0,0:0:0:0:
320,192,106604,1,0,0:0:0:0:
192,192,106604,1,0,0:0:0:0:
64,192,106604,1,0,0:0:0:0:
256,192,106604,1,0,0:0:0:0:
109,192,106604,1,0,0:0:0:0:
109,192,106742,1,0,0:0:0:0:
182,192,106742,1,0,0:0:0:0:
320,192,106881,1,0,0:0:0:0:
109,192,106881,1,0,0:0:0:0:
182,192,106881,1,0,0:0:0:0:
256,192,106881,1,0,0:0:0:0:
402,192,106881,1,0,0:0:0:0:
475,192,106881,1,0,0:0:0:0:
448,192,107019,1,0,0:0:0:0:
402,192,107019,1,0,0:0:0:0:
329,192,107019,1,0,0:0:0:0:
256,192,107019,1,0,0:0:0:0:
64,192,107088,1,0,0:0:0:0:
109,192,107088,1,0,0:0:0:0:
192,192,107157,1,0,0:0:0:0:
320,192,107157,1,0,0:0:0:0:
256,192,107157,1,0,0:0:0:0:
402,192,107157,1,0,0:0:0:0:
64,192,107226,1,0,0:0:0:0:
109,192,107226,1,0,0:0:0:0:
448,192,107295,1,0,0:0:0:0:
320,192,107295,1,0,0:0:0:0:
256,192,107295,1,0,0:0:0:0:
402,192,107295,1,0,0:0:0:0:
36,192,107364,1,0,0:0:0:0:
109,192,107364,1,0,0:0:0:0:
320,192,107434,1,0,0:0:0:0:
256,192,107434,1,0,0:0:0:0:
402,192,107434,1,0,0:0:0:0:
182,192,107434,1,0,0:0:0:0:
109,192,107503,1,0,0:0:0:0:
36,192,107503,1,0,0:0:0:0:
448,192,107572,1,0,0:0:0:0:
256,192,107572,1,0,0:0:0:0:
329,192,107572,1,0,0:0:0:0:
402,192,107572,1,0,0:0:0:0:
36,192,107641,1,0,0:0:0:0:
109,192,107641,1,0,0:0:0:0:
192,192,107710,1,0,0:0:0:0:
256,192,107710,1,0,0:0:0:0:
329,192,107710,1,0,0:0:0:0:
402,192,107710,1,0,0:0:0:0:
475,192,107710,1,0,0:0:0:0:
448,192,107987,1,0,0:0:0:0:
320,192,107987,1,0,0:0:0:0:
192,192,107987,1,0,0:0:0:0:
402,192,107987,1,0,0:0:0:0:
256,192,107987,1,0,0:0:0:0:
192,192,108125,1,0,0:0:0:0:
64,192,108125,1,0,0:0:0:0:
109,192,108125,1,0,0:0:0:0:
448,192,108263,1,0,0:0:0:0:
329,192,108263,1,0,0:0:0:0:
402,192,108263,1,0,0:0:0:0:
320,192,108401,1,0,0:0:0:0:
192,192,108401,1,0,0:0:0:0:
256,192,108401,1,0,0:0:0:0:
109,192,108401,1,0,0:0:0:0:
448,192,108540,1,0,0:0:0:0:
320,192,108540,1,0,0:0:0:0:
64,192,108540,1,0,0:0:0:0:
109,192,108540,1,0,0:0:0:0:
402,192,108540,1,0,0:0:0:0:
64,192,108816,1,0,0:0:0:0:
475,192,108816,1,0,0:0:0:0:
402,192,108816,1,0,0:0:0:0:
329,192,108954,1,0,0:0:0:0:
256,192,108954,1,0,0:0:0:0:
182,192,108954,1,0,0:0:0:0:
448,192,109093,1,0,0:0:0:0:
64,192,109093,1,0,0:0:0:0:
109,192,109093,1,0,0:0:0:0:
109,192,109231,128,0,109369:0:0:0:0:
475,192,109231,1,0,0:0:0:0:
402,192,109231,1,0,0:0:0:0:
256,192,109369,128,0,109507:0:0:0:0:
182,192,109369,1,0,0:0:0:0:
329,192,109369,1,0,0:0:0:0:
402,192,109507,128,0,109646:0:0:0:0:
64,192,109507,1,0,0:0:0:0:
475,192,109507,1,0,0:0:0:0:
329,192,109646,128,0,109784:0:0:0:0:
192,192,109646,1,0,0:0:0:0:
256,192,109646,1,0,0:0:0:0:
182,192,109784,128,0,109922:0:0:0:0:
36,192,109784,1,0,0:0:0:0:
109,192,109784,1,0,0:0:0:0:
320,192,109922,1,0,0:0:0:0:
475,192,109922,1,0,0:0:0:0:
402,192,109922,1,0,0:0:0:0:
192,192,110199,1,0,0:0:0:0:
64,192,110199,1,0,0:0:0:0:
448,192,110199,1,0,0:0:0:0:
109,192,110199,1,0,0:0:0:0:
402,192,110199,1,0,0:0:0:0:
320,192,110337,1,0,0:0:0:0:
256,192,110337,1,0,0:0:0:0:
182,192,110337,1,0,0:0:0:0:
64,192,110475,1,0,0:0:0:0:
109,192,110475,1,0,0:0:0:0:
256,192,110475,1,0,0:0:0:0:
402,192,110613,1,0,0:0:0:0:
475,192,110613,1,0,0:0:0:0:
182,192,110613,1,0,0:0:0:0:
320,192,110752,1,0,0:0:0:0:
448,192,110752,1,0,0:0:0:0:
64,192,110752,1,0,0:0:0:0:
109,192,110752,1,0,0:0:0:0:
256,192,110752,1,0,0:0:0:0:
320,192,111028,1,0,0:0:0:0:
192,192,111028,1,0,0:0:0:0:
109,192,111028,1,0,0:0:0:0:
448,192,111166,1,0,0:0:0:0:
36,192,111166,1,0,0:0:0:0:
402,192,111166,1,0,0:0:0:0:
192,192,111305,1,0,0:0:0:0:
320,192,111305,1,0,0:0:0:0:
256,192,111305,1,0,0:0:0:0:
64,192,111443,1,0,0:0:0:0:
192,192,111443,128,0,111581:0:0:0:0:
109,192,111443,1,0,0:0:0:0:
329,192,111581,128,0,111719:0:0:0:0:
402,192,111581,1,0,0:0:0:0:
475,192,111581,1,0,0:0:0:0:
64,192,111719,128,0,111858:0:0:0:0:
109,192,111719,1,0,0:0:0:0:
182,192,111719,1,0,0:0:0:0:
475,192,111858,128,0,111996:0:0:0:0:
329,192,111858,1,0,0:0:0:0:
402,192,111858,1,0,0:0:0:0:
256,192,111996,128,0,112134:0:0:0:0:
64,192,111996,1,0,0:0:0:0:
109,192,111996,1,0,0:0:0:0:
182,192,112065,1,0,0:0:0:0:
329,192,112065,1,0,0:0:0:0:
402,192,112134,1,0,0:0:0:0:
475,192,112134,1,0,0:0:0:0:
448,192,112411,1,0,0:0:0:0:
402,192,112411,1,0,0:0:0:0:
109,192,112411,1,0,0:0:0:0:
64,192,112549,1,0,0:0:0:0:
182,192,112549,1,0,0:0:0:0:
256,192,112549,1,0,0:0:0:0:
329,192,112549,1,0,0:0:0:0:
448,192,112687,1,0,0:0:0:0:
402,192,112687,1,0,0:0:0:0:
192,192,112825,1,0,0:0:0:0:
329,192,112825,1,0,0:0:0:0:
256,192,112825,1,0,0:0:0:0:
192,192,112964,1,0,0:0:0:0:
64,192,112964,1,0,0:0:0:0:
109,192,112964,1,0,0:0:0:0:
475,192,112964,1,0,0:0:0:0:
402,192,112964,1,0,0:0:0:0:
64,192,113240,1,0,0:0:0:0:
109,192,113240,1,0,0:0:0:0:
329,192,113240,1,0,0:0:0:0:
475,192,113378,1,0,0:0:0:0:
402,192,113378,1,0,0:0:0:0:
182,192,113378,1,0,0:0:0:0:
192,192,113517,1,0,0:0:0:0:
320,192,113517,1,0,0:0:0:0:
256,192,113517,1,0,0:0:0:0:
256,192,113655,128,0,113793:0:0:0:0:
182,192,113655,1,0,0:0:0:0:
329,192,113655,1,0,0:0:0:0:
329,192,113793,128,0,113931:0:0:0:0:
109,192,113793,1,0,0:0:0:0:
402,192,113793,1,0,0:0:0:0:
192,192,113931,128,0,114070:0:0:0:0:
64,192,113931,1,0,0:0:0:0:
475,192,113931,1,0,0:0:0:0:
109,192,114070,128,0,114208:0:0:0:0:
402,192,114070,1,0,0:0:0:0:
256,192,114070,1,0,0:0:0:0:
402,192,114208,128,0,114346:0:0:0:0:
192,192,114208,1,0,0:0:0:0:
329,192,114208,1,0,0:0:0:0:
109,192,114346,1,0,0:0:0:0:
256,192,114346,1,0,0:0:0:0:
320,192,114623,1,0,0:0:0:0:
192,192,114623,1,0,0:0:0:0:
64,192,114623,1,0,0:0:0:0:
109,192,114623,1,0,0:0:0:0:
402,192,114623,1,0,0:0:0:0:
475,192,114623,1,0,0:0:0:0:
192,192,114899,1,0,0:0:0:0:
320,192,114899,1,0,0:0:0:0:
448,192,114899,1,0,0:0:0:0:
256,192,114899,1,0,0:0:0:0:
36,192,114899,1,0,0:0:0:0:
109,192,114899,1,0,0:0:0:0:
64,192,115176,1,0,0:0:0:0:
192,192,115176,1,0,0:0:0:0:
448,192,115176,1,0,0:0:0:0:
256,192,115176,1,0,0:0:0:0:
329,192,115176,1,0,0:0:0:0:
402,192,115176,1,0,0:0:0:0:
448,192,115452,1,0,0:0:0:0:
320,192,115452,1,0,0:0:0:0:
182,192,115452,1,0,0:0:0:0:
109,192,115452,1,0,0:0:0:0:
402,192,115452,1,0,0:0:0:0:
402,192,115590,1,0,0:0:0:0:
329,192,115590,1,0,0:0:0:0:
256,192,115590,1,0,0:0:0:0:
109,192,115590,1,0,0:0:0:0:
36,192,115590,1,0,0:0:0:0:
36,192,115729,1,0,0:0:0:0:
182,192,115729,1,0,0:0:0:0:
256,192,115729,1,0,0:0:0:0:
329,192,115729,1,0,0:0:0:0:
475,192,115729,1,0,0:0:0:0:
64,192,115867,1,0,0:0:0:0:
192,192,115867,1,0,0:0:0:0:
256,192,115867,1,0,0:0:0:0:
109,192,115867,1,0,0:0:0:0:
402,192,115867,1,0,0:0:0:0:
64,192,116005,1,0,0:0:0:0:
109,192,116005,1,0,0:0:0:0:
182,192,116005,1,0,0:0:0:0:
329,192,116005,1,0,0:0:0:0:
475,192,116005,1,0,0:0:0:0:
36,192,116143,1,0,0:0:0:0:
109,192,116143,1,0,0:0:0:0:
475,192,116143,1,0,0:0:0:0:
402,192,116143,1,0,0:0:0:0:
329,192,116212,1,0,0:0:0:0:
256,192,116212,1,0,0:0:0:0:
182,192,116212,1,0,0:0:0:0:
64,192,116282,1,0,0:0:0:0:
448,192,116282,1,0,0:0:0:0:
109,192,116282,1,0,0:0:0:0:
402,192,116282,1,0,0:0:0:0:
192,192,116351,1,0,0:0:0:0:
320,192,116351,1,0,0:0:0:0:
256,192,116351,1,0,0:0:0:0:
448,192,116420,1,0,0:0:0:0:
64,192,116420,1,0,0:0:0:0:
109,192,116420,1,0,0:0:0:0:
402,192,116420,1,0,0:0:0:0:
192,192,116489,1,0,0:0:0:0:
320,192,116489,1,0,0:0:0:0:
256,192,116489,1,0,0:0:0:0:
448,192,116558,1,0,0:0:0:0:
64,192,116558,1,0,0:0:0:0:
109,192,116558,1,0,0:0:0:0:
402,192,116558,1,0,0:0:0:0:
320,192,116696,1,0,0:0:0:0:
192,192,116696,1,0,0:0:0:0:
256,192,116696,1,0,0:0:0:0:
448,192,116835,1,0,0:0:0:0:
64,192,116835,1,0,0:0:0:0:
109,192,116835,1,0,0:0:0:0:
402,192,116835,1,0,0:0:0:0:
64,192,116973,1,0,0:0:0:0:
320,192,116973,1,0,0:0:0:0:
448,192,116973,1,0,0:0:0:0:
402,192,116973,1,0,0:0:0:0:
182,192,116973,1,0,0:0:0:0:
192,192,117249,1,0,0:0:0:0:
402,192,117249,1,0,0:0:0:0:
256,192,117249,1,0,0:0:0:0:
320,192,117388,1,0,0:0:0:0:
192,192,117388,1,0,0:0:0:0:
109,192,117388,1,0,0:0:0:0:
402,192,117388,1,0,0:0:0:0:
475,192,117388,1,0,0:0:0:0:
109,192,117526,1,0,0:0:0:0:
36,192,117526,1,0,0:0:0:0:
256,192,117526,1,0,0:0:0:0:
329,192,117526,1,0,0:0:0:0:
192,192,117802,1,0,0:0:0:0:
109,192,117802,1,0,0:0:0:0:
256,192,117802,1,0,0:0:0:0:
320,192,117941,1,0,0:0:0:0:
64,192,117941,1,0,0:0:0:0:
448,192,117941,1,0,0:0:0:0:
402,192,117941,1,0,0:0:0:0:
182,192,117941,1,0,0:0:0:0:
402,192,118079,1,0,0:0:0:0:
256,192,118079,1,0,0:0:0:0:
192,192,118217,1,0,0:0:0:0:
329,192,118217,1,0,0:0:0:0:
475,192,118217,1,0,0:0:0:0:
402,192,118355,1,0,0:0:0:0:
256,192,118355,1,0,0:0:0:0:
109,192,118355,1,0,0:0:0:0:
36,192,118355,1,0,0:0:0:0:
448,192,118494,1,0,0:0:0:0:
320,192,118494,1,0,0:0:0:0:
109,192,118494,1,0,0:0:0:0:
182,192,118494,1,0,0:0:0:0:
256,192,118494,1,0,0:0:0:0:
402,192,118770,1,0,0:0:0:0:
329,192,118770,1,0,0:0:0:0:
109,192,118770,1,0,0:0:0:0:
192,192,118908,1,0,0:0:0:0:
256,192,118908,1,0,0:0:0:0:
475,192,118908,1,0,0:0:0:0:
320,192,119047,1,0,0:0:0:0:
402,192,119047,1,0,0:0:0:0:
182,192,119047,1,0,0:0:0:0:
109,192,119047,1,0,0:0:0:0:
448,192,119185,1,0,0:0:0:0:
64,192,119185,1,0,0:0:0:0:
192,192,119185,1,0,0:0:0:0:
256,192,119185,1,0,0:0:0:0:
402,192,119185,1,0,0:0:0:0:
192,192,119461,1,0,0:0:0:0:
256,192,119461,1,0,0:0:0:0:
402,192,119461,1,0,0:0:0:0:
192,192,119600,1,0,0:0:0:0:
320,192,119600,1,0,0:0:0:0:
256,192,119600,1,0,0:0:0:0:
36,192,119600,1,0,0:0:0:0:
475,192,119600,1,0,0:0:0:0:
109,192,119738,1,0,0:0:0:0:
182,192,119738,1,0,0:0:0:0:
402,192,119738,1,0,0:0:0:0:
329,192,119738,1,0,0:0:0:0:
192,192,120014,1,0,0:0:0:0:
109,192,120014,1,0,0:0:0:0:
256,192,120014,1,0,0:0:0:0:
448,192,120153,1,0,0:0:0:0:
320,192,120153,1,0,0:0:0:0:
109,192,120153,1,0,0:0:0:0:
36,192,120153,1,0,0:0:0:0:
256,192,120153,1,0,0:0:0:0:
192,192,120291,1,0,0:0:0:0:
256,192,120291,1,0,0:0:0:0:
448,192,120429,1,0,0:0:0:0:
320,192,120429,1,0,0:0:0:0:
402,192,120429,1,0,0:0:0:0:
192,192,120567,1,0,0:0:0:0:
256,192,120567,1,0,0:0:0:0:
329,192,120567,1,0,0:0:0:0:
109,192,120567,1,0,0:0:0:0:
448,192,120705,1,0,0:0:0:0:
64,192,120705,1,0,0:0:0:0:
402,192,120705,1,0,0:0:0:0:
256,192,120705,1,0,0:0:0:0:
329,192,120705,1,0,0:0:0:0:
402,192,120982,1,0,0:0:0:0:
329,192,120982,1,0,0:0:0:0:
109,192,120982,1,0,0:0:0:0:
192,192,121120,1,0,0:0:0:0:
448,192,121120,1,0,0:0:0:0:
256,192,121120,1,0,0:0:0:0:
448,192,121258,1,0,0:0:0:0:
64,192,121258,1,0,0:0:0:0:
402,192,121258,1,0,0:0:0:0:
109,192,121258,1,0,0:0:0:0:
64,192,121397,1,0,0:0:0:0:
192,192,121397,1,0,0:0:0:0:
448,192,121397,1,0,0:0:0:0:
256,192,121397,1,0,0:0:0:0:
329,192,121397,1,0,0:0:0:0:
192,192,121673,1,0,0:0:0:0:
256,192,121673,1,0,0:0:0:0:
329,192,121673,1,0,0:0:0:0:
64,192,121811,1,0,0:0:0:0:
448,192,121811,1,0,0:0:0:0:
109,192,121811,1,0,0:0:0:0:
256,192,121811,1,0,0:0:0:0:
402,192,121811,1,0,0:0:0:0:
402,192,121950,1,0,0:0:0:0:
329,192,121950,1,0,0:0:0:0:
109,192,121950,1,0,0:0:0:0:
182,192,121950,1,0,0:0:0:0:
192,192,122226,1,0,0:0:0:0:
329,192,122226,1,0,0:0:0:0:
475,192,122226,1,0,0:0:0:0:
64,192,122364,1,0,0:0:0:0:
402,192,122364,1,0,0:0:0:0:
256,192,122364,1,0,0:0:0:0:
109,192,122364,1,0,0:0:0:0:
475,192,122364,1,0,0:0:0:0:
192,192,122503,1,0,0:0:0:0:
329,192,122503,1,0,0:0:0:0:
109,192,122641,1,0,0:0:0:0:
256,192,122641,1,0,0:0:0:0:
402,192,122641,1,0,0:0:0:0:
320,192,122779,1,0,0:0:0:0:
192,192,122779,1,0,0:0:0:0:
36,192,122779,1,0,0:0:0:0:
475,192,122779,1,0,0:0:0:0:
448,192,122917,1,0,0:0:0:0:
109,192,122917,1,0,0:0:0:0:
36,192,122917,1,0,0:0:0:0:
256,192,122917,1,0,0:0:0:0:
402,192,122917,1,0,0:0:0:0:
329,192,123056,1,0,0:0:0:0:
182,192,123056,1,0,0:0:0:0:
64,192,123194,1,0,0:0:0:0:
192,192,123194,1,0,0:0:0:0:
320,192,123194,1,0,0:0:0:0:
448,192,123194,1,0,0:0:0:0:
109,192,123194,1,0,0:0:0:0:
402,192,123194,1,0,0:0:0:0:
36,192,123332,1,0,0:0:0:0:
475,192,123332,1,0,0:0:0:0:
64,192,123470,1,0,0:0:0:0:
320,192,123470,1,0,0:0:0:0:
192,192,123470,1,0,0:0:0:0:
448,192,123470,1,0,0:0:0:0:
109,192,123470,1,0,0:0:0:0:
402,192,123470,1,0,0:0:0:0:
109,192,123609,1,0,0:0:0:0:
402,192,123609,1,0,0:0:0:0:
64,192,123747,1,0,0:0:0:0:
192,192,123747,1,0,0:0:0:0:
320,192,123747,1,0,0:0:0:0:
448,192,123747,1,0,0:0:0:0:
109,192,123747,1,0,0:0:0:0:
402,192,123747,1,0,0:0:0:0:
448,192,123885,1,0,0:0:0:0:
182,192,123885,1,0,0:0:0:0:
448,192,124023,1,0,0:0:0:0:
320,192,124023,1,0,0:0:0:0:
64,192,124023,1,0,0:0:0:0:
192,192,124023,1,0,0:0:0:0:
402,192,124023,1,0,0:0:0:0:
109,192,124023,1,0,0:0:0:0:
329,192,124162,1,0,0:0:0:0:
36,192,124162,1,0,0:0:0:0:
448,192,124300,1,0,0:0:0:0:
320,192,124300,1,0,0:0:0:0:
64,192,124300,1,0,0:0:0:0:
192,192,124300,1,0,0:0:0:0:
109,192,124300,1,0,0:0:0:0:
402,192,124300,1,0,0:0:0:0:
109,192,124438,1,0,0:0:0:0:
402,192,124438,1,0,0:0:0:0:
64,192,124576,1,0,0:0:0:0:
192,192,124576,1,0,0:0:0:0:
320,192,124576,1,0,0:0:0:0:
448,192,124576,1,0,0:0:0:0:
109,192,124576,1,0,0:0:0:0:
402,192,124576,1,0,0:0:0:0:
448,192,124715,1,0,0:0:0:0:
36,192,124715,1,0,0:0:0:0:
182,192,124715,1,0,0:0:0:0:
402,192,124715,1,0,0:0:0:0:
109,192,124784,1,0,0:0:0:0:
256,192,124784,1,0,0:0:0:0:
64,192,124853,1,0,0:0:0:0:
448,192,124853,1,0,0:0:0:0:
329,192,124853,1,0,0:0:0:0:
402,192,124853,1,0,0:0:0:0:
256,192,124922,1,0,0:0:0:0:
182,192,124922,1,0,0:0:0:0:
64,192,124991,1,0,0:0:0:0:
448,192,124991,1,0,0:0:0:0:
109,192,124991,1,0,0:0:0:0:
402,192,124991,1,0,0:0:0:0:
192,192,125060,1,0,0:0:0:0:
329,192,125060,1,0,0:0:0:0:
448,192,125129,1,0,0:0:0:0:
64,192,125129,1,0,0:0:0:0:
402,192,125129,1,0,0:0:0:0:
109,192,125129,1,0,0:0:0:0:
182,192,125199,1,0,0:0:0:0:
256,192,125199,1,0,0:0:0:0:
64,192,125268,1,0,0:0:0:0:
475,192,125268,1,0,0:0:0:0:
109,192,125268,1,0,0:0:0:0:
329,192,125268,1,0,0:0:0:0:
402,192,125337,1,0,0:0:0:0:
182,192,125337,1,0,0:0:0:0:
320,192,125406,1,0,0:0:0:0:
64,192,125406,1,0,0:0:0:0:
256,192,125406,1,0,0:0:0:0:
475,192,125406,1,0,0:0:0:0:
109,192,125406,1,0,0:0:0:0:
256,192,125682,1,0,0:0:0:0:
109,192,125682,1,0,0:0:0:0:
402,192,125682,1,0,0:0:0:0:
192,192,125821,1,0,0:0:0:0:
448,192,125821,1,0,0:0:0:0:
329,192,125821,1,0,0:0:0:0:
448,192,125959,1,0,0:0:0:0:
320,192,125959,1,0,0:0:0:0:
64,192,125959,1,0,0:0:0:0:
109,192,125959,1,0,0:0:0:0:
256,192,125959,1,0,0:0:0:0:
192,192,126097,1,0,0:0:0:0:
402,192,126097,1,0,0:0:0:0:
109,192,126097,1,0,0:0:0:0:
256,192,126097,1,0,0:0:0:0:
256,192,126374,128,0,127065:0:0:0:0:
329,192,126374,1,0,0:0:0:0:
109,192,126374,1,0,0:0:0:0:
320,192,126650,1,0,0:0:0:0:
192,192,126650,1,0,0:0:0:0:
402,192,126650,1,0,0:0:0:0:
64,192,126788,1,0,0:0:0:0:
109,192,126788,1,0,0:0:0:0:
475,192,126788,1,0,0:0:0:0:
64,192,127065,1,0,0:0:0:0:
320,192,127065,1,0,0:0:0:0:
192,192,127065,1,0,0:0:0:0:
475,192,127065,1,0,0:0:0:0:
320,192,127341,1,0,0:0:0:0:
182,192,127341,1,0,0:0:0:0:
256,192,127341,1,0,0:0:0:0:
109,192,127618,1,0,0:0:0:0:
475,192,127618,1,0,0:0:0:0:
36,192,127618,1,0,0:0:0:0:
402,192,127756,1,0,0:0:0:0:
329,192,127756,1,0,0:0:0:0:
182,192,127756,1,0,0:0:0:0:
448,192,127894,1,0,0:0:0:0:
256,192,127894,1,0,0:0:0:0:
36,192,127894,1,0,0:0:0:0:
192,192,128033,1,0,0:0:0:0:
448,192,128033,1,0,0:0:0:0:
109,192,128033,1,0,0:0:0:0:
64,192,128171,1,0,0:0:0:0:
320,192,128171,1,0,0:0:0:0:
475,192,128171,1,0,0:0:0:0:
402,192,128171,1,0,0:0:0:0:
109,192,128171,1,0,0:0:0:0:
448,192,128309,1,0,0:0:0:0:
192,192,128309,1,0,0:0:0:0:
256,192,128309,1,0,0:0:0:0:
329,192,128309,1,0,0:0:0:0:
402,192,128586,128,0,129277:0:0:0:0:
182,192,128586,1,0,0:0:0:0:
109,192,128586,1,0,0:0:0:0:
320,192,128862,1,0,0:0:0:0:
192,192,128862,1,0,0:0:0:0:
256,192,128862,1,0,0:0:0:0:
448,192,129000,1,0,0:0:0:0:
109,192,129000,1,0,0:0:0:0:
36,192,129000,1,0,0:0:0:0:
448,192,129277,1,0,0:0:0:0:
320,192,129277,1,0,0:0:0:0:
182,192,129277,1,0,0:0:0:0:
36,192,129277,1,0,0:0:0:0:
192,192,129553,1,0,0:0:0:0:
109,192,129553,128,0,129830:0:0:0:0:
256,192,129553,1,0,0:0:0:0:
320,192,129830,1,0,0:0:0:0:
64,192,129830,1,0,0:0:0:0:
402,192,129830,1,0,0:0:0:0:
475,192,129830,1,0,0:0:0:0:
448,192,130106,1,0,0:0:0:0:
402,192,130106,1,0,0:0:0:0:
329,192,130106,1,0,0:0:0:0:
402,192,130245,1,0,0:0:0:0:
256,192,130245,1,0,0:0:0:0:
329,192,130245,1,0,0:0:0:0:
192,192,130383,1,0,0:0:0:0:
256,192,130383,1,0,0:0:0:0:
109,192,130383,1,0,0:0:0:0:
64,192,130521,1,0,0:0:0:0:
182,192,130521,1,0,0:0:0:0:
109,192,130521,1,0,0:0:0:0:
475,192,130659,1,0,0:0:0:0:
402,192,130659,1,0,0:0:0:0:
256,192,130659,1,0,0:0:0:0:
402,192,130798,1,0,0:0:0:0:
329,192,130798,1,0,0:0:0:0:
182,192,130798,1,0,0:0:0:0:
329,192,130936,1,0,0:0:0:0:
256,192,130936,1,0,0:0:0:0:
109,192,130936,1,0,0:0:0:0:
192,192,131074,1,0,0:0:0:0:
256,192,131074,1,0,0:0:0:0:
36,192,131074,1,0,0:0:0:0:
182,192,131212,1,0,0:0:0:0:
109,192,131212,1,0,0:0:0:0:
329,192,131212,1,0,0:0:0:0:
182,192,131351,1,0,0:0:0:0:
256,192,131351,1,0,0:0:0:0:
402,192,131351,1,0,0:0:0:0:
256,192,131489,1,0,0:0:0:0:
329,192,131489,1,0,0:0:0:0:
475,192,131489,1,0,0:0:0:0:
402,192,131627,1,0,0:0:0:0:
475,192,131627,1,0,0:0:0:0:
329,192,131627,1,0,0:0:0:0:
64,192,131765,128,0,131904:0:0:0:0:
182,192,131765,128,0,131904:0:0:0:0:
329,192,131765,128,0,131904:0:0:0:0:
109,192,131765,1,0,0:0:0:0:
256,192,131765,1,0,0:0:0:0:
402,192,131904,1,0,0:0:0:0:
475,192,131904,1,0,0:0:0:0:
64,192,132180,1,0,0:0:0:0:
109,192,132180,1,0,0:0:0:0:
256,192,132180,1,0,0:0:0:0:
402,192,132180,1,0,0:0:0:0:
475,192,132180,1,0,0:0:0:0:
192,192,132318,1,0,0:0:0:0:
320,192,132318,1,0,0:0:0:0:
256,192,132318,1,0,0:0:0:0:
402,192,132318,1,0,0:0:0:0:
109,192,132318,1,0,0:0:0:0:
320,192,132595,1,0,0:0:0:0:
192,192,132595,1,0,0:0:0:0:
402,192,132595,1,0,0:0:0:0:
256,192,132595,1,0,0:0:0:0:
109,192,132595,1,0,0:0:0:0:
109,192,132733,1,0,0:0:0:0:
36,192,132733,1,0,0:0:0:0:
182,192,132733,1,0,0:0:0:0:
402,192,132733,1,0,0:0:0:0:
475,192,132733,1,0,0:0:0:0:
64,192,133010,1,0,0:0:0:0:
109,192,133010,1,0,0:0:0:0:
329,192,133010,1,0,0:0:0:0:
402,192,133010,1,0,0:0:0:0:
475,192,133010,1,0,0:0:0:0:
448,192,133286,1,0,0:0:0:0:
64,192,133286,1,0,0:0:0:0:
256,192,133286,1,0,0:0:0:0:
182,192,133286,1,0,0:0:0:0:
329,192,133286,1,0,0:0:0:0:
64,192,133424,1,0,0:0:0:0:
192,192,133424,1,0,0:0:0:0:
109,192,133424,1,0,0:0:0:0:
329,192,133424,1,0,0:0:0:0:
448,192,133494,1,0,0:0:0:0:
402,192,133494,1,0,0:0:0:0:
192,192,133563,1,0,0:0:0:0:
64,192,133563,1,0,0:0:0:0:
109,192,133563,1,0,0:0:0:0:
256,192,133563,1,0,0:0:0:0:
320,192,133632,1,0,0:0:0:0:
475,192,133632,1,0,0:0:0:0:
64,192,133701,1,0,0:0:0:0:
192,192,133701,1,0,0:0:0:0:
402,192,133701,1,0,0:0:0:0:
109,192,133701,1,0,0:0:0:0:
256,192,133770,1,0,0:0:0:0:
329,192,133770,1,0,0:0:0:0:
64,192,133839,1,0,0:0:0:0:
448,192,133839,1,0,0:0:0:0:
402,192,133839,1,0,0:0:0:0:
109,192,133839,1,0,0:0:0:0:
192,192,133908,1,0,0:0:0:0:
256,192,133908,1,0,0:0:0:0:
64,192,133977,1,0,0:0:0:0:
448,192,133977,1,0,0:0:0:0:
402,192,133977,1,0,0:0:0:0:
329,192,133977,1,0,0:0:0:0:
109,192,134047,1,0,0:0:0:0:
182,192,134047,1,0,0:0:0:0:
448,192,134116,1,0,0:0:0:0:
320,192,134116,1,0,0:0:0:0:
256,192,134116,1,0,0:0:0:0:
402,192,134116,1,0,0:0:0:0:
182,192,134185,1,0,0:0:0:0:
36,192,134185,1,0,0:0:0:0:
448,192,134254,1,0,0:0:0:0:
109,192,134254,1,0,0:0:0:0:
256,192,134254,1,0,0:0:0:0:
402,192,134254,1,0,0:0:0:0:
329,192,134254,1,0,0:0:0:0:
64,192,135222,1,0,0:0:0:0:
448,192,135222,1,0,0:0:0:0:
329,192,135222,1,0,0:0:0:0:
256,192,135222,1,0,0:0:0:0:
182,192,135222,1,0,0:0:0:0:
192,192,135498,1,0,0:0:0:0:
109,192,135498,1,0,0:0:0:0:
329,192,135498,1,0,0:0:0:0:
64,192,135636,1,0,0:0:0:0:
320,192,135636,1,0,0:0:0:0:
448,192,135636,1,0,0:0:0:0:
256,192,135636,1,0,0:0:0:0:
109,192,135636,1,0,0:0:0:0:
192,192,135775,1,0,0:0:0:0:
109,192,135775,1,0,0:0:0:0:
329,192,135775,1,0,0:0:0:0:
448,192,135913,1,0,0:0:0:0:
192,192,135913,1,0,0:0:0:0:
402,192,135913,1,0,0:0:0:0:
256,192,135913,1,0,0:0:0:0:
36,192,135913,1,0,0:0:0:0:
448,192,136051,1,0,0:0:0:0:
109,192,136051,1,0,0:0:0:0:
182,192,136051,1,0,0:0:0:0:
320,192,136189,1,0,0:0:0:0:
64,192,136189,1,0,0:0:0:0:
256,192,136189,1,0,0:0:0:0:
402,192,136189,1,0,0:0:0:0:
475,192,136189,1,0,0:0:0:0:
64,192,136328,1,0,0:0:0:0:
182,192,136328,1,0,0:0:0:0:
109,192,136328,1,0,0:0:0:0:
320,192,136466,1,0,0:0:0:0:
448,192,136466,1,0,0:0:0:0:
109,192,136466,1,0,0:0:0:0:
182,192,136466,1,0,0:0:0:0:
402,192,136466,1,0,0:0:0:0:
448,192,136742,1,0,0:0:0:0:
64,192,136742,1,0,0:0:0:0:
192,192,136742,1,0,0:0:0:0:
109,192,136742,1,0,0:0:0:0:
402,192,136742,1,0,0:0:0:0:
329,192,136742,1,0,0:0:0:0:
192,192,136881,1,0,0:0:0:0:
320,192,136881,1,0,0:0:0:0:
256,192,136881,1,0,0:0:0:0:
402,192,136881,1,0,0:0:0:0:
109,192,136881,1,0,0:0:0:0:
448,192,137157,1,0,0:0:0:0:
402,192,137157,1,0,0:0:0:0:
182,192,137157,1,0,0:0:0:0:
64,192,137295,1,0,0:0:0:0:
109,192,137295,1,0,0:0:0:0:
329,192,137295,1,0,0:0:0:0:
448,192,137434,1,0,0:0:0:0:
36,192,137434,1,0,0:0:0:0:
182,192,137434,1,0,0:0:0:0:
256,192,137434,1,0,0:0:0:0:
402,192,137434,1,0,0:0:0:0:
192,192,137710,1,0,0:0:0:0:
109,192,137710,1,0,0:0:0:0:
402,192,137710,1,0,0:0:0:0:
320,192,137848,1,0,0:0:0:0:
64,192,137848,1,0,0:0:0:0:
256,192,137848,1,0,0:0:0:0:
109,192,137848,1,0,0:0:0:0:
402,192,137848,1,0,0:0:0:0:
192,192,137987,1,0,0:0:0:0:
329,192,137987,1,0,0:0:0:0:
109,192,137987,1,0,0:0:0:0:
320,192,138125,1,0,0:0:0:0:
448,192,138125,1,0,0:0:0:0:
256,192,138125,1,0,0:0:0:0:
402,192,138125,1,0,0:0:0:0:
182,192,138125,1,0,0:0:0:0:
64,192,138263,1,0,0:0:0:0:
109,192,138263,1,0,0:0:0:0:
329,192,138263,1,0,0:0:0:0:
320,192,138401,1,0,0:0:0:0:
256,192,138401,1,0,0:0:0:0:
182,192,138401,1,0,0:0:0:0:
109,192,138401,1,0,0:0:0:0:
475,192,138401,1,0,0:0:0:0:
192,192,138540,1,0,0:0:0:0:
256,192,138540,1,0,0:0:0:0:
402,192,138540,1,0,0:0:0:0:
64,192,138678,1,0,0:0:0:0:
109,192,138678,1,0,0:0:0:0:
182,192,138678,1,0,0:0:0:0:
329,192,138678,1,0,0:0:0:0:
402,192,138678,1,0,0:0:0:0:
192,192,138954,1,0,0:0:0:0:
64,192,138954,1,0,0:0:0:0:
109,192,138954,1,0,0:0:0:0:
402,192,138954,1,0,0:0:0:0:
329,192,138954,1,0,0:0:0:0:
256,192,138954,1,0,0:0:0:0:
320,192,139093,1,0,0:0:0:0:
448,192,139093,1,0,0:0:0:0:
402,192,139093,1,0,0:0:0:0:
182,192,139093,1,0,0:0:0:0:
256,192,139093,1,0,0:0:0:0:
64,192,139369,1,0,0:0:0:0:
182,192,139369,1,0,0:0:0:0:
329,192,139369,1,0,0:0:0:0:
109,192,139507,1,0,0:0:0:0:
256,192,139507,1,0,0:0:0:0:
402,192,139507,1,0,0:0:0:0:
320,192,139646,1,0,0:0:0:0:
64,192,139646,1,0,0:0:0:0:
192,192,139646,1,0,0:0:0:0:
475,192,139646,1,0,0:0:0:0:
256,192,139646,1,0,0:0:0:0:
448,192,139922,1,0,0:0:0:0:
402,192,139922,1,0,0:0:0:0:
329,192,139922,1,0,0:0:0:0:
64,192,140060,1,0,0:0:0:0:
109,192,140060,1,0,0:0:0:0:
182,192,140060,1,0,0:0:0:0:
192,192,140337,1,0,0:0:0:0:
64,192,140337,1,0,0:0:0:0:
109,192,140337,1,0,0:0:0:0:
256,192,140337,1,0,0:0:0:0:
402,192,140337,1,0,0:0:0:0:
320,192,140613,1,0,0:0:0:0:
448,192,140613,1,0,0:0:0:0:
109,192,140613,1,0,0:0:0:0:
402,192,140613,1,0,0:0:0:0:
256,192,140613,1,0,0:0:0:0:
448,192,140890,1,0,0:0:0:0:
402,192,140890,1,0,0:0:0:0:
36,192,140890,1,0,0:0:0:0:
109,192,140890,1,0,0:0:0:0:
256,192,140890,1,0,0:0:0:0:
192,192,141166,1,0,0:0:0:0:
64,192,141166,1,0,0:0:0:0:
109,192,141166,1,0,0:0:0:0:
475,192,141166,1,0,0:0:0:0:
402,192,141166,1,0,0:0:0:0:
448,192,141305,1,0,0:0:0:0:
192,192,141305,1,0,0:0:0:0:
256,192,141305,1,0,0:0:0:0:
402,192,141305,1,0,0:0:0:0:
36,192,141305,1,0,0:0:0:0:
448,192,141581,1,0,0:0:0:0:
64,192,141581,1,0,0:0:0:0:
182,192,141581,1,0,0:0:0:0:
329,192,141581,1,0,0:0:0:0:
192,192,141858,1,0,0:0:0:0:
256,192,141858,128,0,142549:0:0:0:0:
109,192,141858,1,0,0:0:0:0:
329,192,141858,1,0,0:0:0:0:
192,192,142134,1,0,0:0:0:0:
64,192,142134,1,0,0:0:0:0:
109,192,142134,1,0,0:0:0:0:
320,192,142272,1,0,0:0:0:0:
475,192,142272,1,0,0:0:0:0:
402,192,142272,1,0,0:0:0:0:
64,192,142549,1,0,0:0:0:0:
109,192,142549,1,0,0:0:0:0:
402,192,142549,1,0,0:0:0:0:
475,192,142549,1,0,0:0:0:0:
192,192,142687,1,0,0:0:0:0:
256,192,142687,1,0,0:0:0:0:
64,192,142825,1,0,0:0:0:0:
192,192,142825,1,0,0:0:0:0:
448,192,142825,1,0,0:0:0:0:
109,192,142825,1,0,0:0:0:0:
402,192,142825,1,0,0:0:0:0:
448,192,142964,1,0,0:0:0:0:
402,192,142964,1,0,0:0:0:0:
320,192,143102,1,0,0:0:0:0:
192,192,143102,1,0,0:0:0:0:
448,192,143102,1,0,0:0:0:0:
402,192,143102,1,0,0:0:0:0:
109,192,143102,1,0,0:0:0:0:
256,192,143102,1,0,0:0:0:0:
182,192,143240,1,0,0:0:0:0:
109,192,143240,1,0,0:0:0:0:
64,192,143378,1,0,0:0:0:0:
192,192,143378,1,0,0:0:0:0:
320,192,143378,1,0,0:0:0:0:
109,192,143378,1,0,0:0:0:0:
256,192,143378,1,0,0:0:0:0:
402,192,143378,1,0,0:0:0:0:
402,192,143517,1,0,0:0:0:0:
329,192,143517,1,0,0:0:0:0:
448,192,143655,1,0,0:0:0:0:
402,192,143655,1,0,0:0:0:0:
329,192,143655,1,0,0:0:0:0:
36,192,143655,1,0,0:0:0:0:
192,192,143724,1,0,0:0:0:0:
109,192,143724,1,0,0:0:0:0:
256,192,143724,1,0,0:0:0:0:
64,192,143793,1,0,0:0:0:0:
448,192,143793,1,0,0:0:0:0:
329,192,143793,1,0,0:0:0:0:
402,192,143793,1,0,0:0:0:0:
256,192,143862,1,0,0:0:0:0:
182,192,143862,1,0,0:0:0:0:
109,192,143862,1,0,0:0:0:0:
64,192,143931,1,0,0:0:0:0:
448,192,143931,1,0,0:0:0:0:
329,192,143931,1,0,0:0:0:0:
402,192,143931,1,0,0:0:0:0:
448,192,144070,1,0,0:0:0:0:
64,192,144070,1,0,0:0:0:0:
109,192,144070,1,0,0:0:0:0:
402,192,144070,1,0,0:0:0:0:
256,192,144070,1,0,0:0:0:0:
256,192,144346,1,0,0:0:0:0:
182,192,144346,1,0,0:0:0:0:
36,192,144346,1,0,0:0:0:0:
448,192,144484,1,0,0:0:0:0:
109,192,144484,1,0,0:0:0:0:
36,192,144484,1,0,0:0:0:0:
402,192,144484,1,0,0:0:0:0:
329,192,144484,1,0,0:0:0:0:
320,192,144623,1,0,0:0:0:0:
192,192,144623,1,0,0:0:0:0:
256,192,144623,1,0,0:0:0:0:
448,192,144761,1,0,0:0:0:0:
64,192,144761,1,0,0:0:0:0:
192,192,144761,1,0,0:0:0:0:
402,192,144761,1,0,0:0:0:0:
109,192,144761,1,0,0:0:0:0:
402,192,144899,1,0,0:0:0:0:
329,192,144899,1,0,0:0:0:0:
109,192,144899,1,0,0:0:0:0:
329,192,145037,1,0,0:0:0:0:
402,192,145037,1,0,0:0:0:0:
475,192,145037,1,0,0:0:0:0:
182,192,145037,1,0,0:0:0:0:
36,192,145037,1,0,0:0:0:0:
182,192,145176,1,0,0:0:0:0:
109,192,145176,1,0,0:0:0:0:
329,192,145176,1,0,0:0:0:0:
448,192,145314,1,0,0:0:0:0:
36,192,145314,1,0,0:0:0:0:
109,192,145314,1,0,0:0:0:0:
402,192,145314,1,0,0:0:0:0:
256,192,145314,1,0,0:0:0:0:
320,192,145590,1,0,0:0:0:0:
64,192,145590,1,0,0:0:0:0:
109,192,145590,1,0,0:0:0:0:
402,192,145590,1,0,0:0:0:0:
475,192,145590,1,0,0:0:0:0:
256,192,145590,1,0,0:0:0:0:
448,192,145729,1,0,0:0:0:0:
320,192,145729,1,0,0:0:0:0:
109,192,145729,1,0,0:0:0:0:
182,192,145729,1,0,0:0:0:0:
402,192,145729,1,0,0:0:0:0:
109,192,146005,1,0,0:0:0:0:
182,192,146005,1,0,0:0:0:0:
329,192,146005,1,0,0:0:0:0:
182,192,146143,1,0,0:0:0:0:
256,192,146143,1,0,0:0:0:0:
402,192,146143,1,0,0:0:0:0:
448,192,146282,1,0,0:0:0:0:
402,192,146282,1,0,0:0:0:0:
36,192,146282,1,0,0:0:0:0:
329,192,146282,1,0,0:0:0:0:
182,192,146282,1,0,0:0:0:0:
109,192,146558,1,0,0:0:0:0:
256,192,146558,1,0,0:0:0:0:
402,192,146558,1,0,0:0:0:0:
64,192,146696,1,0,0:0:0:0:
192,192,146696,1,0,0:0:0:0:
448,192,146696,1,0,0:0:0:0:
402,192,146696,1,0,0:0:0:0:
109,192,146696,1,0,0:0:0:0:
320,192,146835,1,0,0:0:0:0:
192,192,146835,1,0,0:0:0:0:
475,192,146835,1,0,0:0:0:0:
448,192,146973,1,0,0:0:0:0:
192,192,146973,1,0,0:0:0:0:
402,192,146973,1,0,0:0:0:0:
109,192,146973,1,0,0:0:0:0:
256,192,146973,1,0,0:0:0:0:
320,192,147111,1,0,0:0:0:0:
64,192,147111,1,0,0:0:0:0:
182,192,147111,1,0,0:0:0:0:
192,192,147249,1,0,0:0:0:0:
448,192,147249,1,0,0:0:0:0:
109,192,147249,1,0,0:0:0:0:
256,192,147249,1,0,0:0:0:0:
402,192,147249,1,0,0:0:0:0:
64,192,147526,1,0,0:0:0:0:
192,192,147526,1,0,0:0:0:0:
320,192,147526,1,0,0:0:0:0:
109,192,147526,1,0,0:0:0:0:
256,192,147526,1,0,0:0:0:0:
402,192,147526,1,0,0:0:0:0:
448,192,147664,1,0,0:0:0:0:
320,192,147664,1,0,0:0:0:0:
402,192,147664,1,0,0:0:0:0:
182,192,147664,1,0,0:0:0:0:
109,192,147664,1,0,0:0:0:0:
320,192,147941,1,0,0:0:0:0:
448,192,147941,1,0,0:0:0:0:
402,192,147941,1,0,0:0:0:0:
182,192,147941,1,0,0:0:0:0:
36,192,147941,1,0,0:0:0:0:
64,192,148217,1,0,0:0:0:0:
109,192,148217,1,0,0:0:0:0:
256,192,148217,1,0,0:0:0:0:
329,192,148217,1,0,0:0:0:0:
182,192,148355,1,0,0:0:0:0:
475,192,148355,1,0,0:0:0:0:
402,192,148355,1,0,0:0:0:0:
256,192,148355,1,0,0:0:0:0:
192,192,148632,1,0,0:0:0:0:
64,192,148632,128,0,149047:0:0:0:0:
256,192,148632,1,0,0:0:0:0:
109,192,148632,1,0,0:0:0:0:
448,192,148908,1,0,0:0:0:0:
256,192,148908,1,0,0:0:0:0:
402,192,148908,1,0,0:0:0:0:
192,192,149047,1,0,0:0:0:0:
320,192,149047,128,0,149461:0:0:0:0:
109,192,149047,1,0,0:0:0:0:
192,192,149323,1,0,0:0:0:0:
64,192,149323,1,0,0:0:0:0:
109,192,149323,1,0,0:0:0:0:
448,192,149461,128,0,149738:0:0:0:0:
256,192,149461,1,0,0:0:0:0:
402,192,149461,1,0,0:0:0:0:
192,192,149738,128,0,150153:0:0:0:0:
256,192,149738,1,0,0:0:0:0:
36,192,149738,1,0,0:0:0:0:
448,192,150014,1,0,0:0:0:0:
320,192,150014,1,0,0:0:0:0:
109,192,150014,1,0,0:0:0:0:
64,192,150153,128,0,150567:0:0:0:0:
256,192,150153,1,0,0:0:0:0:
402,192,150153,1,0,0:0:0:0:
448,192,150429,1,0,0:0:0:0:
320,192,150429,1,0,0:0:0:0:
402,192,150429,1,0,0:0:0:0:
192,192,150567,1,0,0:0:0:0:
256,192,150567,1,0,0:0:0:0:
109,192,150567,1,0,0:0:0:0:
109,192,150705,1,0,0:0:0:0:
182,192,150705,1,0,0:0:0:0:
320,192,150844,1,0,0:0:0:0:
192,192,150844,1,0,0:0:0:0:
64,192,150844,1,0,0:0:0:0:
448,192,150844,1,0,0:0:0:0:
109,192,150844,1,0,0:0:0:0:
256,192,150844,1,0,0:0:0:0:
192,192,150982,1,0,0:0:0:0:
256,192,150982,1,0,0:0:0:0:
448,192,151120,1,0,0:0:0:0:
320,192,151120,1,0,0:0:0:0:
192,192,151120,1,0,0:0:0:0:
256,192,151120,1,0,0:0:0:0:
402,192,151120,1,0,0:0:0:0:
109,192,151120,1,0,0:0:0:0:
320,192,151258,1,0,0:0:0:0:
256,192,151258,1,0,0:0:0:0:
64,192,151397,1,0,0:0:0:0:
448,192,151397,1,0,0:0:0:0:
402,192,151397,1,0,0:0:0:0:
329,192,151397,1,0,0:0:0:0:
256,192,151397,1,0,0:0:0:0:
182,192,151397,1,0,0:0:0:0:
320,192,151535,1,0,0:0:0:0:
402,192,151535,1,0,0:0:0:0:
64,192,151673,1,0,0:0:0:0:
192,192,151673,1,0,0:0:0:0:
448,192,151673,1,0,0:0:0:0:
109,192,151673,1,0,0:0:0:0:
329,192,151673,1,0,0:0:0:0:
402,192,151673,1,0,0:0:0:0:
448,192,151811,1,0,0:0:0:0:
402,192,151811,1,0,0:0:0:0:
448,192,151950,1,0,0:0:0:0:
320,192,151950,1,0,0:0:0:0:
64,192,151950,128,0,152987:0:0:0:0:
192,192,151950,128,0,152987:0:0:0:0:
402,192,151950,1,0,0:0:0:0:
109,192,151950,128,0,152987:0:0:0:0:
320,192,152503,128,0,152987:0:0:0:0:
448,192,152503,128,0,152987:0:0:0:0:
402,192,152503,128,0,152987:0:0:0:0:
320,192,153056,1,0,0:0:0:0:
64,192,153056,128,0,154715:0:0:0:0:
182,192,153056,1,0,0:0:0:0:
109,192,153056,1,0,0:0:0:0:
402,192,153056,1,0,0:0:0:0:
475,192,153056,128,0,154715:0:0:0:0:
320,192,153332,128,0,153470:0:0:0:0:
402,192,153332,128,0,153470:0:0:0:0:
192,192,153470,128,0,153609:0:0:0:0:
109,192,153470,128,0,153609:0:0:0:0:
256,192,153609,128,0,153747:0:0:0:0:
329,192,153609,128,0,153747:0:0:0:0:
182,192,153747,1,0,0:0:0:0:
402,192,153747,1,0,0:0:0:0:
192,192,154023,1,0,0:0:0:0:
256,192,154023,1,0,0:0:0:0:
329,192,154023,1,0,0:0:0:0:
320,192,154300,1,0,0:0:0:0:
192,192,154300,128,0,154438:0:0:0:0:
256,192,154300,128,0,154438:0:0:0:0:
402,192,154438,128,0,154576:0:0:0:0:
329,192,154438,128,0,154576:0:0:0:0:
109,192,154576,128,0,154715:0:0:0:0:
256,192,154576,128,0,154715:0:0:0:0:
402,192,154715,128,0,154853:0:0:0:0:
182,192,154715,128,0,154853:0:0:0:0:
320,192,154853,1,0,0:0:0:0:
256,192,154853,1,0,0:0:0:0:
256,192,155129,1,0,0:0:0:0:
109,192,155129,1,0,0:0:0:0:
402,192,155129,1,0,0:0:0:0:
256,192,155406,128,0,155544:0:0:0:0:
109,192,155406,128,0,155544:0:0:0:0:
182,192,155544,128,0,155682:0:0:0:0:
329,192,155544,128,0,155682:0:0:0:0:
448,192,155682,128,0,155821:0:0:0:0:
402,192,155682,128,0,155821:0:0:0:0:
64,192,155821,128,0,155959:0:0:0:0:
109,192,155821,128,0,155959:0:0:0:0:
256,192,155821,128,0,155959:0:0:0:0:
402,192,155959,1,0,0:0:0:0:
329,192,155959,1,0,0:0:0:0:
192,192,156235,128,0,156374:0:0:0:0:
475,192,156235,128,0,156374:0:0:0:0:
64,192,156374,128,0,156512:0:0:0:0:
402,192,156374,128,0,156512:0:0:0:0:
320,192,156512,128,0,156650:0:0:0:0:
109,192,156512,128,0,156650:0:0:0:0:
192,192,156650,128,0,156788:0:0:0:0:
256,192,156650,128,0,156788:0:0:0:0:
448,192,156788,128,0,156927:0:0:0:0:
329,192,156788,128,0,156927:0:0:0:0:
402,192,156927,128,0,157065:0:0:0:0:
109,192,156927,128,0,157065:0:0:0:0:
256,192,156927,128,0,157065:0:0:0:0:
182,192,156927,128,0,157065:0:0:0:0:
64,192,157065,128,0,157203:0:0:0:0:
329,192,157065,128,0,157203:0:0:0:0:
192,192,157203,128,0,157341:0:0:0:0:
256,192,157203,128,0,157341:0:0:0:0:
448,192,157341,128,0,157480:0:0:0:0:
329,192,157341,128,0,157480:0:0:0:0:
64,192,157480,1,0,0:0:0:0:
192,192,157480,1,0,0:0:0:0:
109,192,157480,1,0,0:0:0:0:
182,192,157756,128,0,157894:0:0:0:0:
402,192,157756,128,0,157894:0:0:0:0:
64,192,157894,128,0,158033:0:0:0:0:
329,192,157894,128,0,158033:0:0:0:0:
256,192,158033,128,0,158171:0:0:0:0:
402,192,158033,128,0,158171:0:0:0:0:
109,192,158033,128,0,158171:0:0:0:0:
475,192,158171,1,0,0:0:0:0:
192,192,158447,1,0,0:0:0:0:
256,192,158447,1,0,0:0:0:0:
402,192,158447,1,0,0:0:0:0:
475,192,158724,128,0,158862:0:0:0:0:
256,192,158724,128,0,158862:0:0:0:0:
402,192,158862,128,0,159000:0:0:0:0:
182,192,158862,128,0,159000:0:0:0:0:
320,192,159000,128,0,159139:0:0:0:0:
109,192,159000,128,0,159139:0:0:0:0:
448,192,159139,128,0,159277:0:0:0:0:
36,192,159139,128,0,159277:0:0:0:0:
256,192,159139,128,0,159277:0:0:0:0:
402,192,159277,1,0,0:0:0:0:
320,192,159553,1,0,0:0:0:0:
192,192,159553,1,0,0:0:0:0:
109,192,159553,1,0,0:0:0:0:
448,192,159830,128,0,159968:0:0:0:0:
182,192,159830,128,0,159968:0:0:0:0:
64,192,159968,128,0,160106:0:0:0:0:
256,192,159968,128,0,160106:0:0:0:0:
320,192,160106,128,0,160245:0:0:0:0:
109,192,160106,128,0,160245:0:0:0:0:
448,192,160245,128,0,160383:0:0:0:0:
256,192,160245,128,0,160383:0:0:0:0:
182,192,160245,128,0,160383:0:0:0:0:
402,192,160383,1,0,0:0:0:0:
64,192,160659,128,0,160798:0:0:0:0:
109,192,160659,128,0,160798:0:0:0:0:
448,192,160798,128,0,160936:0:0:0:0:
402,192,160798,128,0,160936:0:0:0:0:
192,192,160936,128,0,161074:0:0:0:0:
36,192,160936,128,0,161074:0:0:0:0:
320,192,161074,128,0,161212:0:0:0:0:
475,192,161074,128,0,161212:0:0:0:0:
109,192,161212,128,0,161351:0:0:0:0:
256,192,161212,128,0,161351:0:0:0:0:
64,192,161351,128,0,161489:0:0:0:0:
402,192,161351,128,0,161489:0:0:0:0:
182,192,161351,128,0,161489:0:0:0:0:
329,192,161351,128,0,161489:0:0:0:0:
475,192,161489,128,0,161627:0:0:0:0:
256,192,161489,128,0,161627:0:0:0:0:
320,192,161627,128,0,161765:0:0:0:0:
182,192,161627,128,0,161765:0:0:0:0:
448,192,161765,128,0,161904:0:0:0:0:
109,192,161765,128,0,161904:0:0:0:0:
36,192,161904,1,0,0:0:0:0:
256,192,161904,1,0,0:0:0:0:
448,192,162180,128,0,162318:0:0:0:0:
109,192,162180,128,0,162318:0:0:0:0:
192,192,162318,128,0,162457:0:0:0:0:
256,192,162318,128,0,162457:0:0:0:0:
320,192,162457,128,0,162595:0:0:0:0:
109,192,162457,128,0,162595:0:0:0:0:
475,192,162457,128,0,162595:0:0:0:0:
402,192,162595,1,0,0:0:0:0:
402,192,162871,1,0,0:0:0:0:
192,192,162871,1,0,0:0:0:0:
109,192,162871,1,0,0:0:0:0:
448,192,163148,128,0,163286:0:0:0:0:
36,192,163148,128,0,163286:0:0:0:0:
109,192,163286,128,0,163424:0:0:0:0:
402,192,163286,128,0,163424:0:0:0:0:
320,192,163424,128,0,163563:0:0:0:0:
182,192,163424,128,0,163563:0:0:0:0:
64,192,163563,128,0,163701:0:0:0:0:
256,192,163563,128,0,163701:0:0:0:0:
475,192,163563,128,0,163701:0:0:0:0:
182,192,163701,1,0,0:0:0:0:
109,192,163977,1,0,0:0:0:0:
256,192,163977,1,0,0:0:0:0:
402,192,163977,1,0,0:0:0:0:
320,192,164254,128,0,164392:0:0:0:0:
475,192,164254,128,0,164392:0:0:0:0:
64,192,164392,128,0,164530:0:0:0:0:
109,192,164392,128,0,164530:0:0:0:0:
192,192,164530,128,0,164669:0:0:0:0:
256,192,164530,128,0,164669:0:0:0:0:
448,192,164669,128,0,164807:0:0:0:0:
36,192,164669,128,0,164807:0:0:0:0:
329,192,164669,128,0,164807:0:0:0:0:
109,192,164807,1,0,0:0:0:0:
448,192,165083,128,0,165222:0:0:0:0:
256,192,165083,128,0,165222:0:0:0:0:
64,192,165222,128,0,165360:0:0:0:0:
182,192,165222,128,0,165360:0:0:0:0:
320,192,165360,128,0,165498:0:0:0:0:
256,192,165360,128,0,165498:0:0:0:0:
192,192,165498,128,0,165636:0:0:0:0:
402,192,165498,128,0,165636:0:0:0:0:
448,192,165636,128,0,165775:0:0:0:0:
109,192,165636,128,0,165775:0:0:0:0:
256,192,165775,128,0,165913:0:0:0:0:
402,192,165775,128,0,165913:0:0:0:0:
64,192,165913,128,0,166051:0:0:0:0:
182,192,165913,128,0,166051:0:0:0:0:
448,192,166051,128,0,166189:0:0:0:0:
402,192,166051,128,0,166189:0:0:0:0:
192,192,166189,128,0,166328:0:0:0:0:
256,192,166189,128,0,166328:0:0:0:0:
448,192,166328,1,0,0:0:0:0:
64,192,166328,1,0,0:0:0:0:
402,192,166328,1,0,0:0:0:0:
256,192,166604,128,0,166742:0:0:0:0:
402,192,166604,128,0,166742:0:0:0:0:
109,192,166742,128,0,166881:0:0:0:0:
182,192,166742,128,0,166881:0:0:0:0:
448,192,166881,128,0,167019:0:0:0:0:
36,192,166881,128,0,167019:0:0:0:0:
256,192,166881,128,0,167019:0:0:0:0:
329,192,167019,1,0,0:0:0:0:
402,192,167295,1,0,0:0:0:0:
475,192,167295,1,0,0:0:0:0:
109,192,167295,1,0,0:0:0:0:
182,192,167572,128,0,167710:0:0:0:0:
256,192,167572,128,0,167710:0:0:0:0:
475,192,167710,128,0,167848:0:0:0:0:
329,192,167710,128,0,167848:0:0:0:0:
256,192,167848,128,0,167987:0:0:0:0:
402,192,167848,128,0,167987:0:0:0:0:
109,192,167987,128,0,168125:0:0:0:0:
182,192,167987,128,0,168125:0:0:0:0:
475,192,167987,128,0,168125:0:0:0:0:
36,192,168125,1,0,0:0:0:0:
320,192,168401,1,0,0:0:0:0:
192,192,168401,1,0,0:0:0:0:
256,192,168401,1,0,0:0:0:0:
448,192,168540,1,0,0:0:0:0:
64,192,168540,1,0,0:0:0:0:
109,192,168540,1,0,0:0:0:0:
402,192,168540,1,0,0:0:0:0:
64,192,168678,128,0,168816:0:0:0:0:
256,192,168678,128,0,168816:0:0:0:0:
402,192,168678,128,0,168816:0:0:0:0:
448,192,168816,128,0,168954:0:0:0:0:
329,192,168816,128,0,168954:0:0:0:0:
109,192,168816,128,0,168954:0:0:0:0:
64,192,168954,128,0,169093:0:0:0:0:
256,192,168954,128,0,169093:0:0:0:0:
320,192,169093,128,0,169231:0:0:0:0:
402,192,169093,128,0,169231:0:0:0:0:
448,192,169231,128,0,169369:0:0:0:0:
109,192,169231,128,0,169369:0:0:0:0:
182,192,169231,128,0,169369:0:0:0:0:
64,192,169369,128,0,169507:0:0:0:0:
256,192,169369,128,0,169507:0:0:0:0:
320,192,169507,128,0,169646:0:0:0:0:
402,192,169507,128,0,169646:0:0:0:0:
192,192,169646,128,0,169784:0:0:0:0:
109,192,169646,128,0,169784:0:0:0:0:
475,192,169646,128,0,169784:0:0:0:0:
402,192,169784,128,0,169922:0:0:0:0:
256,192,169784,128,0,169922:0:0:0:0:
320,192,169922,128,0,170060:0:0:0:0:
36,192,169922,128,0,170060:0:0:0:0:
475,192,169922,128,0,170060:0:0:0:0:
109,192,170060,128,0,170199:0:0:0:0:
182,192,170060,128,0,170199:0:0:0:0:
448,192,170199,1,0,0:0:0:0:
320,192,170199,1,0,0:0:0:0:
402,192,170199,1,0,0:0:0:0:
192,192,170268,1,0,0:0:0:0:
64,192,170268,1,0,0:0:0:0:
109,192,170268,1,0,0:0:0:0:
448,192,170337,1,0,0:0:0:0:
320,192,170337,1,0,0:0:0:0:
402,192,170337,1,0,0:0:0:0:
64,192,170406,1,0,0:0:0:0:
192,192,170406,1,0,0:0:0:0:
109,192,170406,1,0,0:0:0:0:
448,192,170475,1,0,0:0:0:0:
320,192,170475,1,0,0:0:0:0:
402,192,170475,1,0,0:0:0:0:
64,192,170544,1,0,0:0:0:0:
192,192,170544,1,0,0:0:0:0:
109,192,170544,1,0,0:0:0:0:
320,192,170613,1,0,0:0:0:0:
448,192,170613,1,0,0:0:0:0:
402,192,170613,1,0,0:0:0:0:
64,192,170682,1,0,0:0:0:0:
192,192,170682,1,0,0:0:0:0:
109,192,170682,1,0,0:0:0:0:
320,192,170752,1,0,0:0:0:0:
256,192,170752,128,0,171028:0:0:0:0:
402,192,170752,1,0,0:0:0:0:
475,192,170752,1,0,0:0:0:0:
192,192,171028,1,0,0:0:0:0:
64,192,171028,1,0,0:0:0:0:
109,192,171028,1,0,0:0:0:0:
320,192,171166,1,0,0:0:0:0:
192,192,171166,1,0,0:0:0:0:
256,192,171166,1,0,0:0:0:0:
448,192,171305,1,0,0:0:0:0:
320,192,171305,1,0,0:0:0:0:
64,192,171305,1,0,0:0:0:0:
109,192,171305,1,0,0:0:0:0:
402,192,171305,1,0,0:0:0:0:
320,192,171443,1,0,0:0:0:0:
192,192,171443,1,0,0:0:0:0:
256,192,171443,1,0,0:0:0:0:
64,192,171581,1,0,0:0:0:0:
192,192,171581,1,0,0:0:0:0:
109,192,171581,1,0,0:0:0:0:
320,192,171719,1,0,0:0:0:0:
448,192,171719,1,0,0:0:0:0:
182,192,171719,1,0,0:0:0:0:
256,192,171719,1,0,0:0:0:0:
402,192,171719,1,0,0:0:0:0:
320,192,171996,1,0,0:0:0:0:
192,192,171996,1,0,0:0:0:0:
256,192,171996,1,0,0:0:0:0:
64,192,172134,1,0,0:0:0:0:
448,192,172134,1,0,0:0:0:0:
109,192,172134,1,0,0:0:0:0:
256,192,172134,1,0,0:0:0:0:
402,192,172134,1,0,0:0:0:0:
448,192,172411,1,0,0:0:0:0:
402,192,172411,1,0,0:0:0:0:
256,192,172411,1,0,0:0:0:0:
36,192,172549,1,0,0:0:0:0:
109,192,172549,1,0,0:0:0:0:
256,192,172549,1,0,0:0:0:0:
448,192,172687,1,0,0:0:0:0:
402,192,172687,1,0,0:0:0:0:
36,192,172687,1,0,0:0:0:0:
329,192,172687,1,0,0:0:0:0:
182,192,172687,1,0,0:0:0:0:
109,192,172964,128,0,173793:0:0:0:0:
182,192,172964,1,0,0:0:0:0:
329,192,172964,1,0,0:0:0:0:
256,192,172964,1,0,0:0:0:0:
448,192,173240,1,0,0:0:0:0:
36,192,173240,1,0,0:0:0:0:
182,192,173240,1,0,0:0:0:0:
402,192,173240,1,0,0:0:0:0:
320,192,173378,1,0,0:0:0:0:
192,192,173378,1,0,0:0:0:0:
256,192,173378,1,0,0:0:0:0:
320,192,173517,1,0,0:0:0:0:
448,192,173517,1,0,0:0:0:0:
402,192,173517,1,0,0:0:0:0:
192,192,173655,1,0,0:0:0:0:
256,192,173655,1,0,0:0:0:0:
36,192,173655,1,0,0:0:0:0:
320,192,173793,1,0,0:0:0:0:
256,192,173793,1,0,0:0:0:0:
402,192,173793,1,0,0:0:0:0:
64,192,173931,1,0,0:0:0:0:
192,192,173931,1,0,0:0:0:0:
402,192,173931,128,0,174208:0:0:0:0:
109,192,173931,1,0,0:0:0:0:
320,192,174208,128,0,174484:0:0:0:0:
109,192,174208,1,0,0:0:0:0:
182,192,174208,1,0,0:0:0:0:
36,192,174208,1,0,0:0:0:0:
448,192,174346,1,0,0:0:0:0:
256,192,174346,1,0,0:0:0:0:
402,192,174346,1,0,0:0:0:0:
256,192,174484,128,0,174761:0:0:0:0:
320,192,174623,1,0,0:0:0:0:
402,192,174623,1,0,0:0:0:0:
475,192,174623,1,0,0:0:0:0:
64,192,174761,128,0,174899:0:0:0:0:
182,192,174761,1,0,0:0:0:0:
109,192,174761,1,0,0:0:0:0:
448,192,174899,128,0,175037:0:0:0:0:
402,192,174899,128,0,175037:0:0:0:0:
320,192,175037,128,0,175176:0:0:0:0:
256,192,175037,128,0,175176:0:0:0:0:
192,192,175176,1,0,0:0:0:0:
64,192,175176,128,0,175452:0:0:0:0:
109,192,175176,1,0,0:0:0:0:
448,192,175452,1,0,0:0:0:0:
320,192,175452,1,0,0:0:0:0:
402,192,175452,1,0,0:0:0:0:
182,192,175590,1,0,0:0:0:0:
256,192,175590,1,0,0:0:0:0:
109,192,175590,1,0,0:0:0:0:
320,192,175729,128,0,176005:0:0:0:0:
448,192,175729,1,0,0:0:0:0:
36,192,175729,1,0,0:0:0:0:
256,192,175867,1,0,0:0:0:0:
109,192,175867,1,0,0:0:0:0:
64,192,176005,1,0,0:0:0:0:
448,192,176005,1,0,0:0:0:0:
182,192,176005,1,0,0:0:0:0:
402,192,176143,128,0,176558:0:0:0:0:
475,192,176143,1,0,0:0:0:0:
329,192,176143,1,0,0:0:0:0:
109,192,176143,1,0,0:0:0:0:
64,192,176420,1,0,0:0:0:0:
109,192,176420,1,0,0:0:0:0:
256,192,176420,1,0,0:0:0:0:
320,192,176558,1,0,0:0:0:0:
475,192,176558,1,0,0:0:0:0:
182,192,176558,1,0,0:0:0:0:
475,192,176835,128,0,177388:0:0:0:0:
320,192,176835,1,0,0:0:0:0:
256,192,176835,1,0,0:0:0:0:
182,192,177111,1,0,0:0:0:0:
64,192,177111,1,0,0:0:0:0:
109,192,177111,1,0,0:0:0:0:
256,192,177111,1,0,0:0:0:0:
402,192,177249,1,0,0:0:0:0:
329,192,177249,1,0,0:0:0:0:
256,192,177249,1,0,0:0:0:0:
36,192,177388,1,0,0:0:0:0:
109,192,177388,1,0,0:0:0:0:
182,192,177388,1,0,0:0:0:0:
475,192,177526,1,0,0:0:0:0:
402,192,177526,1,0,0:0:0:0:
329,192,177526,1,0,0:0:0:0:
109,192,177664,1,0,0:0:0:0:
182,192,177664,1,0,0:0:0:0:
256,192,177664,1,0,0:0:0:0:
329,192,177664,1,0,0:0:0:0:
64,192,177802,1,0,0:0:0:0:
448,192,177802,1,0,0:0:0:0:
320,192,177802,1,0,0:0:0:0:
402,192,177802,1,0,0:0:0:0:
109,192,177802,1,0,0:0:0:0:
182,192,177802,1,0,0:0:0:0:
329,192,177941,1,0,0:0:0:0:
256,192,177941,1,0,0:0:0:0:
182,192,177941,1,0,0:0:0:0:
329,192,178079,1,0,0:0:0:0:
109,192,178079,1,0,0:0:0:0:
182,192,178079,1,0,0:0:0:0:
402,192,178079,1,0,0:0:0:0:
64,192,178217,1,0,0:0:0:0:
448,192,178217,1,0,0:0:0:0:
109,192,178217,1,0,0:0:0:0:
329,192,178217,1,0,0:0:0:0:
402,192,178217,1,0,0:0:0:0:
256,192,178217,1,0,0:0:0:0:
320,192,178355,1,0,0:0:0:0:
402,192,178355,1,0,0:0:0:0:
182,192,178355,1,0,0:0:0:0:
192,192,178494,1,0,0:0:0:0:
448,192,178494,1,0,0:0:0:0:
109,192,178494,1,0,0:0:0:0:
36,192,178494,1,0,0:0:0:0:
402,192,178494,1,0,0:0:0:0:
256,192,178494,1,0,0:0:0:0:
448,192,178632,1,0,0:0:0:0:
64,192,178632,1,0,0:0:0:0:
109,192,178632,1,0,0:0:0:0:
329,192,178632,1,0,0:0:0:0:
64,192,178770,1,0,0:0:0:0:
192,192,178770,1,0,0:0:0:0:
448,192,178770,1,0,0:0:0:0:
109,192,178770,1,0,0:0:0:0:
402,192,178770,1,0,0:0:0:0:
329,192,178770,1,0,0:0:0:0:
448,192,178908,1,0,0:0:0:0:
256,192,178908,1,0,0:0:0:0:
402,192,178908,1,0,0:0:0:0:
182,192,178908,1,0,0:0:0:0:
64,192,179047,1,0,0:0:0:0:
320,192,179047,1,0,0:0:0:0:
109,192,179047,1,0,0:0:0:0:
256,192,179047,1,0,0:0:0:0:
192,192,179116,1,0,0:0:0:0:
448,192,179116,1,0,0:0:0:0:
402,192,179116,1,0,0:0:0:0:
320,192,179185,1,0,0:0:0:0:
256,192,179185,1,0,0:0:0:0:
36,192,179185,1,0,0:0:0:0:
109,192,179185,1,0,0:0:0:0:
448,192,179254,1,0,0:0:0:0:
192,192,179254,1,0,0:0:0:0:
402,192,179254,1,0,0:0:0:0:
64,192,179323,1,0,0:0:0:0:
320,192,179323,1,0,0:0:0:0:
256,192,179323,1,0,0:0:0:0:
109,192,179323,1,0,0:0:0:0:
448,192,179461,1,0,0:0:0:0:
256,192,179461,1,0,0:0:0:0:
402,192,179461,1,0,0:0:0:0:
182,192,179461,1,0,0:0:0:0:
64,192,179738,1,0,0:0:0:0:
256,192,179738,1,0,0:0:0:0:
109,192,179738,1,0,0:0:0:0:
448,192,179876,1,0,0:0:0:0:
320,192,179876,1,0,0:0:0:0:
402,192,179876,1,0,0:0:0:0:
109,192,179876,1,0,0:0:0:0:
182,192,179876,1,0,0:0:0:0:
448,192,180153,128,0,180291:0:0:0:0:
402,192,180153,128,0,180291:0:0:0:0:
109,192,180153,1,0,0:0:0:0:
64,192,180291,1,0,0:0:0:0:
192,192,180291,128,0,180429:0:0:0:0:
256,192,180291,128,0,180429:0:0:0:0:
448,192,180429,128,0,180567:0:0:0:0:
109,192,180429,128,0,180567:0:0:0:0:
329,192,180429,128,0,180567:0:0:0:0:
402,192,180429,1,0,0:0:0:0:
64,192,180567,1,0,0:0:0:0:
256,192,180567,1,0,0:0:0:0:
109,192,180844,1,0,0:0:0:0:
256,192,180844,1,0,0:0:0:0:
402,192,180844,1,0,0:0:0:0:
448,192,180982,1,0,0:0:0:0:
320,192,180982,1,0,0:0:0:0:
182,192,180982,1,0,0:0:0:0:
256,192,180982,1,0,0:0:0:0:
36,192,180982,1,0,0:0:0:0:
448,192,181258,1,0,0:0:0:0:
402,192,181258,1,0,0:0:0:0:
182,192,181258,1,0,0:0:0:0:
320,192,181397,1,0,0:0:0:0:
64,192,181397,1,0,0:0:0:0:
256,192,181397,1,0,0:0:0:0:
109,192,181397,1,0,0:0:0:0:
64,192,181535,1,0,0:0:0:0:
182,192,181535,1,0,0:0:0:0:
256,192,181535,1,0,0:0:0:0:
475,192,181535,1,0,0:0:0:0:
402,192,181535,1,0,0:0:0:0:
448,192,181811,1,0,0:0:0:0:
402,192,181811,1,0,0:0:0:0:
109,192,181811,128,0,182088:0:0:0:0:
256,192,181811,128,0,182088:0:0:0:0:
36,192,182088,1,0,0:0:0:0:
182,192,182088,1,0,0:0:0:0:
109,192,182364,128,0,182503:0:0:0:0:
402,192,182364,128,0,182503:0:0:0:0:
256,192,182364,1,0,0:0:0:0:
192,192,182503,128,0,182641:0:0:0:0:
329,192,182503,128,0,182641:0:0:0:0:
256,192,182641,128,0,182779:0:0:0:0:
109,192,182641,128,0,182779:0:0:0:0:
402,192,182641,128,0,182779:0:0:0:0:
64,192,182779,128,0,183056:0:0:0:0:
475,192,182779,128,0,183056:0:0:0:0:
256,192,183056,128,0,183332:0:0:0:0:
448,192,183194,1,0,0:0:0:0:
64,192,183194,1,0,0:0:0:0:
192,192,183332,128,0,183609:0:0:0:0:
329,192,183332,128,0,183609:0:0:0:0:
402,192,183470,1,0,0:0:0:0:
109,192,183470,1,0,0:0:0:0:
64,192,183609,128,0,183885:0:0:0:0:
475,192,183609,128,0,183885:0:0:0:0:
329,192,183747,1,0,0:0:0:0:
402,192,183747,1,0,0:0:0:0:
109,192,183885,1,0,0:0:0:0:
182,192,183885,1,0,0:0:0:0:
448,192,184023,128,0,184576:0:0:0:0:
402,192,184023,1,0,0:0:0:0:
329,192,184023,1,0,0:0:0:0:
256,192,184023,1,0,0:0:0:0:
192,192,184300,1,0,0:0:0:0:
109,192,184300,128,0,184715:0:0:0:0:
256,192,184300,1,0,0:0:0:0:
256,192,184576,128,0,184991:0:0:0:0:
36,192,184576,1,0,0:0:0:0:
402,192,184576,1,0,0:0:0:0:
329,192,184715,128,0,184991:0:0:0:0:
182,192,184715,1,0,0:0:0:0:
475,192,184715,1,0,0:0:0:0:
402,192,184853,1,0,0:0:0:0:
109,192,184853,1,0,0:0:0:0:
64,192,184991,128,0,185406:0:0:0:0:
182,192,184991,1,0,0:0:0:0:
475,192,184991,1,0,0:0:0:0:
256,192,185268,1,0,0:0:0:0:
109,192,185268,1,0,0:0:0:0:
182,192,185268,1,0,0:0:0:0:
256,192,185406,128,0,185682:0:0:0:0:
475,192,185406,1,0,0:0:0:0:
402,192,185406,1,0,0:0:0:0:
109,192,185682,128,0,185959:0:0:0:0:
448,192,185682,1,0,0:0:0:0:
182,192,185682,1,0,0:0:0:0:
402,192,185682,1,0,0:0:0:0:
64,192,185959,1,0,0:0:0:0:
448,192,185959,128,0,186235:0:0:0:0:
320,192,185959,1,0,0:0:0:0:
256,192,185959,1,0,0:0:0:0:
64,192,186235,1,0,0:0:0:0:
109,192,186235,1,0,0:0:0:0:
402,192,186235,1,0,0:0:0:0:
182,192,186235,1,0,0:0:0:0:
329,192,186305,1,0,0:0:0:0:
256,192,186305,1,0,0:0:0:0:
182,192,186374,1,0,0:0:0:0:
109,192,186374,1,0,0:0:0:0:
475,192,186443,1,0,0:0:0:0:
402,192,186443,1,0,0:0:0:0:
36,192,186443,1,0,0:0:0:0:
192,192,186512,1,0,0:0:0:0:
109,192,186512,1,0,0:0:0:0:
320,192,186581,1,0,0:0:0:0:
256,192,186581,1,0,0:0:0:0:
448,192,186650,1,0,0:0:0:0:
64,192,186650,1,0,0:0:0:0:
109,192,186650,1,0,0:0:0:0:
182,192,186650,1,0,0:0:0:0:
402,192,186650,1,0,0:0:0:0:
329,192,186719,1,0,0:0:0:0:
256,192,186719,1,0,0:0:0:0:
182,192,186788,1,0,0:0:0:0:
109,192,186788,1,0,0:0:0:0:
320,192,186858,1,0,0:0:0:0:
402,192,186858,1,0,0:0:0:0:
192,192,186927,1,0,0:0:0:0:
256,192,186927,1,0,0:0:0:0:
448,192,186996,1,0,0:0:0:0:
402,192,186996,1,0,0:0:0:0:
320,192,187065,1,0,0:0:0:0:
192,192,187065,1,0,0:0:0:0:
64,192,187065,1,0,0:0:0:0:
256,192,187065,1,0,0:0:0:0:
109,192,187065,1,0,0:0:0:0:
320,192,187203,1,0,0:0:0:0:
256,192,187203,128,0,187480:0:0:0:0:
475,192,187203,1,0,0:0:0:0:
402,192,187203,1,0,0:0:0:0:
64,192,187480,1,0,0:0:0:0:
192,192,187480,1,0,0:0:0:0:
109,192,187480,1,0,0:0:0:0:
448,192,187618,1,0,0:0:0:0:
192,192,187618,1,0,0:0:0:0:
402,192,187618,1,0,0:0:0:0:
256,192,187618,1,0,0:0:0:0:
320,192,187687,1,0,0:0:0:0:
109,192,187687,1,0,0:0:0:0:
64,192,187756,1,0,0:0:0:0:
182,192,187756,1,0,0:0:0:0:
256,192,187756,1,0,0:0:0:0:
402,192,187756,1,0,0:0:0:0:
448,192,187825,1,0,0:0:0:0:
329,192,187825,1,0,0:0:0:0:
64,192,187894,1,0,0:0:0:0:
192,192,187894,1,0,0:0:0:0:
109,192,187894,1,0,0:0:0:0:
320,192,187964,1,0,0:0:0:0:
448,192,187964,1,0,0:0:0:0:
402,192,187964,1,0,0:0:0:0:
192,192,188033,1,0,0:0:0:0:
64,192,188033,1,0,0:0:0:0:
109,192,188033,1,0,0:0:0:0:
448,192,188102,1,0,0:0:0:0:
320,192,188102,1,0,0:0:0:0:
402,192,188102,1,0,0:0:0:0:
192,192,188171,1,0,0:0:0:0:
64,192,188171,128,0,188309:0:0:0:0:
109,192,188171,1,0,0:0:0:0:
320,192,188309,1,0,0:0:0:0:
448,192,188309,1,0,0:0:0:0:
402,192,188309,1,0,0:0:0:0:
192,192,188586,1,0,0:0:0:0:
256,192,188586,1,0,0:0:0:0:
64,192,188724,1,0,0:0:0:0:
448,192,188724,1,0,0:0:0:0:
109,192,188724,1,0,0:0:0:0:
402,192,188724,1,0,0:0:0:0:
320,192,188862,1,0,0:0:0:0:
256,192,188862,1,0,0:0:0:0:
192,192,189000,1,0,0:0:0:0:
109,192,189000,1,0,0:0:0:0:
109,192,189277,1,0,0:0:0:0:
182,192,189277,1,0,0:0:0:0:
402,192,189277,1,0,0:0:0:0:
448,192,189553,1,0,0:0:0:0:
329,192,189553,1,0,0:0:0:0:
182,192,189553,1,0,0:0:0:0:
320,192,189830,1,0,0:0:0:0:
182,192,189830,1,0,0:0:0:0:
402,192,189830,1,0,0:0:0:0:
109,192,189968,1,0,0:0:0:0:
256,192,189968,1,0,0:0:0:0:
320,192,190245,1,0,0:0:0:0:
256,192,190245,1,0,0:0:0:0:
64,192,190383,1,0,0:0:0:0:
109,192,190383,1,0,0:0:0:0:
256,192,190383,1,0,0:0:0:0:
320,192,190521,1,0,0:0:0:0:
448,192,190521,1,0,0:0:0:0:
192,192,190521,1,0,0:0:0:0:
109,192,190521,1,0,0:0:0:0:
402,192,190521,1,0,0:0:0:0:
192,192,190798,1,0,0:0:0:0:
256,192,190798,1,0,0:0:0:0:
64,192,190936,1,0,0:0:0:0:
448,192,190936,1,0,0:0:0:0:
109,192,190936,1,0,0:0:0:0:
402,192,190936,1,0,0:0:0:0:
256,192,191074,1,0,0:0:0:0:
329,192,191074,1,0,0:0:0:0:
475,192,191212,1,0,0:0:0:0:
109,192,191212,1,0,0:0:0:0:
256,192,191351,1,0,0:0:0:0:
182,192,191351,1,0,0:0:0:0:
64,192,191489,1,0,0:0:0:0:
448,192,191489,1,0,0:0:0:0:
109,192,191489,1,0,0:0:0:0:
329,192,191489,1,0,0:0:0:0:
402,192,191627,1,0,0:0:0:0:
182,192,191627,1,0,0:0:0:0:
448,192,191765,1,0,0:0:0:0:
329,192,191765,1,0,0:0:0:0:
448,192,192042,1,0,0:0:0:0:
64,192,192042,1,0,0:0:0:0:
109,192,192042,1,0,0:0:0:0:
402,192,192042,1,0,0:0:0:0:
192,192,192180,1,0,0:0:0:0:
320,192,192180,1,0,0:0:0:0:
256,192,192180,1,0,0:0:0:0:
109,192,192457,1,0,0:0:0:0:
256,192,192457,1,0,0:0:0:0:
475,192,192595,1,0,0:0:0:0:
402,192,192595,1,0,0:0:0:0:
182,192,192595,1,0,0:0:0:0:
320,192,192733,1,0,0:0:0:0:
109,192,192733,1,0,0:0:0:0:
256,192,192733,1,0,0:0:0:0:
36,192,192733,1,0,0:0:0:0:
402,192,192733,1,0,0:0:0:0:
256,192,193010,1,0,0:0:0:0:
182,192,193010,1,0,0:0:0:0:
329,192,193148,1,0,0:0:0:0:
475,192,193148,1,0,0:0:0:0:
402,192,193148,1,0,0:0:0:0:
192,192,193424,1,0,0:0:0:0:
402,192,193424,1,0,0:0:0:0:
256,192,193424,1,0,0:0:0:0:
109,192,193701,1,0,0:0:0:0:
475,192,193701,1,0,0:0:0:0:
475,192,193977,1,0,0:0:0:0:
256,192,193977,1,0,0:0:0:0:
109,192,193977,1,0,0:0:0:0:
64,192,194254,1,0,0:0:0:0:
109,192,194254,1,0,0:0:0:0:
329,192,194254,1,0,0:0:0:0:
256,192,194392,1,0,0:0:0:0:
182,192,194392,1,0,0:0:0:0:
448,192,194530,1,0,0:0:0:0:
192,192,194530,1,0,0:0:0:0:
402,192,194530,1,0,0:0:0:0:
109,192,194530,1,0,0:0:0:0:
320,192,194600,1,0,0:0:0:0:
64,192,194600,1,0,0:0:0:0:
256,192,194600,1,0,0:0:0:0:
192,192,194669,1,0,0:0:0:0:
448,192,194669,1,0,0:0:0:0:
109,192,194669,1,0,0:0:0:0:
402,192,194669,1,0,0:0:0:0:
192,192,194807,1,0,0:0:0:0:
64,192,194807,1,0,0:0:0:0:
109,192,194807,1,0,0:0:0:0:
320,192,194945,1,0,0:0:0:0:
448,192,194945,128,0,195913:0:0:0:0:
256,192,194945,1,0,0:0:0:0:
402,192,194945,1,0,0:0:0:0:
109,192,195222,1,0,0:0:0:0:
256,192,195222,1,0,0:0:0:0:
64,192,195360,1,0,0:0:0:0:
320,192,195360,1,0,0:0:0:0:
182,192,195360,1,0,0:0:0:0:
402,192,195498,1,0,0:0:0:0:
256,192,195498,1,0,0:0:0:0:
182,192,195636,1,0,0:0:0:0:
109,192,195636,1,0,0:0:0:0:
36,192,195636,1,0,0:0:0:0:
256,192,195775,1,0,0:0:0:0:
402,192,195775,1,0,0:0:0:0:
64,192,195913,1,0,0:0:0:0:
109,192,195913,1,0,0:0:0:0:
329,192,195913,1,0,0:0:0:0:
448,192,196051,1,0,0:0:0:0:
329,192,196051,1,0,0:0:0:0:
320,192,196189,1,0,0:0:0:0:
64,192,196189,1,0,0:0:0:0:
448,192,196189,1,0,0:0:0:0:
192,192,196189,1,0,0:0:0:0:
402,192,196189,1,0,0:0:0:0:
109,192,196189,1,0,0:0:0:0:
64,192,196328,1,0,0:0:0:0:
109,192,196328,1,0,0:0:0:0:
64,192,196466,1,0,0:0:0:0:
448,192,196466,1,0,0:0:0:0:
320,192,196466,1,0,0:0:0:0:
109,192,196466,1,0,0:0:0:0:
256,192,196466,1,0,0:0:0:0:
402,192,196466,1,0,0:0:0:0:
320,192,196604,1,0,0:0:0:0:
402,192,196604,1,0,0:0:0:0:
448,192,196742,1,0,0:0:0:0:
320,192,196742,1,0,0:0:0:0:
64,192,196742,1,0,0:0:0:0:
402,192,196742,1,0,0:0:0:0:
256,192,196742,1,0,0:0:0:0:
182,192,196742,1,0,0:0:0:0:
448,192,196881,1,0,0:0:0:0:
320,192,196881,1,0,0:0:0:0:
402,192,196881,1,0,0:0:0:0:
256,192,196881,1,0,0:0:0:0:
192,192,196950,1,0,0:0:0:0:
36,192,196950,1,0,0:0:0:0:
109,192,196950,1,0,0:0:0:0:
320,192,197019,1,0,0:0:0:0:
448,192,197019,1,0,0:0:0:0:
256,192,197019,1,0,0:0:0:0:
402,192,197019,1,0,0:0:0:0:
64,192,197157,1,0,0:0:0:0:
192,192,197157,1,0,0:0:0:0:
109,192,197157,1,0,0:0:0:0:
329,192,197157,1,0,0:0:0:0:
402,192,197157,1,0,0:0:0:0:
192,192,197434,1,0,0:0:0:0:
256,192,197434,1,0,0:0:0:0:
329,192,197434,1,0,0:0:0:0:
320,192,197572,1,0,0:0:0:0:
192,192,197572,1,0,0:0:0:0:
64,192,197572,1,0,0:0:0:0:
109,192,197572,1,0,0:0:0:0:
402,192,197572,1,0,0:0:0:0:
109,192,197710,1,0,0:0:0:0:
256,192,197710,1,0,0:0:0:0:
402,192,197710,1,0,0:0:0:0:
448,192,197848,1,0,0:0:0:0:
192,192,197848,1,0,0:0:0:0:
402,192,197848,1,0,0:0:0:0:
329,192,197848,1,0,0:0:0:0:
109,192,197848,1,0,0:0:0:0:
320,192,197987,1,0,0:0:0:0:
36,192,197987,1,0,0:0:0:0:
182,192,197987,1,0,0:0:0:0:
192,192,198125,1,0,0:0:0:0:
448,192,198125,1,0,0:0:0:0:
402,192,198125,1,0,0:0:0:0:
329,192,198125,1,0,0:0:0:0:
256,192,198125,1,0,0:0:0:0:
448,192,198401,1,0,0:0:0:0:
320,192,198401,1,0,0:0:0:0:
192,192,198401,1,0,0:0:0:0:
402,192,198401,1,0,0:0:0:0:
109,192,198401,1,0,0:0:0:0:
320,192,198678,1,0,0:0:0:0:
192,192,198678,1,0,0:0:0:0:
64,192,198678,1,0,0:0:0:0:
109,192,198678,1,0,0:0:0:0:
256,192,198678,1,0,0:0:0:0:
475,192,198678,1,0,0:0:0:0:
448,192,198816,1,0,0:0:0:0:
402,192,198816,1,0,0:0:0:0:
256,192,198816,1,0,0:0:0:0:
329,192,198816,1,0,0:0:0:0:
109,192,198816,1,0,0:0:0:0:
192,192,199093,1,0,0:0:0:0:
329,192,199093,1,0,0:0:0:0:
256,192,199093,1,0,0:0:0:0:
64,192,199231,1,0,0:0:0:0:
109,192,199231,1,0,0:0:0:0:
402,192,199231,1,0,0:0:0:0:
256,192,199231,1,0,0:0:0:0:
192,192,199369,1,0,0:0:0:0:
448,192,199369,1,0,0:0:0:0:
256,192,199369,1,0,0:0:0:0:
329,192,199369,1,0,0:0:0:0:
36,192,199369,1,0,0:0:0:0:
402,192,199646,1,0,0:0:0:0:
329,192,199646,1,0,0:0:0:0:
182,192,199646,1,0,0:0:0:0:
320,192,199784,1,0,0:0:0:0:
64,192,199784,1,0,0:0:0:0:
109,192,199784,1,0,0:0:0:0:
256,192,199784,1,0,0:0:0:0:
475,192,199784,1,0,0:0:0:0:
64,192,199922,1,0,0:0:0:0:
256,192,199922,1,0,0:0:0:0:
182,192,199922,1,0,0:0:0:0:
448,192,200060,1,0,0:0:0:0:
320,192,200060,1,0,0:0:0:0:
109,192,200060,1,0,0:0:0:0:
36,192,200060,1,0,0:0:0:0:
256,192,200060,1,0,0:0:0:0:
192,192,200199,1,0,0:0:0:0:
109,192,200199,1,0,0:0:0:0:
402,192,200199,1,0,0:0:0:0:
64,192,200337,1,0,0:0:0:0:
320,192,200337,1,0,0:0:0:0:
448,192,200337,1,0,0:0:0:0:
256,192,200337,1,0,0:0:0:0:
109,192,200337,1,0,0:0:0:0:
448,192,200613,1,0,0:0:0:0:
192,192,200613,1,0,0:0:0:0:
64,192,200613,1,0,0:0:0:0:
109,192,200613,1,0,0:0:0:0:
402,192,200613,1,0,0:0:0:0:
448,192,200752,1,0,0:0:0:0:
109,192,200752,1,0,0:0:0:0:
182,192,200752,1,0,0:0:0:0:
402,192,200752,1,0,0:0:0:0:
256,192,200752,1,0,0:0:0:0:
192,192,201028,1,0,0:0:0:0:
109,192,201028,1,0,0:0:0:0:
402,192,201028,1,0,0:0:0:0:
329,192,201028,1,0,0:0:0:0:
36,192,201028,1,0,0:0:0:0:
192,192,201305,1,0,0:0:0:0:
402,192,201305,1,0,0:0:0:0:
256,192,201305,1,0,0:0:0:0:
64,192,201443,1,0,0:0:0:0:
109,192,201443,1,0,0:0:0:0:
329,192,201443,1,0,0:0:0:0:
256,192,201719,128,0,202825:0:0:0:0:
109,192,201719,1,0,0:0:0:0:
402,192,201719,1,0,0:0:0:0:
329,192,201719,1,0,0:0:0:0:
182,192,201719,1,0,0:0:0:0:
192,192,201996,1,0,0:0:0:0:
109,192,201996,1,0,0:0:0:0:
36,192,201996,1,0,0:0:0:0:
320,192,202134,1,0,0:0:0:0:
448,192,202134,1,0,0:0:0:0:
402,192,202134,1,0,0:0:0:0:
448,192,202411,1,0,0:0:0:0:
36,192,202411,1,0,0:0:0:0:
402,192,202411,1,0,0:0:0:0:
320,192,202549,1,0,0:0:0:0:
192,192,202549,1,0,0:0:0:0:
109,192,202549,1,0,0:0:0:0:
192,192,202825,1,0,0:0:0:0:
320,192,202825,1,0,0:0:0:0:
109,192,202825,128,0,203655:0:0:0:0:
36,192,202825,1,0,0:0:0:0:
320,192,203102,1,0,0:0:0:0:
256,192,203102,1,0,0:0:0:0:
182,192,203102,1,0,0:0:0:0:
64,192,203240,1,0,0:0:0:0:
402,192,203240,1,0,0:0:0:0:
475,192,203240,1,0,0:0:0:0:
475,192,203517,1,0,0:0:0:0:
402,192,203517,1,0,0:0:0:0:
329,192,203517,1,0,0:0:0:0:
192,192,203655,1,0,0:0:0:0:
256,192,203655,1,0,0:0:0:0:
36,192,203655,1,0,0:0:0:0:
64,192,203793,1,0,0:0:0:0:
109,192,203793,1,0,0:0:0:0:
192,192,203931,1,0,0:0:0:0:
64,192,203931,1,0,0:0:0:0:
320,192,203931,1,0,0:0:0:0:
448,192,203931,1,0,0:0:0:0:
109,192,203931,1,0,0:0:0:0:
402,192,203931,1,0,0:0:0:0:
329,192,204070,1,0,0:0:0:0:
182,192,204070,1,0,0:0:0:0:
192,192,204208,1,0,0:0:0:0:
320,192,204208,1,0,0:0:0:0:
448,192,204208,1,0,0:0:0:0:
64,192,204208,1,0,0:0:0:0:
402,192,204208,1,0,0:0:0:0:
109,192,204208,1,0,0:0:0:0:
109,192,204346,1,0,0:0:0:0:
402,192,204346,1,0,0:0:0:0:
192,192,204484,1,0,0:0:0:0:
320,192,204484,1,0,0:0:0:0:
448,192,204484,1,0,0:0:0:0:
64,192,204484,1,0,0:0:0:0:
109,192,204484,1,0,0:0:0:0:
402,192,204484,1,0,0:0:0:0:
256,192,204623,1,0,0:0:0:0:
475,192,204623,1,0,0:0:0:0:
64,192,204761,1,0,0:0:0:0:
192,192,204761,1,0,0:0:0:0:
448,192,204761,1,0,0:0:0:0:
320,192,204761,1,0,0:0:0:0:
109,192,204761,1,0,0:0:0:0:
402,192,204761,1,0,0:0:0:0:
64,192,205037,1,0,0:0:0:0:
109,192,205037,1,0,0:0:0:0:
182,192,205037,1,0,0:0:0:0:
256,192,205037,1,0,0:0:0:0:
329,192,205037,1,0,0:0:0:0:
64,192,205176,1,0,0:0:0:0:
192,192,205176,1,0,0:0:0:0:
448,192,205176,1,0,0:0:0:0:
109,192,205176,1,0,0:0:0:0:
256,192,205176,1,0,0:0:0:0:
64,192,205314,1,0,0:0:0:0:
448,192,205314,1,0,0:0:0:0:
402,192,205314,1,0,0:0:0:0:
109,192,205314,1,0,0:0:0:0:
182,192,205314,1,0,0:0:0:0:
448,192,205452,1,0,0:0:0:0:
320,192,205452,1,0,0:0:0:0:
256,192,205452,1,0,0:0:0:0:
402,192,205452,1,0,0:0:0:0:
64,192,205521,1,0,0:0:0:0:
192,192,205521,1,0,0:0:0:0:
109,192,205521,1,0,0:0:0:0:
448,192,205590,1,0,0:0:0:0:
320,192,205590,1,0,0:0:0:0:
256,192,205590,1,0,0:0:0:0:
402,192,205590,1,0,0:0:0:0:
64,192,205659,1,0,0:0:0:0:
192,192,205659,1,0,0:0:0:0:
109,192,205659,1,0,0:0:0:0:
320,192,205729,1,0,0:0:0:0:
448,192,205729,1,0,0:0:0:0:
402,192,205729,1,0,0:0:0:0:
256,192,205729,1,0,0:0:0:0:
64,192,205867,1,0,0:0:0:0:
109,192,205867,1,0,0:0:0:0:
256,192,205867,1,0,0:0:0:0:
329,192,205867,1,0,0:0:0:0:
402,192,206005,128,0,206696:0:0:0:0:
192,192,206005,1,0,0:0:0:0:
109,192,206005,1,0,0:0:0:0:
329,192,206005,1,0,0:0:0:0:
329,192,206282,1,0,0:0:0:0:
256,192,206282,1,0,0:0:0:0:
475,192,206282,1,0,0:0:0:0:
192,192,206420,1,0,0:0:0:0:
64,192,206420,1,0,0:0:0:0:
109,192,206420,1,0,0:0:0:0:
109,192,206696,128,0,207249:0:0:0:0:
320,192,206696,1,0,0:0:0:0:
36,192,206696,1,0,0:0:0:0:
182,192,206696,1,0,0:0:0:0:
256,192,206835,1,0,0:0:0:0:
402,192,206835,1,0,0:0:0:0:
320,192,206973,1,0,0:0:0:0:
448,192,206973,1,0,0:0:0:0:
182,192,206973,1,0,0:0:0:0:
448,192,207249,1,0,0:0:0:0:
320,192,207249,128,0,207802:0:0:0:0:
402,192,207249,1,0,0:0:0:0:
192,192,207526,1,0,0:0:0:0:
256,192,207526,1,0,0:0:0:0:
36,192,207526,1,0,0:0:0:0:
192,192,207802,128,0,208217:0:0:0:0:
448,192,207802,1,0,0:0:0:0:
256,192,207802,1,0,0:0:0:0:
36,192,207802,1,0,0:0:0:0:
402,192,207941,1,0,0:0:0:0:
109,192,207941,1,0,0:0:0:0:
64,192,208079,1,0,0:0:0:0:
448,192,208079,1,0,0:0:0:0:
329,192,208079,1,0,0:0:0:0:
256,192,208217,128,0,209461:0:0:0:0:
402,192,208217,1,0,0:0:0:0:
109,192,208217,1,0,0:0:0:0:
192,192,208494,1,0,0:0:0:0:
109,192,208494,1,0,0:0:0:0:
320,192,208632,1,0,0:0:0:0:
402,192,208632,1,0,0:0:0:0:
475,192,208632,1,0,0:0:0:0:
402,192,208908,1,0,0:0:0:0:
329,192,208908,1,0,0:0:0:0:
192,192,209047,1,0,0:0:0:0:
109,192,209047,1,0,0:0:0:0:
64,192,209185,1,0,0:0:0:0:
402,192,209185,1,0,0:0:0:0:
475,192,209185,1,0,0:0:0:0:
109,192,209461,1,0,0:0:0:0:
182,192,209461,1,0,0:0:0:0:
402,192,209600,1,0,0:0:0:0:
329,192,209600,1,0,0:0:0:0:
64,192,209738,1,0,0:0:0:0:
448,192,209738,1,0,0:0:0:0:
402,192,209738,1,0,0:0:0:0:
109,192,209738,1,0,0:0:0:0:
256,192,209738,1,0,0:0:0:0:
109,192,209876,1,0,0:0:0:0:
182,192,209876,1,0,0:0:0:0:
329,192,210014,1,0,0:0:0:0:
402,192,210014,1,0,0:0:0:0:
192,192,210153,1,0,0:0:0:0:
256,192,210153,1,0,0:0:0:0:
64,192,210291,1,0,0:0:0:0:
109,192,210291,1,0,0:0:0:0:
402,192,210291,1,0,0:0:0:0:
320,192,210429,128,0,211120:0:0:0:0:
448,192,210429,1,0,0:0:0:0:
182,192,210429,1,0,0:0:0:0:
256,192,210429,1,0,0:0:0:0:
109,192,210705,1,0,0:0:0:0:
182,192,210705,1,0,0:0:0:0:
448,192,210844,1,0,0:0:0:0:
256,192,210844,1,0,0:0:0:0:
402,192,210844,1,0,0:0:0:0:
64,192,211120,128,0,211673:0:0:0:0:
448,192,211120,1,0,0:0:0:0:
402,192,211120,1,0,0:0:0:0:
182,192,211397,1,0,0:0:0:0:
256,192,211397,1,0,0:0:0:0:
109,192,211397,1,0,0:0:0:0:
320,192,211673,1,0,0:0:0:0:
402,192,211673,128,0,212226:0:0:0:0:
182,192,211673,1,0,0:0:0:0:
192,192,211950,1,0,0:0:0:0:
109,192,211950,1,0,0:0:0:0:
256,192,212088,1,0,0:0:0:0:
475,192,212088,1,0,0:0:0:0:
109,192,212226,128,0,212641:0:0:0:0:
192,192,212226,1,0,0:0:0:0:
329,192,212226,1,0,0:0:0:0:
475,192,212364,1,0,0:0:0:0:
256,192,212364,1,0,0:0:0:0:
192,192,212503,1,0,0:0:0:0:
402,192,212503,1,0,0:0:0:0:
36,192,212503,1,0,0:0:0:0:
256,192,212641,128,0,213056:0:0:0:0:
329,192,212641,1,0,0:0:0:0:
475,192,212641,1,0,0:0:0:0:
64,192,212917,1,0,0:0:0:0:
109,192,212917,1,0,0:0:0:0:
192,192,213056,1,0,0:0:0:0:
329,192,213056,1,0,0:0:0:0:
109,192,213194,1,0,0:0:0:0:
475,192,213194,1,0,0:0:0:0:
402,192,213194,1,0,0:0:0:0:
64,192,213332,1,0,0:0:0:0:
448,192,213332,1,0,0:0:0:0:
320,192,213332,1,0,0:0:0:0:
256,192,213332,1,0,0:0:0:0:
182,192,213332,1,0,0:0:0:0:
109,192,213470,1,0,0:0:0:0:
182,192,213470,1,0,0:0:0:0:
448,192,213609,1,0,0:0:0:0:
320,192,213609,1,0,0:0:0:0:
402,192,213609,1,0,0:0:0:0:
256,192,213609,1,0,0:0:0:0:
64,192,213747,1,0,0:0:0:0:
182,192,213747,1,0,0:0:0:0:
320,192,213885,1,0,0:0:0:0:
448,192,213885,1,0,0:0:0:0:
109,192,213885,1,0,0:0:0:0:
182,192,213885,1,0,0:0:0:0:
402,192,213885,1,0,0:0:0:0:
36,192,213885,1,0,0:0:0:0:
320,192,214023,1,0,0:0:0:0:
192,192,214023,1,0,0:0:0:0:
64,192,214162,1,0,0:0:0:0:
192,192,214162,1,0,0:0:0:0:
320,192,214162,1,0,0:0:0:0:
109,192,214162,1,0,0:0:0:0:
402,192,214162,1,0,0:0:0:0:
475,192,214162,1,0,0:0:0:0:
448,192,214300,1,0,0:0:0:0:
329,192,214300,1,0,0:0:0:0:
109,192,214438,1,0,0:0:0:0:
36,192,214438,1,0,0:0:0:0:
402,192,214438,1,0,0:0:0:0:
475,192,214438,1,0,0:0:0:0:
182,192,214507,1,0,0:0:0:0:
329,192,214507,1,0,0:0:0:0:
256,192,214507,1,0,0:0:0:0:
448,192,214576,1,0,0:0:0:0:
402,192,214576,1,0,0:0:0:0:
36,192,214576,1,0,0:0:0:0:
109,192,214576,1,0,0:0:0:0:
192,192,214646,1,0,0:0:0:0:
256,192,214646,1,0,0:0:0:0:
329,192,214646,1,0,0:0:0:0:
64,192,214715,1,0,0:0:0:0:
448,192,214715,1,0,0:0:0:0:
109,192,214715,1,0,0:0:0:0:
402,192,214715,1,0,0:0:0:0:
320,192,214853,1,0,0:0:0:0:
402,192,214853,128,0,215544:0:0:0:0:
256,192,214853,1,0,0:0:0:0:
192,192,215129,1,0,0:0:0:0:
109,192,215129,1,0,0:0:0:0:
320,192,215268,1,0,0:0:0:0:
256,192,215268,1,0,0:0:0:0:
475,192,215268,1,0,0:0:0:0:
320,192,215544,128,0,216097:0:0:0:0:
256,192,215544,1,0,0:0:0:0:
182,192,215544,1,0,0:0:0:0:
64,192,215682,1,0,0:0:0:0:
109,192,215682,1,0,0:0:0:0:
448,192,215821,1,0,0:0:0:0:
402,192,215821,1,0,0:0:0:0:
256,192,215821,1,0,0:0:0:0:
182,192,216097,128,0,216650:0:0:0:0:
256,192,216097,1,0,0:0:0:0:
109,192,216097,1,0,0:0:0:0:
448,192,216374,1,0,0:0:0:0:
329,192,216374,1,0,0:0:0:0:
402,192,216374,1,0,0:0:0:0:
256,192,216650,128,0,217065:0:0:0:0:
36,192,216650,1,0,0:0:0:0:
329,192,216650,1,0,0:0:0:0:
475,192,216788,1,0,0:0:0:0:
402,192,216788,1,0,0:0:0:0:
64,192,216927,1,0,0:0:0:0:
109,192,216927,1,0,0:0:0:0:
329,192,216927,1,0,0:0:0:0:
182,192,217065,1,0,0:0:0:0:
402,192,217065,1,0,0:0:0:0:
475,192,217065,1,0,0:0:0:0:
64,192,217341,1,0,0:0:0:0:
182,192,217341,1,0,0:0:0:0:
329,192,217341,1,0,0:0:0:0:
320,192,217480,1,0,0:0:0:0:
448,192,217480,1,0,0:0:0:0:
109,192,217480,1,0,0:0:0:0:
402,192,217480,1,0,0:0:0:0:
256,192,217480,1,0,0:0:0:0:
109,192,217756,128,0,218033:0:0:0:0:
448,192,217756,1,0,0:0:0:0:
256,192,217756,1,0,0:0:0:0:
329,192,217756,1,0,0:0:0:0:
192,192,218033,1,0,0:0:0:0:
402,192,218033,1,0,0:0:0:0:
36,192,218033,1,0,0:0:0:0:
64,192,218309,1,0,0:0:0:0:
402,192,218309,128,0,218724:0:0:0:0:
109,192,218309,1,0,0:0:0:0:
192,192,218447,1,0,0:0:0:0:
256,192,218447,1,0,0:0:0:0:
320,192,218586,1,0,0:0:0:0:
475,192,218586,1,0,0:0:0:0:
192,192,218724,1,0,0:0:0:0:
256,192,218724,1,0,0:0:0:0:
109,192,218724,1,0,0:0:0:0:
109,192,219000,1,0,0:0:0:0:
182,192,219000,1,0,0:0:0:0:
256,192,219000,1,0,0:0:0:0:
192,192,219139,1,0,0:0:0:0:
320,192,219139,1,0,0:0:0:0:
448,192,219139,1,0,0:0:0:0:
402,192,219139,1,0,0:0:0:0:
64,192,219277,1,0,0:0:0:0:
256,192,219277,1,0,0:0:0:0:
109,192,219277,1,0,0:0:0:0:
64,192,219415,1,0,0:0:0:0:
192,192,219415,128,0,219553:0:0:0:0:
256,192,219415,128,0,219553:0:0:0:0:
109,192,219415,1,0,0:0:0:0:
320,192,219553,1,0,0:0:0:0:
402,192,219553,1,0,0:0:0:0:
448,192,219830,1,0,0:0:0:0:
402,192,219830,1,0,0:0:0:0:
256,192,219830,1,0,0:0:0:0:
36,192,220106,1,0,0:0:0:0:
109,192,220106,1,0,0:0:0:0:
329,192,220106,1,0,0:0:0:0:
192,192,220245,1,0,0:0:0:0:
448,192,220245,1,0,0:0:0:0:
109,192,220245,1,0,0:0:0:0:
402,192,220245,1,0,0:0:0:0:
256,192,220245,1,0,0:0:0:0:
192,192,220383,1,0,0:0:0:0:
402,192,220383,1,0,0:0:0:0:
329,192,220383,1,0,0:0:0:0:
256,192,220521,128,0,220798:0:0:0:0:
182,192,220521,1,0,0:0:0:0:
109,192,220521,1,0,0:0:0:0:
448,192,220798,1,0,0:0:0:0:
192,192,220798,1,0,0:0:0:0:
329,192,220798,1,0,0:0:0:0:
448,192,220936,1,0,0:0:0:0:
109,192,220936,1,0,0:0:0:0:
402,192,220936,1,0,0:0:0:0:
192,192,221212,1,0,0:0:0:0:
109,192,221212,1,0,0:0:0:0:
64,192,221351,1,0,0:0:0:0:
448,192,221351,1,0,0:0:0:0:
192,192,221351,1,0,0:0:0:0:
256,192,221351,1,0,0:0:0:0:
402,192,221351,1,0,0:0:0:0:
64,192,221489,1,0,0:0:0:0:
109,192,221489,1,0,0:0:0:0:
64,192,221627,1,0,0:0:0:0:
192,192,221627,1,0,0:0:0:0:
320,192,221627,1,0,0:0:0:0:
109,192,221627,1,0,0:0:0:0:
256,192,221627,1,0,0:0:0:0:
402,192,221627,1,0,0:0:0:0:
320,192,221765,1,0,0:0:0:0:
402,192,221765,1,0,0:0:0:0:
448,192,221904,1,0,0:0:0:0:
320,192,221904,1,0,0:0:0:0:
64,192,221904,1,0,0:0:0:0:
256,192,221904,1,0,0:0:0:0:
182,192,221904,1,0,0:0:0:0:
109,192,221904,1,0,0:0:0:0:
64,192,222042,1,0,0:0:0:0:
475,192,222042,1,0,0:0:0:0:
448,192,222180,1,0,0:0:0:0:
64,192,222180,1,0,0:0:0:0:
192,192,222180,1,0,0:0:0:0:
109,192,222180,1,0,0:0:0:0:
256,192,222180,1,0,0:0:0:0:
402,192,222180,1,0,0:0:0:0:
192,192,222318,1,0,0:0:0:0:
109,192,222318,1,0,0:0:0:0:
64,192,222457,1,0,0:0:0:0:
192,192,222457,1,0,0:0:0:0:
320,192,222457,1,0,0:0:0:0:
448,192,222457,1,0,0:0:0:0:
109,192,222457,1,0,0:0:0:0:
402,192,222457,1,0,0:0:0:0:
448,192,222595,1,0,0:0:0:0:
402,192,222595,1,0,0:0:0:0:
448,192,222733,1,0,0:0:0:0:
320,192,222733,1,0,0:0:0:0:
64,192,222733,1,0,0:0:0:0:
256,192,222733,1,0,0:0:0:0:
402,192,222733,1,0,0:0:0:0:
109,192,222733,1,0,0:0:0:0:
320,192,222871,1,0,0:0:0:0:
64,192,222871,1,0,0:0:0:0:
182,192,222871,1,0,0:0:0:0:
256,192,222871,1,0,0:0:0:0:
475,192,222871,1,0,0:0:0:0:
64,192,223010,1,0,0:0:0:0:
448,192,223010,1,0,0:0:0:0:
109,192,223010,1,0,0:0:0:0:
402,192,223010,1,0,0:0:0:0:
256,192,223010,1,0,0:0:0:0:
320,192,223148,1,0,0:0:0:0:
192,192,223148,1,0,0:0:0:0:
109,192,223148,1,0,0:0:0:0:
402,192,223148,1,0,0:0:0:0:
256,192,223148,1,0,0:0:0:0:
192,192,223286,1,0,0:0:0:0:
64,192,223286,1,0,0:0:0:0:
448,192,223286,1,0,0:0:0:0:
109,192,223286,1,0,0:0:0:0:
256,192,223355,1,0,0:0:0:0:
329,192,223355,1,0,0:0:0:0:
448,192,223424,1,0,0:0:0:0:
402,192,223424,1,0,0:0:0:0:
109,192,223424,1,0,0:0:0:0:
36,192,223424,1,0,0:0:0:0:
182,192,223494,1,0,0:0:0:0:
329,192,223494,1,0,0:0:0:0:
448,192,223563,1,0,0:0:0:0:
256,192,223563,1,0,0:0:0:0:
402,192,223563,1,0,0:0:0:0:
109,192,223563,1,0,0:0:0:0:
64,192,223632,1,0,0:0:0:0:
182,192,223632,1,0,0:0:0:0:
448,192,223701,1,0,0:0:0:0:
256,192,223701,1,0,0:0:0:0:
329,192,223701,1,0,0:0:0:0:
402,192,223701,1,0,0:0:0:0:
182,192,223770,1,0,0:0:0:0:
109,192,223770,1,0,0:0:0:0:
448,192,223839,1,0,0:0:0:0:
256,192,223839,128,0,224945:0:0:0:0:
402,192,223839,1,0,0:0:0:0:
329,192,223839,1,0,0:0:0:0:
36,192,223839,1,0,0:0:0:0:
192,192,224116,1,0,0:0:0:0:
448,192,224116,1,0,0:0:0:0:
402,192,224116,1,0,0:0:0:0:
36,192,224116,1,0,0:0:0:0:
320,192,224392,1,0,0:0:0:0:
192,192,224392,1,0,0:0:0:0:
109,192,224392,1,0,0:0:0:0:
402,192,224392,1,0,0:0:0:0:
402,192,224530,1,0,0:0:0:0:
182,192,224530,1,0,0:0:0:0:
109,192,224669,1,0,0:0:0:0:
36,192,224669,1,0,0:0:0:0:
329,192,224669,1,0,0:0:0:0:
475,192,224669,1,0,0:0:0:0:
402,192,224945,128,0,225775:0:0:0:0:
475,192,224945,1,0,0:0:0:0:
329,192,224945,1,0,0:0:0:0:
64,192,225222,1,0,0:0:0:0:
192,192,225222,1,0,0:0:0:0:
109,192,225222,1,0,0:0:0:0:
256,192,225222,1,0,0:0:0:0:
475,192,225360,1,0,0:0:0:0:
329,192,225360,1,0,0:0:0:0:
192,192,225498,1,0,0:0:0:0:
475,192,225498,1,0,0:0:0:0:
256,192,225498,1,0,0:0:0:0:
36,192,225498,1,0,0:0:0:0:
109,192,225636,1,0,0:0:0:0:
329,192,225636,1,0,0:0:0:0:
448,192,225775,1,0,0:0:0:0:
36,192,225775,128,0,226051:0:0:0:0:
182,192,225775,1,0,0:0:0:0:
256,192,225775,1,0,0:0:0:0:
109,192,226051,128,0,226466:0:0:0:0:
182,192,226051,1,0,0:0:0:0:
329,192,226051,1,0,0:0:0:0:
448,192,226328,1,0,0:0:0:0:
402,192,226328,1,0,0:0:0:0:
256,192,226328,1,0,0:0:0:0:
329,192,226466,128,0,226742:0:0:0:0:
192,192,226466,1,0,0:0:0:0:
36,192,226466,1,0,0:0:0:0:
256,192,226742,128,0,226881:0:0:0:0:
64,192,226742,1,0,0:0:0:0:
109,192,226742,1,0,0:0:0:0:
320,192,226881,1,0,0:0:0:0:
448,192,226881,128,0,227710:0:0:0:0:
402,192,226881,1,0,0:0:0:0:
320,192,227157,1,0,0:0:0:0:
109,192,227157,1,0,0:0:0:0:
182,192,227157,1,0,0:0:0:0:
402,192,227157,1,0,0:0:0:0:
192,192,227434,1,0,0:0:0:0:
109,192,227434,1,0,0:0:0:0:
329,192,227434,1,0,0:0:0:0:
256,192,227434,1,0,0:0:0:0:
182,192,227572,1,0,0:0:0:0:
329,192,227572,1,0,0:0:0:0:
109,192,227710,1,0,0:0:0:0:
36,192,227710,1,0,0:0:0:0:
256,192,227710,1,0,0:0:0:0:
402,192,227710,1,0,0:0:0:0:
320,192,227987,1,0,0:0:0:0:
192,192,227987,1,0,0:0:0:0:
448,192,227987,1,0,0:0:0:0:
402,192,227987,1,0,0:0:0:0:
109,192,227987,1,0,0:0:0:0:
402,192,228263,128,0,229093:0:0:0:0:
64,192,228263,1,0,0:0:0:0:
109,192,228263,1,0,0:0:0:0:
329,192,228263,1,0,0:0:0:0:
475,192,228263,1,0,0:0:0:0:
109,192,228540,1,0,0:0:0:0:
182,192,228540,1,0,0:0:0:0:
329,192,228540,1,0,0:0:0:0:
475,192,228540,1,0,0:0:0:0:
320,192,228816,1,0,0:0:0:0:
256,192,228816,1,0,0:0:0:0:
109,192,228816,1,0,0:0:0:0:
475,192,228816,1,0,0:0:0:0:
320,192,229093,1,0,0:0:0:0:
448,192,229093,1,0,0:0:0:0:
256,192,229093,1,0,0:0:0:0:
36,192,229093,1,0,0:0:0:0:
192,192,229231,1,0,0:0:0:0:
109,192,229231,1,0,0:0:0:0:
448,192,229369,128,0,230199:0:0:0:0:
64,192,229369,1,0,0:0:0:0:
320,192,229369,1,0,0:0:0:0:
402,192,229369,1,0,0:0:0:0:
256,192,229369,1,0,0:0:0:0:
320,192,229646,1,0,0:0:0:0:
109,192,229646,1,0,0:0:0:0:
182,192,229646,1,0,0:0:0:0:
402,192,229646,1,0,0:0:0:0:
64,192,229784,1,0,0:0:0:0:
256,192,229784,1,0,0:0:0:0:
192,192,229922,1,0,0:0:0:0:
320,192,229922,1,0,0:0:0:0:
256,192,229922,1,0,0:0:0:0:
109,192,229922,1,0,0:0:0:0:
320,192,230060,1,0,0:0:0:0:
402,192,230060,1,0,0:0:0:0:
192,192,230199,1,0,0:0:0:0:
109,192,230199,128,0,230475:0:0:0:0:
329,192,230199,1,0,0:0:0:0:
256,192,230199,1,0,0:0:0:0:
192,192,230475,1,0,0:0:0:0:
256,192,230475,128,0,230752:0:0:0:0:
192,192,230752,1,0,0:0:0:0:
64,192,230752,1,0,0:0:0:0:
109,192,230752,1,0,0:0:0:0:
402,192,230890,128,0,231166:0:0:0:0:
320,192,230890,1,0,0:0:0:0:
475,192,230890,1,0,0:0:0:0:
329,192,231166,1,0,0:0:0:0:
256,192,231166,1,0,0:0:0:0:
64,192,231305,1,0,0:0:0:0:
192,192,231305,1,0,0:0:0:0:
448,192,231305,1,0,0:0:0:0:
109,192,231305,1,0,0:0:0:0:
402,192,231305,1,0,0:0:0:0:
320,192,231443,128,0,232272:0:0:0:0:
109,192,231443,1,0,0:0:0:0:
182,192,231443,1,0,0:0:0:0:
475,192,231443,1,0,0:0:0:0:
192,192,231858,1,0,0:0:0:0:
64,192,231858,1,0,0:0:0:0:
109,192,231858,1,0,0:0:0:0:
256,192,231858,1,0,0:0:0:0:
448,192,231996,1,0,0:0:0:0:
402,192,231996,1,0,0:0:0:0:
182,192,232272,1,0,0:0:0:0:
256,192,232272,1,0,0:0:0:0:
64,192,232411,1,0,0:0:0:0:
448,192,232411,1,0,0:0:0:0:
109,192,232411,1,0,0:0:0:0:
402,192,232411,1,0,0:0:0:0:
475,192,232687,128,0,233378:0:0:0:0:
64,192,232687,1,0,0:0:0:0:
109,192,232687,1,0,0:0:0:0:
402,192,232687,1,0,0:0:0:0:
256,192,232687,1,0,0:0:0:0:
182,192,232964,1,0,0:0:0:0:
109,192,232964,1,0,0:0:0:0:
402,192,232964,1,0,0:0:0:0:
329,192,232964,1,0,0:0:0:0:
329,192,233102,1,0,0:0:0:0:
256,192,233102,1,0,0:0:0:0:
109,192,233378,1,0,0:0:0:0:
256,192,233378,1,0,0:0:0:0:
64,192,233517,1,0,0:0:0:0:
320,192,233517,1,0,0:0:0:0:
448,192,233517,1,0,0:0:0:0:
182,192,233517,1,0,0:0:0:0:
402,192,233655,128,0,234070:0:0:0:0:
64,192,233793,1,0,0:0:0:0:
256,192,233793,1,0,0:0:0:0:
182,192,233793,1,0,0:0:0:0:
475,192,233793,1,0,0:0:0:0:
64,192,234070,1,0,0:0:0:0:
109,192,234070,1,0,0:0:0:0:
256,192,234070,1,0,0:0:0:0:
192,192,234208,1,0,0:0:0:0:
320,192,234208,1,0,0:0:0:0:
475,192,234208,1,0,0:0:0:0:
320,192,234484,1,0,0:0:0:0:
402,192,234484,1,0,0:0:0:0:
182,192,234484,1,0,0:0:0:0:
320,192,234623,1,0,0:0:0:0:
64,192,234623,1,0,0:0:0:0:
256,192,234623,1,0,0:0:0:0:
109,192,234623,1,0,0:0:0:0:
475,192,234623,1,0,0:0:0:0:
402,192,234761,1,0,0:0:0:0:
182,192,234761,1,0,0:0:0:0:
109,192,234899,1,0,0:0:0:0:
329,192,234899,1,0,0:0:0:0:
256,192,234899,1,0,0:0:0:0:
64,192,235176,1,0,0:0:0:0:
109,192,235176,1,0,0:0:0:0:
329,192,235176,1,0,0:0:0:0:
448,192,235314,1,0,0:0:0:0:
402,192,235314,1,0,0:0:0:0:
182,192,235314,1,0,0:0:0:0:
448,192,235590,1,0,0:0:0:0:
64,192,235590,1,0,0:0:0:0:
109,192,235590,1,0,0:0:0:0:
320,192,235729,1,0,0:0:0:0:
192,192,235729,1,0,0:0:0:0:
402,192,235729,1,0,0:0:0:0:
256,192,235867,128,0,236282:0:0:0:0:
64,192,236005,1,0,0:0:0:0:
475,192,236005,1,0,0:0:0:0:
402,192,236005,1,0,0:0:0:0:
109,192,236005,1,0,0:0:0:0:
320,192,236282,1,0,0:0:0:0:
64,192,236282,1,0,0:0:0:0:
109,192,236282,1,0,0:0:0:0:
192,192,236420,1,0,0:0:0:0:
402,192,236420,1,0,0:0:0:0:
475,192,236420,1,0,0:0:0:0:
64,192,236696,1,0,0:0:0:0:
192,192,236696,1,0,0:0:0:0:
256,192,236696,1,0,0:0:0:0:
192,192,236835,1,0,0:0:0:0:
448,192,236835,1,0,0:0:0:0:
402,192,236835,1,0,0:0:0:0:
329,192,236835,1,0,0:0:0:0:
109,192,236835,1,0,0:0:0:0:
402,192,236973,128,0,237111:0:0:0:0:
320,192,236973,1,0,0:0:0:0:
475,192,236973,1,0,0:0:0:0:
192,192,237111,1,0,0:0:0:0:
64,192,237111,128,0,237388:0:0:0:0:
256,192,237111,1,0,0:0:0:0:
109,192,237388,128,0,237526:0:0:0:0:
475,192,237388,1,0,0:0:0:0:
329,192,237388,1,0,0:0:0:0:
256,192,237526,128,0,237802:0:0:0:0:
109,192,237802,1,0,0:0:0:0:
329,192,237802,128,0,238079:0:0:0:0:
182,192,237802,1,0,0:0:0:0:
256,192,238079,1,0,0:0:0:0:
475,192,238079,128,0,238494:0:0:0:0:
402,192,238079,1,0,0:0:0:0:
109,192,238494,1,0,0:0:0:0:
182,192,238494,1,0,0:0:0:0:
320,192,238632,1,0,0:0:0:0:
64,192,238632,1,0,0:0:0:0:
256,192,238632,128,0,239047:0:0:0:0:
402,192,238632,1,0,0:0:0:0:
448,192,239047,1,0,0:0:0:0:
182,192,239047,1,0,0:0:0:0:
109,192,239047,1,0,0:0:0:0:
448,192,239323,1,0,0:0:0:0:
64,192,239323,1,0,0:0:0:0:
320,192,239323,1,0,0:0:0:0:
109,192,239323,1,0,0:0:0:0:
256,192,239323,1,0,0:0:0:0:
64,192,239600,1,0,0:0:0:0:
182,192,239600,1,0,0:0:0:0:
256,192,239600,1,0,0:0:0:0:
475,192,239600,1,0,0:0:0:0:
402,192,239600,1,0,0:0:0:0:
192,192,239876,1,0,0:0:0:0:
448,192,239876,1,0,0:0:0:0:
402,192,239876,1,0,0:0:0:0:
329,192,239876,1,0,0:0:0:0:
109,192,239876,1,0,0:0:0:0:
448,192,240153,1,0,0:0:0:0:
402,192,240153,1,0,0:0:0:0:
36,192,240153,1,0,0:0:0:0:
329,192,240153,1,0,0:0:0:0:
256,192,240153,1,0,0:0:0:0:
64,192,240429,1,0,0:0:0:0:
192,192,240429,1,0,0:0:0:0:
109,192,240429,1,0,0:0:0:0:
402,192,240429,1,0,0:0:0:0:
256,192,240429,1,0,0:0:0:0:
448,192,240705,1,0,0:0:0:0:
320,192,240705,1,0,0:0:0:0:
402,192,240705,1,0,0:0:0:0:
256,192,240705,1,0,0:0:0:0:
109,192,240705,1,0,0:0:0:0:
320,192,240844,1,0,0:0:0:0:
64,192,240844,1,0,0:0:0:0:
192,192,240844,1,0,0:0:0:0:
256,192,240844,1,0,0:0:0:0:
402,192,240844,1,0,0:0:0:0:
448,192,240982,1,0,0:0:0:0:
64,192,240982,1,0,0:0:0:0:
109,192,240982,1,0,0:0:0:0:
329,192,240982,1,0,0:0:0:0:
402,192,240982,1,0,0:0:0:0:
192,192,241120,1,0,0:0:0:0:
320,192,241120,1,0,0:0:0:0:
448,192,241120,1,0,0:0:0:0:
256,192,241120,1,0,0:0:0:0:
36,192,241120,1,0,0:0:0:0:
320,192,241258,1,0,0:0:0:0:
402,192,241258,1,0,0:0:0:0:
475,192,241258,1,0,0:0:0:0:
182,192,241258,1,0,0:0:0:0:
109,192,241258,1,0,0:0:0:0:
64,192,241535,128,0,243747:0:0:0:0:
192,192,241535,128,0,243747:0:0:0:0:
475,192,241535,128,0,243747:0:0:0:0:
329,192,241535,128,0,243747:0:0:0:0:
109,192,241535,1,0,0:0:0:0:
402,192,241535,1,0,0:0:0:0:
109,192,241811,1,0,0:0:0:0:
402,192,241950,1,0,0:0:0:0:
256,192,242226,1,0,0:0:0:0:
109,192,242503,1,0,0:0:0:0:
402,192,242779,1,0,0:0:0:0:
256,192,242917,1,0,0:0:0:0:
109,192,243056,1,0,0:0:0:0:
109,192,243332,1,0,0:0:0:0:
256,192,243470,1,0,0:0:0:0:
402,192,243609,1,0,0:0:0:0:
109,192,243747,1,0,0:0:0:0:
402,192,243747,1,0,0:0:0:0:
192,192,243885,1,0,0:0:0:0:
256,192,243885,1,0,0:0:0:0:
402,192,243885,1,0,0:0:0:0:
192,192,244023,1,0,0:0:0:0:
64,192,244023,1,0,0:0:0:0:
448,192,244023,1,0,0:0:0:0:
329,192,244023,1,0,0:0:0:0:
109,192,244023,1,0,0:0:0:0:
320,192,244162,1,0,0:0:0:0:
109,192,244162,1,0,0:0:0:0:
256,192,244162,1,0,0:0:0:0:
402,192,244162,1,0,0:0:0:0:
448,192,244438,1,0,0:0:0:0:
402,192,244438,1,0,0:0:0:0:
182,192,244438,1,0,0:0:0:0:
320,192,244576,1,0,0:0:0:0:
64,192,244576,1,0,0:0:0:0:
109,192,244576,1,0,0:0:0:0:
256,192,244576,1,0,0:0:0:0:
475,192,244576,1,0,0:0:0:0:
320,192,244715,1,0,0:0:0:0:
182,192,244715,1,0,0:0:0:0:
109,192,244715,1,0,0:0:0:0:
402,192,244715,1,0,0:0:0:0:
256,192,244991,1,0,0:0:0:0:
36,192,244991,1,0,0:0:0:0:
475,192,244991,1,0,0:0:0:0:
192,192,245129,1,0,0:0:0:0:
320,192,245129,1,0,0:0:0:0:
402,192,245129,1,0,0:0:0:0:
109,192,245129,1,0,0:0:0:0:
256,192,245129,1,0,0:0:0:0:
475,192,245268,1,0,0:0:0:0:
36,192,245268,1,0,0:0:0:0:
192,192,245406,1,0,0:0:0:0:
109,192,245406,1,0,0:0:0:0:
256,192,245406,1,0,0:0:0:0:
320,192,245544,1,0,0:0:0:0:
402,192,245544,1,0,0:0:0:0:
475,192,245544,1,0,0:0:0:0:
36,192,245544,1,0,0:0:0:0:
64,192,245682,1,0,0:0:0:0:
192,192,245682,1,0,0:0:0:0:
448,192,245682,1,0,0:0:0:0:
109,192,245682,1,0,0:0:0:0:
256,192,245682,1,0,0:0:0:0:
402,192,245959,1,0,0:0:0:0:
329,192,245959,1,0,0:0:0:0:
182,192,245959,1,0,0:0:0:0:
109,192,246097,1,0,0:0:0:0:
256,192,246097,1,0,0:0:0:0:
329,192,246097,1,0,0:0:0:0:
64,192,246235,1,0,0:0:0:0:
402,192,246235,1,0,0:0:0:0:
182,192,246235,1,0,0:0:0:0:
475,192,246235,1,0,0:0:0:0:
256,192,246235,1,0,0:0:0:0:
192,192,246374,1,0,0:0:0:0:
448,192,246374,1,0,0:0:0:0:
109,192,246374,1,0,0:0:0:0:
329,192,246374,1,0,0:0:0:0:
109,192,246650,1,0,0:0:0:0:
256,192,246650,1,0,0:0:0:0:
475,192,246650,1,0,0:0:0:0:
320,192,246788,1,0,0:0:0:0:
192,192,246788,1,0,0:0:0:0:
256,192,246788,1,0,0:0:0:0:
402,192,246788,1,0,0:0:0:0:
36,192,246788,1,0,0:0:0:0:
109,192,246927,1,0,0:0:0:0:
329,192,246927,1,0,0:0:0:0:
402,192,246927,1,0,0:0:0:0:
182,192,246927,1,0,0:0:0:0:
109,192,247203,1,0,0:0:0:0:
329,192,247203,1,0,0:0:0:0:
256,192,247203,1,0,0:0:0:0:
192,192,247341,1,0,0:0:0:0:
448,192,247341,1,0,0:0:0:0:
36,192,247341,1,0,0:0:0:0:
256,192,247341,1,0,0:0:0:0:
402,192,247341,1,0,0:0:0:0:
109,192,247480,1,0,0:0:0:0:
329,192,247480,1,0,0:0:0:0:
448,192,247618,1,0,0:0:0:0:
402,192,247618,1,0,0:0:0:0:
182,192,247618,1,0,0:0:0:0:
320,192,247756,1,0,0:0:0:0:
256,192,247756,1,0,0:0:0:0:
109,192,247756,1,0,0:0:0:0:
36,192,247756,1,0,0:0:0:0:
109,192,247894,1,0,0:0:0:0:
256,192,247894,1,0,0:0:0:0:
402,192,247894,1,0,0:0:0:0:
475,192,247894,1,0,0:0:0:0:
182,192,247894,1,0,0:0:0:0:
402,192,248171,1,0,0:0:0:0:
256,192,248171,1,0,0:0:0:0:
182,192,248171,1,0,0:0:0:0:
64,192,248309,1,0,0:0:0:0:
475,192,248309,1,0,0:0:0:0:
329,192,248309,1,0,0:0:0:0:
192,192,248447,1,0,0:0:0:0:
402,192,248447,1,0,0:0:0:0:
256,192,248447,1,0,0:0:0:0:
109,192,248447,1,0,0:0:0:0:
36,192,248447,1,0,0:0:0:0:
448,192,248586,1,0,0:0:0:0:
109,192,248586,1,0,0:0:0:0:
256,192,248586,1,0,0:0:0:0:
329,192,248586,1,0,0:0:0:0:
192,192,248862,1,0,0:0:0:0:
109,192,248862,1,0,0:0:0:0:
402,192,248862,1,0,0:0:0:0:
64,192,249000,1,0,0:0:0:0:
320,192,249000,1,0,0:0:0:0:
448,192,249000,1,0,0:0:0:0:
256,192,249000,1,0,0:0:0:0:
182,192,249000,1,0,0:0:0:0:
448,192,249139,1,0,0:0:0:0:
256,192,249139,1,0,0:0:0:0:
402,192,249139,1,0,0:0:0:0:
109,192,249139,1,0,0:0:0:0:
109,192,249415,1,0,0:0:0:0:
256,192,249415,1,0,0:0:0:0:
402,192,249415,1,0,0:0:0:0:
64,192,249553,1,0,0:0:0:0:
192,192,249553,1,0,0:0:0:0:
448,192,249553,1,0,0:0:0:0:
329,192,249553,1,0,0:0:0:0:
256,192,249553,1,0,0:0:0:0:
109,192,249692,1,0,0:0:0:0:
402,192,249692,1,0,0:0:0:0:
320,192,249830,1,0,0:0:0:0:
256,192,249830,1,0,0:0:0:0:
182,192,249830,1,0,0:0:0:0:
448,192,249968,1,0,0:0:0:0:
109,192,249968,1,0,0:0:0:0:
36,192,249968,1,0,0:0:0:0:
402,192,249968,1,0,0:0:0:0:
320,192,250106,1,0,0:0:0:0:
192,192,250106,1,0,0:0:0:0:
402,192,250106,1,0,0:0:0:0:
256,192,250106,1,0,0:0:0:0:
109,192,250106,1,0,0:0:0:0:
448,192,250245,1,0,0:0:0:0:
402,192,250245,1,0,0:0:0:0:
448,192,250383,1,0,0:0:0:0:
192,192,250383,1,0,0:0:0:0:
64,192,250383,1,0,0:0:0:0:
402,192,250383,1,0,0:0:0:0:
109,192,250383,1,0,0:0:0:0:
256,192,250383,1,0,0:0:0:0:
192,192,250521,1,0,0:0:0:0:
109,192,250521,1,0,0:0:0:0:
256,192,250521,1,0,0:0:0:0:
329,192,250521,1,0,0:0:0:0:
192,192,250659,1,0,0:0:0:0:
320,192,250659,1,0,0:0:0:0:
256,192,250659,1,0,0:0:0:0:
402,192,250659,1,0,0:0:0:0:
448,192,250798,1,0,0:0:0:0:
320,192,250798,1,0,0:0:0:0:
64,192,250798,1,0,0:0:0:0:
402,192,250798,1,0,0:0:0:0:
109,192,250798,1,0,0:0:0:0:
256,192,250798,1,0,0:0:0:0:
320,192,250936,1,0,0:0:0:0:
256,192,250936,1,0,0:0:0:0:
182,192,250936,1,0,0:0:0:0:
402,192,250936,1,0,0:0:0:0:
192,192,251074,1,0,0:0:0:0:
320,192,251074,1,0,0:0:0:0:
256,192,251074,1,0,0:0:0:0:
109,192,251074,1,0,0:0:0:0:
192,192,251212,1,0,0:0:0:0:
64,192,251212,1,0,0:0:0:0:
448,192,251212,1,0,0:0:0:0:
109,192,251212,1,0,0:0:0:0:
256,192,251212,1,0,0:0:0:0:
402,192,251212,1,0,0:0:0:0:
192,192,251351,1,0,0:0:0:0:
109,192,251351,1,0,0:0:0:0:
256,192,251351,1,0,0:0:0:0:
329,192,251351,1,0,0:0:0:0:
320,192,251489,1,0,0:0:0:0:
192,192,251489,1,0,0:0:0:0:
402,192,251489,1,0,0:0:0:0:
256,192,251489,1,0,0:0:0:0:
448,192,251627,1,0,0:0:0:0:
320,192,251627,1,0,0:0:0:0:
64,192,251627,1,0,0:0:0:0:
192,192,251627,1,0,0:0:0:0:
109,192,251627,1,0,0:0:0:0:
402,192,251627,1,0,0:0:0:0:
192,192,251765,1,0,0:0:0:0:
320,192,251765,1,0,0:0:0:0:
109,192,251765,1,0,0:0:0:0:
402,192,251765,1,0,0:0:0:0:
109,192,251904,1,0,0:0:0:0:
36,192,251904,1,0,0:0:0:0:
402,192,251904,1,0,0:0:0:0:
475,192,251904,1,0,0:0:0:0:
448,192,252042,1,0,0:0:0:0:
320,192,252042,1,0,0:0:0:0:
192,192,252042,1,0,0:0:0:0:
64,192,252042,1,0,0:0:0:0:
402,192,252042,1,0,0:0:0:0:
109,192,252042,1,0,0:0:0:0:
320,192,252180,1,0,0:0:0:0:
256,192,252180,1,0,0:0:0:0:
402,192,252180,1,0,0:0:0:0:
475,192,252180,1,0,0:0:0:0:
109,192,252318,1,0,0:0:0:0:
182,192,252318,1,0,0:0:0:0:
256,192,252318,1,0,0:0:0:0:
320,192,252388,1,0,0:0:0:0:
448,192,252388,1,0,0:0:0:0:
402,192,252388,1,0,0:0:0:0:
192,192,252457,1,0,0:0:0:0:
109,192,252457,1,0,0:0:0:0:
256,192,252457,1,0,0:0:0:0:
320,192,252526,1,0,0:0:0:0:
448,192,252526,1,0,0:0:0:0:
402,192,252526,1,0,0:0:0:0:
192,192,252595,1,0,0:0:0:0:
109,192,252595,1,0,0:0:0:0:
329,192,252595,1,0,0:0:0:0:
402,192,252595,1,0,0:0:0:0:
475,192,252595,1,0,0:0:0:0:
256,192,252595,1,0,0:0:0:0:
192,192,252733,1,0,0:0:0:0:
109,192,252733,1,0,0:0:0:0:
256,192,252733,1,0,0:0:0:0:
36,192,252733,1,0,0:0:0:0:
448,192,252871,1,0,0:0:0:0:
320,192,252871,1,0,0:0:0:0:
256,192,252871,1,0,0:0:0:0:
402,192,252871,1,0,0:0:0:0:
448,192,253010,1,0,0:0:0:0:
320,192,253010,1,0,0:0:0:0:
192,192,253010,1,0,0:0:0:0:
402,192,253010,1,0,0:0:0:0:
109,192,253010,1,0,0:0:0:0:
256,192,253010,1,0,0:0:0:0:
64,192,253148,1,0,0:0:0:0:
109,192,253148,1,0,0:0:0:0:
256,192,253148,1,0,0:0:0:0:
182,192,253148,1,0,0:0:0:0:
320,192,253286,1,0,0:0:0:0:
182,192,253286,1,0,0:0:0:0:
256,192,253286,1,0,0:0:0:0:
402,192,253286,1,0,0:0:0:0:
320,192,253424,1,0,0:0:0:0:
448,192,253424,1,0,0:0:0:0:
402,192,253424,1,0,0:0:0:0:
256,192,253424,1,0,0:0:0:0:
109,192,253424,1,0,0:0:0:0:
182,192,253424,1,0,0:0:0:0:
448,192,253563,1,0,0:0:0:0:
402,192,253563,1,0,0:0:0:0:
329,192,253563,1,0,0:0:0:0:
256,192,253563,1,0,0:0:0:0:
192,192,253701,1,0,0:0:0:0:
256,192,253701,1,0,0:0:0:0:
109,192,253701,1,0,0:0:0:0:
329,192,253701,1,0,0:0:0:0:
448,192,253839,1,0,0:0:0:0:
320,192,253839,1,0,0:0:0:0:
192,192,253839,1,0,0:0:0:0:
64,192,253839,1,0,0:0:0:0:
109,192,253839,1,0,0:0:0:0:
402,192,253839,1,0,0:0:0:0:
448,192,253977,1,0,0:0:0:0:
402,192,253977,1,0,0:0:0:0:
182,192,253977,1,0,0:0:0:0:
109,192,253977,1,0,0:0:0:0:
320,192,254116,1,0,0:0:0:0:
64,192,254116,1,0,0:0:0:0:
109,192,254116,1,0,0:0:0:0:
402,192,254116,1,0,0:0:0:0:
448,192,254254,1,0,0:0:0:0:
64,192,254254,128,0,254530:0:0:0:0:
192,192,254254,128,0,254530:0:0:0:0:
320,192,254254,1,0,0:0:0:0:
402,192,254254,1,0,0:0:0:0:
109,192,254254,128,0,254530:0:0:0:0:
320,192,254530,1,0,0:0:0:0:
402,192,254530,1,0,0:0:0:0:
256,192,254530,1,0,0:0:0:0:
192,192,254600,1,0,0:0:0:0:
64,192,254600,1,0,0:0:0:0:
109,192,254600,1,0,0:0:0:0:
320,192,254669,1,0,0:0:0:0:
402,192,254669,1,0,0:0:0:0:
256,192,254669,1,0,0:0:0:0:
192,192,254738,1,0,0:0:0:0:
64,192,254738,1,0,0:0:0:0:
109,192,254738,1,0,0:0:0:0:
192,192,254807,1,0,0:0:0:0:
64,192,254807,1,0,0:0:0:0:
109,192,254807,1,0,0:0:0:0:
256,192,254807,1,0,0:0:0:0:
329,192,254807,1,0,0:0:0:0:
402,192,254807,1,0,0:0:0:0:
320,192,254945,1,0,0:0:0:0:
448,192,254945,1,0,0:0:0:0:
402,192,254945,1,0,0:0:0:0:
256,192,254945,1,0,0:0:0:0:
192,192,255083,1,0,0:0:0:0:
320,192,255083,1,0,0:0:0:0:
109,192,255083,1,0,0:0:0:0:
402,192,255083,1,0,0:0:0:0:
192,192,255222,1,0,0:0:0:0:
64,192,255222,1,0,0:0:0:0:
448,192,255222,1,0,0:0:0:0:
109,192,255222,1,0,0:0:0:0:
402,192,255222,1,0,0:0:0:0:
256,192,255222,1,0,0:0:0:0:
320,192,255360,1,0,0:0:0:0:
109,192,255360,1,0,0:0:0:0:
402,192,255360,1,0,0:0:0:0:
36,192,255360,1,0,0:0:0:0:
256,192,255498,1,0,0:0:0:0:
182,192,255498,1,0,0:0:0:0:
475,192,255498,1,0,0:0:0:0:
329,192,255498,1,0,0:0:0:0:
448,192,255636,1,0,0:0:0:0:
64,192,255636,1,0,0:0:0:0:
192,192,255636,1,0,0:0:0:0:
109,192,255636,1,0,0:0:0:0:
402,192,255636,1,0,0:0:0:0:
329,192,255636,1,0,0:0:0:0:
64,192,255775,1,0,0:0:0:0:
182,192,255775,1,0,0:0:0:0:
256,192,255775,1,0,0:0:0:0:
475,192,255775,1,0,0:0:0:0:
320,192,255913,1,0,0:0:0:0:
402,192,255913,1,0,0:0:0:0:
256,192,255913,1,0,0:0:0:0:
109,192,255913,1,0,0:0:0:0:
64,192,256051,1,0,0:0:0:0:
320,192,256051,1,0,0:0:0:0:
448,192,256051,1,0,0:0:0:0:
402,192,256051,1,0,0:0:0:0:
109,192,256051,1,0,0:0:0:0:
182,192,256051,1,0,0:0:0:0:
109,192,256189,1,0,0:0:0:0:
36,192,256189,1,0,0:0:0:0:
475,192,256189,1,0,0:0:0:0:
402,192,256189,1,0,0:0:0:0:
329,192,256328,1,0,0:0:0:0:
256,192,256328,1,0,0:0:0:0:
182,192,256328,1,0,0:0:0:0:
64,192,256466,128,0,256604:0:0:0:0:
448,192,256466,128,0,256604:0:0:0:0:
109,192,256466,128,0,256604:0:0:0:0:
402,192,256466,128,0,256604:0:0:0:0:
320,192,256604,128,0,256742:0:0:0:0:
192,192,256604,128,0,256742:0:0:0:0:
256,192,256604,128,0,256742:0:0:0:0:
64,192,256742,128,0,256881:0:0:0:0:
448,192,256742,128,0,256881:0:0:0:0:
109,192,256742,128,0,256881:0:0:0:0:
402,192,256742,128,0,256881:0:0:0:0:
192,192,256881,128,0,257019:0:0:0:0:
320,192,256881,128,0,257019:0:0:0:0:
256,192,256881,128,0,257019:0:0:0:0:
448,192,257019,1,0,0:0:0:0:
64,192,257019,128,0,257434:0:0:0:0:
109,192,257019,128,0,257434:0:0:0:0:
402,192,257019,1,0,0:0:0:0:
192,192,257157,1,0,0:0:0:0:
256,192,257157,1,0,0:0:0:0:
448,192,257295,1,0,0:0:0:0:
402,192,257295,1,0,0:0:0:0:
448,192,257434,128,0,257848:0:0:0:0:
320,192,257434,1,0,0:0:0:0:
402,192,257434,128,0,257848:0:0:0:0:
256,192,257434,1,0,0:0:0:0:
64,192,257572,1,0,0:0:0:0:
109,192,257572,1,0,0:0:0:0:
320,192,257710,1,0,0:0:0:0:
256,192,257710,1,0,0:0:0:0:
192,192,257848,128,0,258263:0:0:0:0:
64,192,257848,1,0,0:0:0:0:
329,192,257848,128,0,258263:0:0:0:0:
109,192,257848,1,0,0:0:0:0:
109,192,257987,1,0,0:0:0:0:
402,192,257987,1,0,0:0:0:0:
402,192,258125,1,0,0:0:0:0:
475,192,258125,1,0,0:0:0:0:
402,192,258263,128,0,258678:0:0:0:0:
448,192,258263,1,0,0:0:0:0:
109,192,258263,128,0,258678:0:0:0:0:
256,192,258263,1,0,0:0:0:0:
256,192,258401,1,0,0:0:0:0:
182,192,258401,1,0,0:0:0:0:
329,192,258540,1,0,0:0:0:0:
36,192,258540,1,0,0:0:0:0:
192,192,258678,1,0,0:0:0:0:
448,192,258678,128,0,258816:0:0:0:0:
256,192,258678,128,0,258816:0:0:0:0:
64,192,258816,128,0,258954:0:0:0:0:
109,192,258816,128,0,258954:0:0:0:0:
448,192,258954,1,0,0:0:0:0:
320,192,258954,1,0,0:0:0:0:
402,192,258954,1,0,0:0:0:0:
256,192,258954,1,0,0:0:0:0:
192,192,259023,1,0,0:0:0:0:
64,192,259023,1,0,0:0:0:0:
109,192,259023,1,0,0:0:0:0:
320,192,259093,1,0,0:0:0:0:
448,192,259093,1,0,0:0:0:0:
402,192,259093,1,0,0:0:0:0:
256,192,259093,1,0,0:0:0:0:
192,192,259162,1,0,0:0:0:0:
64,192,259162,1,0,0:0:0:0:
109,192,259162,1,0,0:0:0:0:
320,192,259231,1,0,0:0:0:0:
448,192,259231,1,0,0:0:0:0:
402,192,259231,1,0,0:0:0:0:
256,192,259231,1,0,0:0:0:0:
64,192,259507,128,0,261166:0:0:0:0:
192,192,259507,128,0,261166:0:0:0:0:
320,192,259507,128,0,261166:0:0:0:0:
448,192,259507,128,0,261166:0:0:0:0:
109,192,259507,128,0,261166:0:0:0:0:
402,192,259507,128,0,261166:0:0:0:0:
