osu file format v14

[General]
AudioFilename: audio.mp3
AudioLeadIn: 0
PreviewTime: 9642
Countdown: 1
SampleSet: Soft
StackLeniency: 0.5
Mode: 0
LetterboxInBreaks: 0
WidescreenStoryboard: 1

[Editor]
Bookmarks: 9847,14071,19931,25642,34242,42801,45343,57312,57368,74618,79585,89222,91743,103128,110101,127949,174885,182277
DistanceSpacing: 0.8
BeatDivisor: 1
GridSize: 32
TimelineZoom: 2.4

[Metadata]
Title:Rainy Song
TitleUnicode:Rainy Song
Artist:Tomoya Naka
ArtistUnicode:Tomoya Naka
Creator:Veridian
Version:Insane
Source:
Tags:Piano sad cut ver classical noffy
BeatmapID:1447422
BeatmapSetID:683910

[Difficulty]
HPDrainRate:6
CircleSize:4.2
OverallDifficulty:7.5
ApproachRate:8
SliderMultiplier:2.3
SliderTickRate:1

[Events]
//Background and Video events
0,0,"wallhaven-356996.jpg",0,0
//Break Periods
//Storyboard Layer 0 (Background)
//Storyboard Layer 1 (Fail)
//Storyboard Layer 2 (Pass)
//Storyboard Layer 3 (Foreground)
//Storyboard Sound Samples

[TimingPoints]
9847,816.326530612245,4,2,1,30,1,0
11071,824.742268041237,4,2,1,30,1,0
11071,-133.333333333333,4,2,1,30,0,0
11483,689.655172413793,4,2,1,30,1,0
11827,731.707317073171,4,2,1,30,1,0
12192,764.331210191083,4,2,1,30,1,0
12192,-133.333333333333,4,2,1,30,0,0
12956,731.707317073171,4,2,1,30,1,0
13687,769.230769230769,4,2,1,30,1,0
14071,750,4,2,1,30,1,0
14071,-133.333333333333,4,2,1,30,0,0
14071,-128.205128205128,4,2,1,30,0,0
14446,705.882352941176,4,2,1,30,1,0
14798,789.473684210526,4,2,1,30,1,0
15192,725.513905683192,4,2,1,30,1,0
15192,-133.333333333333,4,2,1,30,0,0
17005,705.882352941176,4,2,1,30,1,0
17005,-133.333333333333,4,2,1,30,0,0
17710,759.493670886075,4,2,1,30,1,0
18089,731.70731707317,4,2,1,30,1,0
18089,-133.333333333333,4,2,1,30,0,0
18820,740.74074074074,4,2,1,30,1,0
19190,-133.333333333333,4,2,1,30,0,0
19931,-129.87012987013,4,2,1,30,0,0
20301,705.882352941175,4,2,1,30,1,0
21006,740.740740740739,4,2,1,30,1,0
21746,701.754385964912,4,2,1,30,1,0
22447,659.340659340659,4,2,1,30,1,0
22776,845.070422535211,4,2,1,30,1,0
22776,-133.333333333333,4,2,1,30,0,0
23198,681.818181818182,4,2,1,30,1,0
23879,697.674418604651,4,2,1,30,1,0
23879,-133.333333333333,4,2,1,30,0,0
24576,722.89156626506,4,2,1,30,1,0
25298,689.655172413793,4,2,1,30,1,0
25642,845.070422535211,4,2,1,30,1,0
25642,-121.951219512195,4,2,1,30,0,0
26064,705.882352941176,4,2,1,30,1,0
26416,710.059171597633,4,2,1,30,1,0
26771,-133.333333333333,4,2,1,30,0,0
28191,750,4,2,1,30,1,0
28566,714.285714285714,4,2,1,30,1,0
28566,-133.333333333333,4,2,1,30,0,0
29994,736.196319018405,4,2,1,30,1,0
29994,-133.333333333333,4,2,1,30,0,0
31466,714.285714285714,4,2,1,30,1,0
31466,-133.333333333333,4,2,1,30,0,0
32180,659.34065934066,4,2,1,30,1,0
32509,705.882352941177,4,2,1,30,1,0
32509,-133.333333333333,4,2,1,30,0,0
33214,722.891566265061,4,2,1,30,1,0
34298,701.754385964912,4,2,1,30,1,0
34473,-100,4,2,1,5,0,0
34648,-100,4,2,1,40,0,0
34824,-100,4,2,1,5,0,0
34999,-100,4,2,1,40,0,0
35175,-100,4,2,1,5,0,0
35350,-133.333333333333,4,2,1,40,0,0
36403,689.655172413793,4,2,1,30,1,0
37092,784.313725490196,4,2,1,30,1,0
37315,-100,4,2,1,5,0,0
37484,674.157303370787,4,2,1,30,1,0
37652,-100,4,2,1,5,0,0
37821,-100,4,2,1,40,0,0
37989,-100,4,2,1,5,0,0
38158,705.882352941177,4,2,1,40,1,0
38158,-133.333333333333,4,2,1,40,0,0
39922,705.882352941177,4,2,1,30,1,0
40098,-100,4,2,1,5,0,0
40274,659.34065934066,4,2,1,40,1,0
40274,-100,4,2,1,40,0,0
40438,-100,4,2,1,5,0,0
40603,705.882352941177,4,2,1,30,1,0
40627,-100,4,2,1,40,0,0
40779,-100,4,2,1,5,0,0
40955,731.261425959781,4,2,1,30,1,0
40955,-133.333333333333,4,2,1,40,0,0
41686,821.917808219178,4,2,1,30,1,0
42096,705.882352941176,4,2,1,30,1,0
42801,800,4,2,1,30,1,0
42801,-133.333333333333,4,2,1,30,0,0
42801,-121.951219512195,4,2,1,30,0,0
43201,666.666666666666,4,2,1,30,1,0
43534,750,4,2,1,30,1,0
43909,745.341614906832,4,2,1,30,1,0
45399,800,4,2,1,30,1,0
45799,689.655172413792,4,2,1,30,1,0
45799,-133.333333333333,4,2,1,30,0,0
46143,631.57894736842,4,2,1,30,1,0
46458,714.285714285714,4,2,1,30,1,0
46815,714.285714285714,4,2,1,30,1,0
47886,740.740740740741,4,2,1,30,1,0
48576,-100,4,2,1,5,0,0
48626,794.701986754967,4,2,1,30,1,0
48626,-133.333333333333,4,2,1,30,0,0
49023,666.666666666667,4,2,1,30,1,0
49356,705.882352941176,4,2,1,30,1,0
49708,718.562874251497,4,2,1,30,1,0
51145,740.740740740741,4,2,1,30,1,0
51515,705.882352941176,4,2,1,40,1,0
51515,-133.333333333333,4,2,1,40,0,0
52573,722.891566265059,4,2,1,40,1,0
52573,-133.333333333333,4,2,1,40,0,0
53295,-133.333333333333,4,2,1,5,0,0
53657,736.196319018405,4,2,1,40,1,0
54341,-100,4,2,1,5,0,0
54393,827.586206896552,4,2,1,40,1,0
54393,-133.333333333333,4,2,1,40,0,0
54806,664.819944598338,4,2,1,30,1,0
55138,697.674418604651,4,2,1,30,1,0
55835,774.193548387097,4,2,1,30,1,0
56222,764.331210191083,4,2,1,30,1,0
57368,800,4,2,1,30,1,0
57368,-120.481927710843,4,2,1,30,0,0
57768,645.161290322581,4,2,1,30,1,0
58090,789.473684210526,4,2,1,30,1,0
58484,743.034055727554,4,2,1,30,1,0
58484,-133.333333333333,4,2,1,30,0,0
59598,701.754385964912,4,2,1,30,1,0
60299,727.272727272727,4,2,1,30,1,0
60299,-133.333333333333,4,2,1,30,0,0
63208,722.89156626506,4,2,1,30,1,0
63208,-133.333333333333,4,2,1,30,0,0
63930,769.230769230769,4,2,1,30,1,0
64314,774.193548387097,4,2,1,30,1,0
65862,697.674418604651,4,2,1,30,1,0
66210,714.285714285714,4,2,1,30,1,0
67281,-133.333333333333,4,2,1,30,0,0
71923,789.473684210526,4,2,1,30,1,0
71923,-133.333333333333,4,2,1,30,0,0
72317,705.882352941176,4,2,1,30,1,0
72669,705.882352941176,4,2,1,30,1,0
73021,-133.333333333333,4,2,1,30,0,0
73374,-133.333333333333,4,2,1,5,0,0
73727,594.059405940594,4,2,1,30,1,0
73727,-133.333333333333,4,2,1,30,0,0
74321,-133.333333333333,4,2,1,5,0,0
74618,-133.333333333333,4,2,1,30,0,0
74915,714.285714285714,4,2,1,30,1,0
74915,-133.333333333333,4,2,1,30,0,0
77772,747.663551401869,4,2,1,30,1,0
77772,-133.333333333333,4,2,1,30,0,0
79641,714.285714285714,4,2,1,30,1,0
80712,697.674418604651,4,2,1,30,1,0
80886,-100,4,2,1,5,0,0
81060,-100,4,2,1,30,0,0
81216,-100,4,2,1,5,0,0
81409,769.230769230769,4,2,1,30,1,0
81601,-100,4,2,1,5,0,0
81793,705.882352941176,4,2,1,30,1,0
81793,-133.333333333333,4,2,1,30,0,0
82145,-133.333333333333,4,2,1,5,0,0
82498,714.285714285713,4,2,1,30,1,0
83569,714.285714285713,4,2,1,30,1,0
83747,-100,4,2,1,5,0,0
83926,-100,4,2,1,40,0,0
84104,-100,4,2,1,5,0,0
84283,-100,4,2,1,40,0,0
84461,-100,4,2,1,5,0,0
84640,-133.333333333333,4,2,1,40,0,0
84997,-133.333333333333,4,2,1,5,0,0
85354,-133.333333333333,4,2,1,40,0,0
86426,740.740740740739,4,2,1,40,1,0
86611,-100,4,2,1,5,0,0
86796,638.297872340424,4,2,1,40,1,0
86927,-100,4,2,1,5,0,0
87115,749.999999999998,4,2,1,40,1,0
87302,-100,4,2,1,5,0,0
87490,685.714285714286,4,2,1,40,1,0
87490,-133.333333333333,4,2,1,40,0,0
87832,-133.333333333333,4,2,1,5,0,0
88175,-133.333333333333,4,2,1,40,0,0
88861,722.89156626506,4,2,1,30,1,0
89222,810.810810810811,4,2,1,30,1,0
89222,-123.456790123457,4,2,1,30,0,0
89627,705.882352941176,4,2,1,30,1,0
90332,733.94495412844,4,2,1,30,1,0
92166,718.562874251497,4,2,1,30,1,0
92166,-133.333333333333,4,2,1,30,0,0
95040,689.655172413793,4,2,1,40,1,0
95040,-133.333333333333,4,2,1,40,0,0
97108,727.272727272727,4,2,1,40,1,0
97835,701.754385964912,4,2,1,50,1,0
98010,-100,4,2,1,5,0,0
98185,-100,4,2,1,50,0,0
98361,-100,4,2,1,5,0,0
98536,-100,4,2,1,50,0,0
98712,-100,4,2,1,5,0,0
98887,-100,4,2,1,50,0,0
99238,727.272727272727,4,2,1,30,1,0
99238,-133.333333333333,4,2,1,30,0,0
99965,-133.333333333333,4,2,1,5,0,0
100692,712.166172106825,4,2,1,30,1,0
100692,-133.333333333333,4,2,1,20,0,0
103540,800,4,2,1,30,1,0
103540,-133.333333333333,4,2,1,30,0,0
103740,-133.333333333333,4,2,1,5,0,0
103940,638.297872340426,4,2,1,30,1,0
103940,-133.333333333333,4,2,1,30,0,0
104099,-133.333333333333,4,2,1,5,0,0
104259,697.674418604652,4,2,1,30,1,0
104259,-133.333333333333,4,2,1,30,0,0
104433,-133.333333333333,4,2,1,5,0,0
104607,-133.333333333333,4,2,1,30,0,0
106352,681.818181818183,4,2,1,40,1,0
106352,-133.333333333333,4,2,1,40,0,0
106522,-133.333333333333,4,2,1,5,0,0
106692,-133.333333333333,4,2,1,40,0,0
106862,-133.333333333333,4,2,1,5,0,0
107033,-133.333333333333,4,2,1,40,0,0
107203,-133.333333333333,4,2,1,5,0,0
107374,-133.333333333333,4,2,1,40,0,0
109079,674.157303370788,4,2,1,50,1,0
109247,-100,4,2,1,5,0,0
109416,-100,4,2,1,50,0,0
109578,-100,4,2,1,5,0,0
109753,697.674418604653,4,2,1,50,1,0
109918,-100,4,2,1,5,0,0
110101,731.707317073172,4,2,1,50,1,0
110101,-96.1538461538461,4,2,1,50,0,0
110466,681.818181818183,4,2,1,50,1,0
111829,705.882352941178,4,2,1,60,1,0
112005,-100,4,2,1,5,0,0
112181,-100,4,2,1,60,0,0
112358,-100,4,2,1,5,0,0
112534,-100,4,2,1,60,0,0
112711,-100,4,2,1,5,0,0
112887,-100,4,2,1,60,0,0
113593,774.193548387097,4,2,1,30,1,0
113593,-133.333333333333,4,2,1,50,0,0
113980,-133.333333333333,4,2,1,5,0,0
114367,-200,4,2,1,40,0,0
114754,-200,4,2,1,5,0,0
115141,1708.18505338078,4,2,1,30,1,0
115141,-200,4,2,1,20,0,0
115995,-200,4,2,1,5,0,0
117276,779.220779220779,4,2,1,40,1,0
117665,681.818181818182,4,2,1,70,1,0
118005,705.882352941176,4,2,1,40,1,0
118357,749.999999999998,4,2,1,70,1,1
118544,-100,4,2,1,5,0,1
118732,674.157303370785,4,2,1,70,1,1
118902,-100,4,2,1,5,0,1
119069,664.819944598338,4,2,1,70,1,1
119235,-100,4,2,1,5,0,1
119401,-100,4,2,1,70,0,1
119567,-100,4,2,1,5,0,1
119733,-100,4,2,1,70,0,0
121063,652.173913043478,4,2,1,70,1,1
121226,-100,4,2,1,5,0,1
121392,-100,4,2,1,70,0,1
121552,-100,4,2,1,5,0,1
121718,-100,4,2,1,70,0,1
121878,-100,4,2,1,5,0,1
122044,-100,4,2,1,70,0,1
122204,-100,4,2,1,5,0,1
122370,-100,4,2,1,70,0,0
123671,666.666666666667,4,2,1,70,1,1
123837,-100,4,2,1,5,0,1
124003,-100,4,2,1,70,0,1
124171,-100,4,2,1,5,0,1
124337,-100,4,2,1,70,0,1
124504,-100,4,2,1,5,0,1
124670,-100,4,2,1,70,0,1
124837,-100,4,2,1,5,0,1
125003,-100,4,2,1,70,0,0
126337,645.161290322581,4,2,1,70,1,1
126498,-100,4,2,1,5,0,1
126664,-100,4,2,1,70,0,1
126820,-100,4,2,1,5,0,1
126986,-100,4,2,1,70,0,1
127143,-100,4,2,1,5,0,1
127309,-100,4,2,1,70,0,0
127949,550.45871559633,4,2,1,70,1,0
128224,-100,4,2,1,5,0,0
128499,495.867768595041,4,2,1,70,1,0
128994,638.297872340426,4,2,1,70,1,1
129153,-100,4,2,1,5,0,1
129313,-100,4,2,1,70,0,1
129467,-100,4,2,1,5,0,1
129632,659.340659340659,4,2,1,70,1,1
129796,-100,4,2,1,5,0,1
129956,-100,4,2,1,70,0,1
130126,-100,4,2,1,5,0,1
130286,-100,4,2,1,70,0,1
130621,697.674418604651,4,2,1,70,1,0
131318,666.666666666667,4,2,1,70,1,0
131651,652.173913043478,4,2,1,70,1,1
131814,-100,4,2,1,5,0,1
131974,-100,4,2,1,70,0,1
132140,-100,4,2,1,5,0,1
132300,-100,4,2,1,70,0,1
132466,-100,4,2,1,5,0,1
132626,-100,4,2,1,70,0,1
132792,-100,4,2,1,5,0,1
132952,-100,4,2,1,70,0,0
134259,662.983425414365,4,2,1,70,1,1
134424,-100,4,2,1,5,0,1
134584,-100,4,2,1,70,0,1
134756,-100,4,2,1,5,0,1
134916,-100,4,2,1,70,0,1
135087,-100,4,2,1,5,0,1
135247,-100,4,2,1,70,0,1
135419,-100,4,2,1,5,0,1
135579,-100,4,2,1,70,0,0
136910,662.983425414365,4,2,1,70,1,1
137075,-100,4,2,1,5,0,1
137235,-100,4,2,1,70,0,1
137407,-100,4,2,1,5,0,1
137572,674.157303370787,4,2,1,70,1,1
137740,-100,4,2,1,5,0,1
138246,-100,4,2,1,5,0,0
138583,-100,4,2,1,70,0,0
138920,652.173913043479,4,2,1,70,1,0
139572,652.173913043479,4,2,1,70,1,1
139572,-83.3333333333333,4,2,1,80,0,1
140876,631.578947368422,4,2,1,80,1,1
140876,-83.3333333333333,4,2,1,80,0,1
141507,618.556701030928,4,2,1,80,1,1
141507,-83.3333333333333,4,2,1,80,0,1
142125,638.297872340426,4,2,1,80,1,1
142125,-83.3333333333333,4,2,1,80,0,1
144678,645.161290322581,4,2,1,80,1,1
144678,-83.3333333333333,4,2,1,80,0,1
148548,631.578947368421,4,2,1,80,1,1
148548,-83.3333333333333,4,2,1,80,0,1
149495,681.818181818181,4,2,1,80,1,1
149495,-83.3333333333333,4,2,1,80,0,1
149835,643.43163538874,4,2,1,80,1,1
149835,-83.3333333333333,4,2,1,80,0,1
154982,674.157303370787,4,2,1,80,1,1
155656,652.173913043479,4,2,1,80,1,1
156308,631.578947368422,4,2,1,80,1,1
156939,638.297872340426,4,2,1,70,1,1
157577,666.666666666667,4,2,1,60,1,0
158243,697.67441860465,4,2,1,60,1,0
158591,710.059171597633,4,2,1,30,1,0
160011,666.666666666667,4,2,1,30,1,0
160344,648.648648648649,4,2,1,30,1,0
160344,-133.333333333333,4,2,1,30,0,0
161641,681.818181818182,4,2,1,30,1,0
161641,-133.333333333333,4,2,1,40,0,0
162663,645.161290322581,4,2,1,50,1,0
162985,648.648648648649,4,2,1,50,1,0
162985,-133.333333333333,4,2,1,50,0,0
164282,662.983425414365,4,2,1,50,1,0
164282,-133.333333333333,4,2,1,30,0,0
165276,718.562874251497,4,2,1,30,1,0
165635,652.173913043478,4,2,1,60,1,0
166287,710.059171597633,4,2,1,60,1,0
166997,674.157303370787,4,2,1,70,1,0
166997,-133.333333333333,4,2,1,40,0,0
168008,736.196319018405,4,2,1,30,1,0
168376,674.157303370787,4,2,1,70,1,0
168376,-133.333333333333,4,2,1,20,0,0
169050,628.272251308901,4,2,1,20,1,0
169364,652.173913043478,4,2,1,20,1,0
170668,693.64161849711,4,2,1,30,1,0
170841,1025.64102564103,4,2,1,30,1,0
171097,810.810810810811,4,2,1,30,1,0
171097,-133.333333333333,4,2,1,40,0,0
171299,-133.333333333333,4,2,1,40,0,0
171502,612.244897959184,4,2,1,40,1,0
171655,-100,4,2,1,40,0,0
171808,582.52427184466,4,2,1,40,1,0
171953,-100,4,2,1,40,0,0
172099,689.655172413793,4,2,1,40,1,0
172099,-133.333333333333,4,2,1,40,0,0
172443,697.674418604651,4,2,1,40,1,0
173489,645.161290322581,4,2,1,30,1,0
173650,863.309352517986,4,2,1,30,1,0
173865,722.89156626506,4,2,1,50,1,0
174045,-100,4,2,1,5,0,0
174226,631.578947368421,4,2,1,50,1,0
174383,-100,4,2,1,5,0,0
174541,689.655172413793,4,2,1,50,1,0
174698,-100,4,2,1,5,0,0
174885,727.272727272727,4,2,1,50,1,0
174885,-126.582278481013,4,2,1,50,0,0
175082,-126.582278481013,4,2,1,30,0,0
175248,662.983425414365,4,2,1,30,1,0
175579,693.64161849711,4,2,1,30,1,0
176272,612.244897959184,4,2,1,49,1,0
176425,821.917808219178,4,2,1,49,1,0
176630,714.285714285713,4,2,1,60,1,0
176806,-100,4,2,1,5,0,0
176987,722.891566265059,4,2,1,60,1,0
177167,-100,4,2,1,5,0,0
177348,674.157303370786,4,2,1,60,1,0
177516,-100,4,2,1,5,0,0
177685,697.67441860465,4,2,1,60,1,0
177685,-133.333333333333,4,2,1,60,0,0
178033,-133.333333333333,4,2,1,30,0,0
178382,-133.333333333333,4,2,1,60,0,0
178731,-133.333333333333,4,2,1,30,0,0
179079,659.340659340659,4,2,1,30,1,0
179243,882.352941176469,4,2,1,30,1,0
179463,779.220779220778,4,2,1,40,1,0
179673,-100,4,2,1,5,0,0
179852,714.285714285713,4,2,1,40,1,0
180030,-100,4,2,1,5,0,0
180209,674.157303370786,4,2,1,30,1,0
180377,-100,4,2,1,5,0,0
180546,810.81081081081,4,2,1,40,1,0
180546,-133.333333333333,4,2,1,20,0,0
180951,789.473684210525,4,2,1,20,1,0
181345,967.741935483869,4,2,1,20,1,0
181345,-200,4,2,1,20,0,0
182312,-100,4,2,1,5,0,0

[Colours]
Combo1 : 173,164,219
Combo2 : 232,171,104
Combo3 : 232,220,136
Combo4 : 194,219,149
Combo5 : 173,218,181
SliderTrackOverride : 51,77,77

[HitObjects]
212,280,9847,5,2,0:0:0:0:
308,208,10255,1,8,0:0:0:0:
328,324,10663,1,2,0:0:0:0:
216,184,11071,2,0,P|208:156|228:80,1,86.2500032901765,12|8,0:0|0:0,0:0:0:0:
324,36,11827,1,2,0:0:0:0:
460,128,12192,2,0,B|372:96|372:176|268:136,1,172.500006580353,2|2,0:0|0:0,0:0:0:0:
200,244,13321,1,8,0:0:0:0:
292,320,13687,1,2,0:0:0:0:
116,202,14071,6,0,P|106:252|124:296,2,86.2500032901765,8|8|2,0:0|0:0|0:0,0:0:0:0:
44,80,15192,2,0,P|112:112|212:60,1,172.500006580353,2|8,0:0|0:0,0:0:0:0:
120,4,16280,1,8,0:0:0:0:
280,160,16643,1,2,0:0:0:0:
448,88,17005,6,0,L|352:80,2,86.2500032901765,2|8|8,0:0|0:0|0:0,0:0:0:0:
488,216,18089,2,0,L|300:232,1,172.500006580353,8|8,0:0|0:0,0:0:0:0:
192,276,19190,2,0,P|184:220|208:168,1,86.2500032901765,8|2,0:0|0:0,0:0:0:0:
376,116,19931,6,0,P|320:124|268:100,2,86.2500032901765,2|8|2,0:0|0:0|0:0,0:0:0:0:
336,32,21006,1,8,0:0:0:0:
336,220,21376,1,2,0:0:0:0:
464,168,21746,1,8,0:0:0:0:
200,168,22096,1,2,0:0:0:0:
336,324,22447,1,8,0:0:0:0:
240,80,22776,6,0,P|199:70|128:104,1,86.2500032901765,6|8,0:0|0:0,0:0:0:0:
76,168,23538,1,2,0:0:0:0:
64,280,23879,2,0,P|120:276|184:160,1,172.500006580353,2|8,0:0|0:0,0:0:0:0:
4,64,24937,1,2,0:0:0:0:
76,168,25298,1,8,0:0:0:0:
152,64,25642,6,0,L|248:56,2,86.2500032901765,2|8|2,0:0|0:0|0:0,0:0:0:0:
208,172,26771,2,0,L|406:154,1,172.500006580353,2|2,0:0|0:0,0:0:0:0:
456,80,27836,1,8,0:0:0:0:
452,252,28191,1,2,0:0:0:0:
356,120,28566,6,0,P|348:92|376:8,2,86.2500032901765,2|8|2,0:0|0:0|0:0,0:0:0:0:
472,80,29637,1,2,0:0:0:0:
448,192,29994,2,0,B|320:124|320:240|200:196,1,258.75000987053,8|8,0:0|0:0,0:0:0:0:
136,148,31282,1,2,0:0:0:0:
40,228,31466,6,0,P|80:220|132:232,1,86.2500032901765,8|8,0:0|0:0,0:0:0:0:
80,348,32180,1,8,0:0:0:0:
196,152,32509,2,0,P|228:208|184:312,1,172.500006580353,2|2,0:0|0:0,0:0:0:0:
124,228,33575,1,2,0:0:0:0:
256,64,33936,1,8,0:0:0:0:
376,264,34298,6,0,L|304:252,1,57.5,6|0,0:0|0:0,0:0:0:0:
412,192,34648,2,0,L|458:135,1,57.5,8|0,0:0|0:0,0:0:0:0:
460,260,34999,2,0,L|485:328,1,57.5,2|0,0:0|0:0,0:0:0:0:
256,328,35350,2,0,P|224:280|276:164,1,172.500006580353,2|8,0:0|0:0,0:0:0:0:
319,254,36403,1,2,0:0:0:0:
200,96,36747,1,8,0:0:0:0:
408,232,37092,6,0,P|412:268|392:312,1,57.5,6|0,0:0|0:0,0:0:0:0:
344,168,37484,2,0,P|373:146|421:141,1,57.5,8|0,0:0|0:0,0:0:0:0:
319,254,37821,2,0,P|285:239|257:200,1,57.5,2|0,0:0|0:0,0:0:0:0:
368,328,38158,2,0,B|284:372|284:292|168:344,1,172.500006580353,2|8,0:0|0:0,0:0:0:0:
112,224,39216,1,2,0:0:0:0:
32,376,39569,1,8,0:0:0:0:
100,208,39922,6,0,L|68:136,1,57.5,6|0,0:0|0:0,0:0:0:0:
172,252,40274,2,0,L|132:316,1,57.5,8|0,0:0|0:0,0:0:0:0:
172,172,40603,2,0,L|248:172,1,57.5,2|0,0:0|0:0,0:0:0:0:
316,292,40955,2,0,B|280:208|360:208|300:100,1,172.500006580353,2|2,0:0|0:0,0:0:0:0:
256,16,42096,1,2,0:0:0:0:
404,248,42448,1,8,0:0:0:0:
496,132,42801,6,0,P|450:142|389:116,2,86.2500032901765,10|8|2,0:0|0:0|0:0,0:0:0:0:
452,48,43909,1,2,0:0:0:0:
452,48,45399,1,8,0:0:0:0:
384,4,45599,1,2,0:0:0:0:
376,84,45799,6,0,P|366:126|388:186,1,86.2500032901765,2|8,0:0|0:0,0:0:0:0:
336,264,46458,1,2,0:0:0:0:
456,120,46815,1,2,0:0:0:0:
456,120,47886,2,0,P|472:92|472:160,1,215.625,2|0,0:0|0:0,0:0:0:0:
476,184,48626,6,0,L|364:172,1,86.2500032901765,10|8,0:0|0:0,0:0:0:0:
320,64,49356,1,8,0:0:0:0:
256,244,49708,1,2,0:0:0:0:
256,244,51145,1,8,0:0:0:0:
316,300,51330,1,2,0:0:0:0:
336,224,51515,6,0,P|348:184|320:124,1,86.2500032901765,10|8,0:0|0:0,0:0:0:0:
216,96,52220,1,2,0:0:0:0:
84,184,52573,2,0,B|160:176|160:176|184:196|184:196|271:185,1,172.500006580353,2|0,0:0|0:0,0:0:0:0:
324,276,53657,2,0,P|332:304|348:240,1,215.625,2|0,0:0|0:0,0:0:0:0:
348,224,54393,6,0,L|359:135,1,86.2500032901765,14|0,0:0|0:0,0:0:0:0:
256,56,55138,1,8,0:0:0:0:
384,16,55486,1,2,0:0:0:0:
220,64,55835,1,2,0:0:0:0:
440,192,56222,1,2,0:0:0:0:
468,92,56604,1,8,0:0:0:0:
356,124,56986,1,2,0:0:0:0:
476,264,57368,6,0,P|484:312|460:368,2,86.2500032901765,8|8|2,0:0|0:0|0:0,0:0:0:0:
372,304,58484,2,0,B|284:344|284:272|200:312,1,172.500006580353,8|2,0:0|0:0,0:0:0:0:
128,224,59598,1,8,0:0:0:0:
24,356,59948,1,2,0:0:0:0:
144,208,60299,6,0,L|128:120,2,86.2500032901765,8|8|2,0:0|0:0|0:0,0:0:0:0:
236,60,61389,2,0,L|268:264,1,172.500006580353,2|2,0:0|0:0,0:0:0:0:
284,344,62480,1,8,0:0:0:0:
396,188,62844,1,2,0:0:0:0:
512,232,63208,6,0,P|520:184|504:136,2,86.2500032901765,8|8|8,0:0|0:0|0:0,0:0:0:0:
428,308,64314,1,2,0:0:0:0:
424,308,65862,1,8,0:0:0:0:
372,252,66036,1,2,0:0:0:0:
344,320,66210,5,2,0:0:0:0:
472,208,66567,1,8,0:0:0:0:
256,240,66924,1,2,0:0:0:0:
392,144,67281,2,0,B|304:180|304:96|192:148,1,172.500006580353,2|8,0:0|0:0,0:0:0:0:
352,48,68352,1,2,0:0:0:0:
152,216,68710,1,8,0:0:0:0:
256,324,69067,6,0,L|348:316,2,86.2500032901765,14|8|2,0:0|0:0|0:0,0:0:0:0:
376,208,70138,2,0,L|168:224,1,172.500006580353,2|8,0:0|0:0,0:0:0:0:
108,176,71210,1,2,0:0:0:0:
164,312,71567,1,8,0:0:0:0:
148,100,71924,6,0,P|99:88|48:114,1,86.2500032901765,2|8,0:0|0:0,0:0:0:0:
108,200,72669,1,2,0:0:0:0:
248,152,73021,2,0,L|256:36,1,86.2500032901765,2|0,0:0|0:0,0:0:0:0:
116,120,73727,2,0,B|112:200|112:200|124:220|124:220|116:304,1,172.500006580353,2|0,0:0|0:0,0:0:0:0:
200,364,74618,1,2,0:0:0:0:
292,244,74766,1,8,0:0:0:0:
372,332,74915,6,0,P|411:342|473:319,2,86.2500032901765,8|8|2,0:0|0:0|0:0,0:0:0:0:
292,244,75986,2,0,P|224:216|116:260,1,172.500006580353,2|2,0:0|0:0,0:0:0:0:
212,332,77057,1,8,0:0:0:0:
64,176,77415,1,2,0:0:0:0:
216,112,77772,6,0,L|224:24,2,86.2500032901765,2|8|8,0:0|0:0|0:0,0:0:0:0:
104,40,78893,2,0,L|88:240,1,172.500006580353,2|8,0:0|0:0,0:0:0:0:
80,336,79998,1,2,0:0:0:0:
0,200,80355,1,8,0:0:0:0:
172,312,80712,6,0,P|176:348|164:384,1,57.5,14|0,0:0|0:0,0:0:0:0:
88,336,81060,2,0,P|54:321|29:293,1,57.5,8|0,0:0|0:0,0:0:0:0:
108,252,81409,2,0,P|137:230|174:222,1,57.5,8|0,0:0|0:0,0:0:0:0:
328,260,81793,2,0,P|280:270|232:252,1,86.2500032901765,2|0,0:0|0:0,0:0:0:0:
286,173,82498,1,8,0:0:0:0:
388,344,82855,1,2,0:0:0:0:
468,224,83212,1,8,0:0:0:0:
368,368,83569,6,0,L|276:352,1,57.5,14|0,0:0|0:0,0:0:0:0:
208,356,83926,2,0,L|267:284,1,57.5,8|0,0:0|0:0,0:0:0:0:
300,224,84283,2,0,L|332:311,1,57.5,8|0,0:0|0:0,0:0:0:0:
260,136,84640,2,0,P|306:127|360:148,1,86.2500032901765,2|0,0:0|0:0,0:0:0:0:
300,224,85354,1,8,0:0:0:0:
208,48,85711,1,2,0:0:0:0:
428,192,86069,1,8,0:0:0:0:
216,252,86426,6,0,P|212:220|224:176,1,57.5,4|0,0:0|0:0,0:0:0:0:
340,192,86796,2,0,P|314:211|270:223,1,57.5,8|0,0:0|0:0,0:0:0:0:
228,116,87115,2,0,P|257:128|289:160,1,57.5,8|0,0:0|0:0,0:0:0:0:
144,144,87490,6,0,L|132:56,1,86.2500032901765,2|0,0:0|0:0,0:0:0:0:
256,20,88175,1,2,0:0:0:0:
256,160,88518,1,8,0:0:0:0:
132,58,88861,1,2,0:0:0:0:
379,58,89222,6,0,L|364:156,2,86.2500032901765,10|8|2,0:0|0:0|0:0,0:0:0:0:
348,240,90332,1,2,0:0:0:0:
344,236,91799,1,8,0:0:0:0:
280,280,91983,1,2,0:0:0:0:
276,204,92166,6,0,P|268:168|296:100,2,86.2500032901765,6|8|2,0:0|0:0|0:0,0:0:0:0:
380,164,93243,1,2,0:0:0:0:
360,76,93603,2,0,P|324:42|203:71,1,172.500006580353,8|2,0:0|0:0,0:0:0:0:
80,176,94680,1,8,0:0:0:0:
152,228,94860,1,2,0:0:0:0:
160,144,95040,6,0,P|170:103|144:48,2,86.2500032901765,6|8|2,0:0|0:0|0:0,0:0:0:0:
64,108,96074,1,2,0:0:0:0:
76,216,96419,2,0,P|120:192|252:232,1,172.500006580353,8|2,0:0|0:0,0:0:0:0:
384,344,97471,1,8,0:0:0:0:
312,276,97653,1,2,0:0:0:0:
472,312,97835,6,0,P|476:348|468:378,1,57.5,6|0,0:0|0:0,0:0:0:0:
396,232,98185,2,0,P|392:196|400:166,1,57.5,8|0,0:0|0:0,0:0:0:0:
432,68,98536,2,0,L|328:80,1,57.5,8|0,0:0|0:0,0:0:0:0:
252,88,98887,1,2,0:0:0:0:
128,156,99238,2,0,B|200:148|200:148|224:168|224:168|312:160,1,172.500006580353,8|0,0:0|0:0,0:0:0:0:
132,288,100328,1,2,0:0:0:0:
172,228,100510,1,8,0:0:0:0:
208,292,100692,6,0,P|220:337|195:386,2,86.2500032901765,8|8|8,0:0|0:0|0:0,0:0:0:0:
144,332,101760,1,2,0:0:0:0:
144,332,103184,1,8,0:0:0:0:
84,284,103362,1,2,0:0:0:0:
156,252,103540,6,0,L|164:196,1,43.1250016450883,6|0,0:0|0:0,0:0:0:0:
88,208,103940,2,0,L|96:152,1,43.1250016450883,2|0,0:0|0:0,0:0:0:0:
236,240,104259,2,0,L|244:184,1,43.1250016450883,2|0,0:0|0:0,0:0:0:0:
176,132,104607,2,0,L|192:16,2,86.2500032901765,2|8|2,0:0|0:0|0:0,0:0:0:0:
256,272,105654,1,2,0:0:0:0:
368,332,106003,1,8,0:0:0:0:
436,280,106177,1,2,0:0:0:0:
356,240,106352,6,0,L|348:184,1,43.1250016450883,6|0,0:0|0:0,0:0:0:0:
440,196,106692,2,0,L|440:140,1,43.1250016450883,2|0,0:0|0:0,0:0:0:0:
268,228,107033,2,0,L|248:176,1,43.1250016450883,2|0,0:0|0:0,0:0:0:0:
336,104,107374,2,0,L|320:-12,2,86.2500032901765,2|8|2,0:0|0:0|0:0,0:0:0:0:
256,296,108397,1,8,0:0:0:0:
144,332,108738,1,8,0:0:0:0:
60,272,108908,1,2,0:0:0:0:
156,224,109079,6,0,L|164:152,1,57.5,6|0,0:0|0:0,0:0:0:0:
48,176,109416,2,0,L|36:112,1,57.5,2|0,0:0|0:0,0:0:0:0:
276,200,109753,2,0,L|304:136,1,57.5,2|0,0:0|0:0,0:0:0:0:
164,140,110101,2,0,L|178:9,2,115,2|8|2,0:0|0:0|0:0,0:0:0:0:
256,364,111147,1,8,0:0:0:0:
304,144,111488,1,8,0:0:0:0:
208,236,111659,1,2,0:0:0:0:
388,184,111829,6,0,P|400:136|384:96,1,57.5,6|0,0:0|0:0,0:0:0:0:
124,184,112181,2,0,P|112:136|128:96,1,57.5,2|0,0:0|0:0,0:0:0:0:
256,48,112534,2,0,L|256:136,1,57.5,2|0,0:0|0:0,0:0:0:0:
100,224,112887,6,0,P|72:172|76:100,1,115,2|8,0:0|0:0,0:0:0:0:
352,252,113593,6,0,P|380:200|380:144,1,86.2500032901765,2|0,0:0|0:0,0:0:0:0:
204,312,114367,6,0,P|180:268|180:240,1,57.5,2|0,0:0|0:0,0:0:0:0:
304,380,115141,6,0,P|324:364|340:324,1,57.5,2|0,0:0|0:0,0:0:0:0:
64,120,117276,5,8,0:0:0:0:
120,348,117665,1,2,0:0:0:0:
280,184,118005,1,8,0:0:0:0:
64,120,118357,6,0,P|61:86|76:32,1,57.5,6|0,1:2|0:2,0:2:0:0:
176,172,118732,2,0,P|179:206|164:260,1,57.5,8|0,0:2|0:2,0:2:0:0:
76,288,119069,2,0,L|-16:280,1,57.5,2|0,1:2|0:2,0:2:0:0:
176,172,119401,2,0,L|260:176,1,57.5,2|0,0:2|0:2,0:2:0:0:
416,180,119733,1,8,1:2:0:0:
492,244,119900,2,0,P|418:279|328:220,1,172.5,8|0,0:2|0:2,0:2:0:0:
416,180,120564,1,8,0:2:0:0:
264,296,120731,1,2,1:2:0:0:
188,168,120897,1,8,0:2:0:0:
280,320,121063,6,0,P|283:366|268:408,1,57.5,6|0,1:2|0:2,0:2:0:0:
128,312,121389,2,0,P|125:266|140:224,1,57.5,8|0,0:2|0:2,0:2:0:0:
100,136,121715,2,0,L|192:140,1,57.5,2|0,1:2|0:2,0:2:0:0:
336,212,122041,2,0,L|244:208,1,57.5,2|0,0:2|0:2,0:2:0:0:
512,176,122367,1,8,1:2:0:0:
468,284,122530,2,0,B|404:280|404:280|376:308|376:308|285:306,1,172.5,8|0,0:2|0:2,0:2:0:0:
208,376,123182,1,8,0:2:0:0:
104,204,123345,1,2,1:2:0:0:
192,352,123508,1,8,0:2:0:0:
92,180,123671,6,0,P|89:134|104:92,1,57.5,6|0,1:2|0:2,0:2:0:0:
240,184,124004,2,0,P|243:230|228:272,1,57.5,8|0,0:2|0:2,0:2:0:0:
64,48,124337,2,0,P|110:45|148:64,1,57.5,2|0,1:2|0:2,0:2:0:0:
116,232,124671,2,0,L|12:228,1,57.5,2|0,0:2|0:2,0:2:0:0:
240,156,125004,1,8,1:2:0:0:
200,328,125171,1,2,0:2:0:0:
256,128,125337,2,0,P|311:111|392:160,1,115,8|0,0:2|0:2,0:2:0:0:
432,204,125837,1,8,0:2:0:0:
352,28,126004,1,2,1:2:0:0:
444,232,126171,1,8,0:2:0:0:
504,124,126337,6,0,P|499:92|525:35,1,57.5,12|0,1:2|0:2,0:2:0:0:
444,232,126659,2,0,P|474:243|510:294,1,57.5,8|0,0:2|0:2,0:2:0:0:
384,128,126982,2,0,P|358:148|296:154,1,57.5,8|0,0:2|0:2,0:2:0:0:
200,64,127304,2,0,B|256:48|256:48|336:72,1,115,8|0,1:2|0:2,0:2:0:0:
310,319,127949,2,0,B|256:336|256:336|200:320,1,115,8|0,0:2|0:2,0:2:0:0:
376,144,128499,1,8,0:2:0:0:
256,256,128664,1,2,1:2:0:0:
136,144,128829,1,8,0:2:0:0:
392,292,128994,6,0,P|396:334|369:383,1,57.5,6|0,1:2|0:2,0:2:0:0:
244,224,129313,2,0,P|240:182|267:133,1,57.5,2|0,0:2|0:2,0:2:0:0:
448,188,129632,2,0,L|368:184,1,57.5,2|0,1:2|0:2,0:2:0:0:
216,64,129961,2,0,L|304:68,1,57.5,2|0,0:2|0:2,0:2:0:0:
360,12,130291,1,8,1:2:0:0:
472,216,130456,2,0,B|400:212|400:212|364:240|364:240|264:236,1,172.5,2|0,0:2|0:2,0:2:0:0:
216,184,131144,1,8,0:2:0:0:
336,352,131318,1,2,1:2:0:0:
336,148,131484,1,8,0:2:0:0:
168,304,131651,6,0,L|264:308,1,57.5,6|0,1:2|0:2,0:2:0:0:
180,156,131977,2,0,L|72:152,1,57.5,2|0,0:2|0:2,0:2:0:0:
60,336,132303,2,0,P|67:302|42:253,1,57.5,2|0,1:2|0:2,0:2:0:0:
12,120,132629,2,0,P|5:154|30:203,1,57.5,2|0,0:2|0:2,0:2:0:0:
104,32,132955,1,8,1:2:0:0:
216,224,133118,2,0,P|244:176|200:60,1,172.5,2|0,0:2|0:2,0:2:0:0:
148,148,133770,1,8,0:2:0:0:
260,308,133933,1,2,1:2:0:0:
360,208,134096,1,8,0:2:0:0:
240,328,134259,6,0,L|148:324,1,57.5,6|0,1:2|0:2,0:2:0:0:
340,232,134590,2,0,L|432:236,1,57.5,2|0,0:2|0:2,0:2:0:0:
512,209,134921,2,0,P|516:237|509:264,1,57.5,2|0,1:2|0:2,0:2:0:0:
365,124,135253,2,0,P|360:95|367:68,1,57.5,2|0,0:2|0:2,0:2:0:0:
460,16,135584,1,8,1:2:0:0:
256,148,135750,1,2,0:2:0:0:
339,340,135916,2,0,P|355:292|327:216,1,115,8|0,0:2|0:2,0:2:0:0:
256,104,136413,1,2,1:2:0:0:
164,288,136579,1,8,0:2:0:0:
84,184,136745,1,2,1:2:0:0:
184,304,136910,6,0,L|176:384,1,57.5,6|0,1:2|0:2,0:2:0:0:
68,164,137241,2,0,L|80:76,1,57.5,2|0,0:2|0:2,0:2:0:0:
156,272,137572,2,0,L|144:348,1,57.5,8|0,0:2|0:2,0:2:0:0:
104,184,137909,2,0,L|124:40,2,115,8|0|8,1:2|0:2|0:2,0:2:0:0:
256,320,138920,1,2,0:2:0:0:
320,232,139083,1,8,0:2:0:0:
136,324,139246,1,8,0:2:0:0:
376,324,139409,1,2,0:2:0:0:
184,232,139572,6,0,P|177:194|196:140,1,68.9999978942872,6|0,1:2|0:2,0:2:0:0:
324,40,139898,2,0,P|331:78|312:132,1,68.9999978942872,8|0,0:2|0:2,0:2:0:0:
148,256,140224,2,0,P|141:218|160:164,1,68.9999978942872,2|0,1:2|0:2,0:2:0:0:
360,20,140550,2,0,P|367:58|348:112,1,68.9999978942872,2|0,0:2|0:2,0:2:0:0:
252,52,140876,1,2,1:2:0:0:
472,52,141033,1,8,0:2:0:0:
392,184,141191,2,0,B|358:190|358:190|284:176,1,68.9999978942872,2|0,0:2|0:2,0:2:0:0:
472,256,141507,5,2,1:2:0:0:
361,87,141661,1,8,0:2:0:0:
483,274,141816,1,2,0:2:0:0:
348,63,141970,1,2,1:2:0:0:
332,352,142125,6,0,L|336:260,1,68.9999978942872,6|0,1:2|0:2,0:2:0:0:
208,152,142444,2,0,L|204:240,1,68.9999978942872,8|0,0:2|0:2,0:2:0:0:
360,376,142763,2,0,L|364:280,1,68.9999978942872,2|0,1:2|0:2,0:2:0:0:
176,112,143082,2,0,L|172:208,1,68.9999978942872,2|0,0:2|0:2,0:2:0:0:
292,148,143401,1,2,1:2:0:0:
64,136,143561,1,8,0:2:0:0:
140,268,143720,2,0,B|173:272|173:272|215:267,1,68.9999978942872,2|0,0:2|0:2,0:2:0:0:
288,128,144039,5,2,1:2:0:0:
344,368,144199,1,8,0:0:0:0:
284,104,144359,1,2,1:2:0:0:
336,344,144518,1,8,0:0:0:0:
188,136,144678,6,0,P|182:101|204:40,1,68.9999978942872,12|0,1:2|0:0,0:0:0:0:
376,188,145000,2,0,P|382:227|352:288,1,68.9999978942872,2|0,0:2|0:0,0:0:0:0:
160,108,145323,2,0,P|156:72|180:8,1,68.9999978942872,8|0,1:2|0:0,0:0:0:0:
480,252,145645,2,0,L|464:352,1,68.9999978942872,2|0,0:0|0:0,0:0:0:0:
252,192,145968,1,8,1:2:0:0:
500,96,146129,1,2,0:0:0:0:
352,316,146290,2,0,L|340:248,1,68.9999978942872,8|0,0:0|0:0,0:0:0:0:
311,71,146613,5,8,0:2:0:0:
311,71,146774,1,2,1:2:0:0:
412,176,146936,1,2,0:2:0:0:
184,96,147097,1,8,1:2:0:0:
412,16,147258,6,0,P|456:12|520:40,1,68.9999978942872,6|0,1:2|0:0,0:0:0:0:
412,176,147581,2,0,P|393:216|336:248,1,68.9999978942872,2|0,0:2|0:0,0:0:0:0:
260,104,147903,2,0,P|234:67|232:4,1,68.9999978942872,2|0,1:2|0:0,0:0:0:0:
360,92,148226,1,8,0:0:0:0:
144,72,148548,2,0,P|139:39|152:-12,1,68.9999978942872,0|0,1:2|0:0,0:0:0:0:
228,200,148863,2,0,P|232:245|204:304,1,68.9999978942872,8|0,0:0|0:0,0:0:0:0:
132,232,149179,5,8,1:2:0:0:
132,232,149337,1,8,0:2:0:0:
376,304,149495,1,2,1:2:0:0:
184,360,149665,1,8,1:2:0:0:
480,280,149835,6,0,L|472:392,1,68.9999978942872,6|0,1:2|0:0,0:0:0:0:
324,220,150156,2,0,L|332:108,1,68.9999978942872,8|0,1:2|0:0,0:0:0:0:
512,308,150478,2,0,L|504:424,1,68.9999978942872,2|0,0:2|0:0,0:0:0:0:
280,192,150800,2,0,L|288:76,1,68.9999978942872,8|0,1:2|0:0,0:0:0:0:
292,0,151121,1,8,0:2:0:0:
424,136,151282,1,2,0:0:0:0:
184,240,151443,2,0,L|192:136,1,68.9999978942872,0|0,1:0|0:0,0:0:0:0:
204,32,151765,5,8,1:2:0:0:
204,32,151926,1,8,0:0:0:0:
304,224,152087,1,2,1:2:0:0:
100,148,152247,1,8,0:0:0:0:
336,312,152408,6,0,P|297:317|236:292,1,68.9999978942872,6|0,1:2|0:0,0:0:0:0:
72,232,152730,2,0,P|109:227|180:256,1,68.9999978942872,8|0,1:2|0:0,0:0:0:0:
352,352,153052,2,0,P|315:359|244:328,1,68.9999978942872,10|0,0:2|0:0,0:0:0:0:
40,192,153373,2,0,P|77:188|155:213,1,68.9999978942872,2|0,1:2|0:0,0:0:0:0:
72,308,153695,1,8,0:0:0:0:
72,88,153856,1,2,0:0:0:0:
212,172,154017,2,0,L|200:280,1,68.9999978942872,8|0,1:2|0:0,0:0:0:0:
224,52,154339,5,8,0:0:0:0:
224,52,154499,1,8,1:2:0:0:
340,188,154660,1,2,0:0:0:0:
80,168,154821,1,8,1:2:0:0:
432,160,154982,6,0,P|438:190|401:251,1,57.5,6|0,1:2|0:0,0:0:0:0:
276,104,155319,2,0,P|272:73|307:13,1,57.5,8|0,1:2|0:0,0:0:0:0:
464,192,155656,2,0,P|468:223|433:283,1,57.5,8|0,0:2|0:0,0:0:0:0:
372,344,155982,2,0,L|240:336,2,115,8|0|2,0:0|1:0|0:0,0:0:0:0:
256,124,157098,1,2,0:0:0:0:
256,248,157258,1,8,0:0:0:0:
332,184,157417,1,2,0:0:0:0:
180,188,157577,6,0,L|65:194,2,115,8|2|8,1:2|0:2|0:0,0:0:0:0:
256,28,158591,1,8,0:0:0:0:
256,344,159301,1,8,0:0:0:0:
424,256,160011,1,8,0:0:0:0:
372,200,160177,1,2,0:0:0:0:
444,184,160344,6,0,L|548:192,2,86.2500032901765,2|8|2,0:0|0:0|0:0,0:0:0:0:
320,144,161316,1,2,0:0:0:0:
256,300,161641,1,8,1:2:0:0:
100,272,162663,1,8,0:0:0:0:
164,200,162824,1,2,0:0:0:0:
68,184,162985,6,0,L|-36:192,2,86.2500032901765,2|8|2,0:0|0:0|0:0,0:0:0:0:
136,80,163957,1,2,0:0:0:0:
256,300,164282,1,8,1:2:0:0:
400,296,165276,1,8,0:0:0:0:
264,220,165455,1,2,0:0:0:0:
396,136,165635,6,0,L|536:144,2,115,2|8|2,0:0|0:0|0:0,0:0:0:0:
256,8,166642,1,2,0:0:0:0:
256,300,166997,1,8,1:2:0:0:
256,196,168008,1,2,0:0:0:0:
204,148,168192,1,8,0:0:0:0:
188,216,168376,6,0,P|180:272|200:320,2,86.2500032901765,8|8|8,0:0|0:0|0:0,0:0:0:0:
308,256,169364,1,2,0:0:0:0:
336,256,170668,1,8,0:0:0:0:
400,308,170841,1,2,0:0:0:0:
412,232,171097,6,0,P|415:207|399:167,1,43.1250016450883,2|0,0:0|0:0,0:0:0:0:
336,256,171502,2,0,P|312:265|284:304,1,57.5,2|0,0:0|0:0,0:0:0:0:
400,308,171808,2,0,P|420:323|467:329,1,57.5,2|0,0:0|0:0,0:0:0:0:
412,232,172099,2,0,P|423:193|398:131,2,86.2500032901765,2|8|2,0:0|0:0|0:0,0:0:0:0:
176,256,173489,1,8,0:0:0:0:
96,312,173650,1,2,0:0:0:0:
92,216,173865,6,0,P|87:189|100:146,1,57.5,2|0,0:0|0:0,0:0:0:0:
176,256,174226,2,0,P|199:265|232:312,1,57.5,2|0,0:0|0:0,0:0:0:0:
96,312,174541,2,0,P|75:327|24:332,1,57.5,2|0,0:0|0:0,0:0:0:0:
92,216,174885,2,0,P|83:172|112:111,2,86.2500032901765,2|8|2,0:0|0:0|0:0,0:0:0:0:
336,256,176272,1,8,0:0:0:0:
436,328,176425,1,2,0:0:0:0:
444,216,176630,6,0,P|449:189|436:146,1,57.5,2|0,0:0|0:0,0:0:0:0:
336,256,176987,2,0,P|313:265|280:312,1,57.5,2|0,0:0|0:0,0:0:0:0:
436,328,177348,2,0,P|457:343|508:348,1,57.5,2|0,0:0|0:0,0:0:0:0:
444,216,177685,2,0,P|455:174|435:115,1,86.2500032901765,2|8,0:0|0:0,0:0:0:0:
336,256,178382,2,0,P|327:297|338:339,1,86.2500032901765,2|8,0:0|0:0,0:0:0:0:
256,72,179079,1,8,0:0:0:0:
184,168,179243,1,8,0:0:0:0:
348,120,179463,6,0,L|372:36,1,57.5,2|0,0:0|0:0,0:0:0:0:
148,64,179852,2,0,L|164:120,1,57.5,2|0,0:0|0:0,0:0:0:0:
256,240,180209,2,0,L|256:148,1,57.5,2|0,0:0|0:0,0:0:0:0:
76,148,180546,6,0,P|100:192|148:208,1,86.2500032901765,2|8,0:0|0:0,0:0:0:0:
416,248,181345,6,0,P|392:292|364:308,1,57.5,2|0,0:0|0:0,0:0:0:0:
256,364,182312,5,6,0:0:0:0:
256,192,182554,12,0,185215,0:0:0:0:
