osu file format v14

[General]
AudioFilename: audio.mp3
AudioLeadIn: 0
PreviewTime: -1
Countdown: 0
SampleSet: Normal
StackLeniency: 0.7
Mode: 0
LetterboxInBreaks: 0
WidescreenStoryboard: 0

[Editor]
DistanceSpacing: 0.8
BeatDivisor: 4
GridSize: 32
TimelineZoom: 1

[Metadata]
Title:No Rules
TitleUnicode:No Rules
Artist:Tomorrow x Together
ArtistUnicode:Tomorrow x Together
Creator:pumpthosebrakes
Version:i just wanted to be a punk
Source:
Tags:kpop txt tomorrow by together
BeatmapID:3356746
BeatmapSetID:1644461

[Difficulty]
HPDrainRate:7
CircleSize:4.7
OverallDifficulty:6.4
ApproachRate:9
SliderMultiplier:2.50000000596047
SliderTickRate:2

[Events]
//Background and Video events
0,0,"E3c1rMmWQAQd8L7.jpg",0,0
//Break Periods
//Storyboard Layer 0 (Background)
//Storyboard Layer 1 (Fail)
//Storyboard Layer 2 (Pass)
//Storyboard Layer 3 (Foreground)
//Storyboard Layer 4 (Overlay)
//Storyboard Sound Samples

[TimingPoints]
20,500,4,1,0,10,1,0

[Colours]
Combo1 : 240,240,240
Combo2 : 0,0,160
Combo3 : 39,207,216
Combo4 : 134,142,170

[HitObjects]
24,302,8270,6,0,L|90:302,1,62.5000001490117
93,302,8520,1,0,0:0:0:0:
181,304,8770,2,0,L|239:339,1,62.5000001490117
234,336,9020,1,0,0:0:0:0:
296,331,9216,2,0,L|350:273,1,62.5000001490117
344,286,9520,1,0,0:0:0:0:
400,253,9770,2,0,L|394:168,1,62.5000001490117
397,178,10020,1,0,0:0:0:0:
397,178,10145,1,0,0:0:0:0:
155,258,10612,6,0,L|323:160,1,187.500000447035
316,163,11066,1,0,0:0:0:0:
388,141,11341,2,0,L|466:222,1,62.5000001490117
417,258,11645,2,0,L|353:326,1,62.5000001490117
359,319,11970,1,0,0:0:0:0:
355,327,12075,1,0,0:0:0:0:
148,224,12645,6,0,L|253:150,1,125.000000298023
345,106,13083,1,0,0:0:0:0:
345,106,13220,2,0,L|431:197,1,125.000000298023
430,196,13645,1,0,0:0:0:0:
430,196,13770,1,0,0:0:0:0:
364,287,14020,6,0,L|266:290,1,62.5000001490117
180,279,14395,2,0,P|175:72|182:66,1,187.500000447035
276,76,15020,1,0,0:0:0:0:
276,76,15145,2,0,L|403:76,1,125.000000298023
412,183,15645,1,0,0:0:0:0:
412,183,15770,2,0,L|274:184,1,125.000000298023
291,289,16145,1,0,0:0:0:0:
291,289,16270,2,0,L|449:284,1,125.000000298023
267,310,16895,6,0,L|212:268,1,62.5000001490117
178,240,17145,1,0,0:0:0:0:
172,140,17395,2,0,L|173:36,1,62.5000001490117
279,118,17645,1,0,0:0:0:0:
279,118,17895,1,0,0:0:0:0:
399,126,18520,5,0,0:0:0:0:
399,126,18770,1,0,0:0:0:0:
399,276,19145,2,0,L|305:333,1,62.5000001490117
345,308,19395,1,0,0:0:0:0:
248,337,19645,2,0,L|201:272,1,62.5000001490117
179,232,19895,2,0,L|180:153,1,62.5000001490117
207,109,20145,2,0,L|258:49,1,62.5000001490117
106,100,21145,6,0,B|209:101|209:101,1,62.5000001490117
220,100,21395,1,0,0:0:0:0:
250,100,21520,1,0,0:0:0:0:
343,147,21895,5,0,0:0:0:0:
343,147,22145,1,0,0:0:0:0:
343,147,22395,1,0,0:0:0:0:
342,246,22645,2,0,L|277:301,1,62.5000001490117
249,299,23270,6,0,P|177:218|176:218,1,62.5000001490117
233,168,23770,2,0,B|212:120|283:66,1,62.5000001490117
90,98,24270,6,0,L|173:74,1,62.5000001490117
283,147,24766,1,0,0:0:0:0:
283,147,24962,1,0,0:0:0:0:
283,147,25191,1,0,0:0:0:0:
379,155,25395,6,0,L|380:281,1,125.000000298023
379,279,25770,1,0,0:0:0:0:
379,279,25895,1,0,0:0:0:0:
207,322,26337,2,0,L|90:324,1,62.5000001490117
54,322,26688,1,0,0:0:0:0:
1,276,26962,1,0,0:0:0:0:
34,215,27020,6,0,P|130:210|135:236,1,125.000000298023
131,212,27333,1,0,0:0:0:0:
182,266,27520,2,0,P|142:300|69:356,1,125.000000298023
35,336,27895,1,0,0:0:0:0:
28,286,28020,2,0,L|27:211,1,62.5000001490117
129,328,28395,5,0,0:0:0:0:
178,349,28520,2,0,L|246:348,1,62.5000001490117
288,331,28770,1,0,0:0:0:0:
336,267,28895,2,0,P|442:240|444:246,1,125.000000298023
423,163,29395,5,0,0:0:0:0:
423,163,29520,1,0,0:0:0:0:
375,92,29645,2,0,P|257:92|256:93,1,125.000000298023
214,149,30020,1,0,0:0:0:0:
214,149,30207,1,0,0:0:0:0:
162,203,30395,2,0,L|162:310,3,62.5000001490117
216,327,30895,6,0,L|290:328,1,62.5000001490117
328,329,31145,1,0,0:0:0:0:
332,229,31395,2,0,P|328:123|311:111,1,125.000000298023
322,118,31770,1,0,0:0:0:0:
322,118,31895,1,0,0:0:0:0:
172,119,32270,6,0,P|175:300|182:310,1,187.500000447035
338,323,33020,2,0,L|338:256,1,62.5000001490117
281,252,33395,2,0,L|281:159,2,62.5000001490117
218,185,34020,2,0,P|420:187|412:201,1,437.500001043082
409,291,35145,2,0,L|89:292,1,312.500000745059
123,195,36020,2,0,P|379:198|387:219,1,312.500000745059
144,309,38270,6,0,P|123:147|141:133,1,187.500000447035
178,149,38895,1,0,0:0:0:0:
178,149,39020,1,0,0:0:0:0:
178,149,39270,1,0,0:0:0:0:
305,70,39770,2,0,L|434:69,1,125.000000298023
81,143,40270,6,0,P|211:142|212:155,1,187.500000447035
238,248,40770,2,0,P|403:248|412:234,1,187.500000447035
410,156,41416,2,0,P|219:174|212:186,1,187.500000447035
106,314,42020,6,0,P|222:313|248:269,1,125.000000298023
270,213,42520,1,0,0:0:0:0:
270,213,42770,1,0,0:0:0:0:
172,233,43020,2,0,L|57:82,1,187.500000447035
58,83,43449,1,0,0:0:0:0:
169,81,43770,2,0,L|286:175,1,125.000000298023
429,287,44270,6,0,P|229:285|224:281,1,187.500000447035
251,299,44645,2,0,P|84:306|60:290,1,187.500000447035
72,208,45149,2,0,P|245:196|271:212,1,187.500000447035
279,320,45895,6,0,P|145:306|128:283,1,125.000000298023
105,248,46520,2,0,P|102:99|104:98,1,187.500000447035
341,98,47145,2,0,P|375:229|334:261,1,187.500000447035
43,210,48145,6,0,L|183:129,1,125.000000298023
162,141,48645,1,0,0:0:0:0:
202,113,48711,1,0,0:0:0:0:
238,141,48837,1,0,0:0:0:0:
336,135,49270,2,0,P|330:293|307:286,1,250.000000596047
310,308,50020,6,0,P|132:315|115:304,1,187.500000447035
127,250,50645,1,0,0:0:0:0:
125,200,50824,1,0,0:0:0:0:
127,150,51057,1,0,0:0:0:0:
180,83,51270,2,0,P|342:85|347:101,1,187.500000447035
66,175,51895,2,0,L|114:124,3,62.5000001490117
108,129,52395,1,0,0:0:0:0:
197,114,52640,6,0,L|242:167,4,62.5000001490117
197,114,53270,1,0,0:0:0:0:
335,127,53645,2,0,P|424:74|424:74,5,62.5000001490117
388,95,54395,1,0,0:0:0:0:
381,144,54520,1,0,0:0:0:0:
366,191,54645,1,0,0:0:0:0:
346,236,54770,1,0,0:0:0:0:
330,283,54895,1,0,0:0:0:0:
312,329,55020,1,0,0:0:0:0:
264,298,55161,5,0,0:0:0:0:
215,262,55311,1,0,0:0:0:0:
175,227,55441,1,0,0:0:0:0:
136,187,55578,1,0,0:0:0:0:
106,157,55682,1,0,0:0:0:0:
82,201,55807,1,0,0:0:0:0:
55,244,55933,1,0,0:0:0:0:
29,304,56083,1,0,0:0:0:0:
265,160,56395,2,0,L|454:156,1,187.500000447035
79,72,57145,6,0,L|183:73,1,62.5000001490117
241,73,57520,1,0,0:0:0:0:
244,77,57645,1,0,0:0:0:0:
352,179,57895,1,0,0:0:0:0:
352,179,58145,1,0,0:0:0:0:
352,179,58395,1,0,0:0:0:0:
330,306,58770,6,0,L|184:306,1,125.000000298023
188,268,59270,2,0,P|191:141|170:134,1,125.000000298023
116,174,59770,2,0,B|66:90|129:46|129:47,1,125.000000298023
202,73,60395,2,0,B|331:75|280:111|321:225|199:146|234:250,1,250.000000596047
234,354,61195,5,0,0:0:0:0:
154,346,61395,2,0,P|107:245|106:243,1,62.5000001490117
101,225,61645,1,0,0:0:0:0:
101,225,61895,1,0,0:0:0:0:
101,225,62145,1,0,0:0:0:0:
92,125,62395,2,0,L|90:32,1,62.5000001490117
138,45,62645,6,0,L|218:227,1,187.500000447035
311,196,63270,2,0,B|360:299|245:317|245:318,1,125.000000298023
183,306,63770,2,0,P|183:188|201:191,1,187.500000447035
234,186,64270,2,0,L|330:186,1,62.5000001490117
68,93,65020,6,0,P|154:104|203:70,1,125.000000298023
224,55,65466,1,0,0:0:0:0:
257,91,65595,1,0,0:0:0:0:
299,147,65770,2,0,P|372:251|372:251,1,125.000000298023
301,321,66270,6,0,P|209:220|209:219,1,125.000000298023
265,160,66770,2,0,P|409:165|411:178,1,187.500000447035
464,214,67395,2,0,P|391:322|368:326,1,125.000000298023
348,323,67770,2,0,L|169:325,1,125.000000298023
187,44,68270,6,0,B|387:62|299:220|185:116|207:269,1,312.500000745059
205,327,69145,1,0,0:0:0:0:
137,321,69270,2,0,P|124:234|134:231,1,125.000000298023
210,212,69645,2,0,P|209:85|200:75,1,125.000000298023
300,57,70196,2,0,L|395:57,1,62.5000001490117
365,159,70520,6,0,L|313:228,1,62.5000001490117
327,208,70645,2,0,L|266:144,1,62.5000001490117
282,157,70770,2,0,L|233:225,1,62.5000001490117
245,207,70895,2,0,L|189:143,1,62.5000001490117
200,155,71020,2,0,L|159:217,1,62.5000001490117
95,319,71395,6,0,L|149:270,1,62.5000001490117
198,244,71645,2,0,L|281:243,1,62.5000001490117
324,269,71895,2,0,L|385:339,1,62.5000001490117
60,224,72520,6,0,L|153:149,1,62.5000001490117
140,89,72895,2,0,L|273:88,1,125.000000298023
315,90,73270,2,0,L|316:227,1,125.000000298023
315,214,73587,1,0,0:0:0:0:
315,214,73770,2,0,L|201:280,1,125.000000298023
109,256,74270,6,0,L|108:141,3,62.5000001490117
109,93,74833,1,0,0:0:0:0:
109,93,74945,1,0,0:0:0:0:
257,101,75341,2,0,L|256:187,1,62.5000001490117
256,163,75520,1,0,0:0:0:0:
258,213,75687,2,0,L|256:310,1,62.5000001490117
256,275,75927,1,0,0:0:0:0:
165,231,76270,6,0,L|201:295,2,62.5000001490117
168,117,76783,1,0,0:0:0:0:
168,117,77020,1,0,0:0:0:0:
269,79,77270,2,0,L|380:79,1,62.5000001490117
352,79,77520,1,0,0:0:0:0:
413,210,77770,2,0,P|301:273|221:172,1,250.000000596047
126,180,78520,6,0,L|125:31,1,125.000000298023
216,13,79020,2,0,L|335:15,1,62.5000001490117
366,61,79395,1,0,0:0:0:0:
369,114,79520,1,0,0:0:0:0:
364,163,79645,1,0,0:0:0:0:
352,212,79770,2,0,L|246:271,1,62.5000001490117
202,298,80145,6,0,L|83:211,1,125.000000298023
101,224,80520,1,0,0:0:0:0:
105,134,80724,1,0,0:0:0:0:
105,134,80850,1,0,0:0:0:0:
105,134,80979,1,0,0:0:0:0:
105,134,81095,1,0,0:0:0:0:
176,120,81332,2,0,L|298:84,1,125.000000298023
419,76,81895,5,0,0:0:0:0:
419,76,82028,1,0,0:0:0:0:
419,76,82199,1,0,0:0:0:0:
414,219,82370,2,0,L|271:306,1,125.000000298023
280,303,82645,5,0,0:0:0:0:
280,303,82895,1,0,0:0:0:0:
280,303,82990,1,0,0:0:0:0:
165,293,83199,1,0,0:0:0:0:
66,221,83395,2,0,L|68:106,1,62.5000001490117
290,77,83770,6,0,B|415:243|315:324|167:318,1,375.00000089407
127,123,85020,2,0,L|258:123,1,125.000000298023
301,129,85395,1,0,0:0:0:0:
323,173,85520,1,0,0:0:0:0:
303,228,85645,2,0,L|160:230,1,125.000000298023
178,229,86020,1,0,0:0:0:0:
178,229,86270,1,0,0:0:0:0:
85,129,86770,6,0,P|79:51|118:67,1,125.000000298023
142,53,87145,1,0,0:0:0:0:
142,53,87270,1,0,0:0:0:0:
206,52,87395,2,0,L|278:51,1,62.5000001490117
268,51,87645,1,0,0:0:0:0:
268,51,87770,1,0,0:0:0:0:
313,57,87895,2,0,L|418:58,1,62.5000001490117
378,199,88395,6,0,L|272:278,1,125.000000298023
277,273,88895,1,0,0:0:0:0:
281,280,89020,1,0,0:0:0:0:
203,283,89145,2,0,L|10:286,1,187.500000447035
15,285,89520,1,0,0:0:0:0:
31,184,89770,2,0,P|90:97|134:147,1,187.500000447035
202,105,90520,6,0,L|284:101,1,62.5000001490117
273,105,90770,1,0,0:0:0:0:
349,91,91082,2,0,B|444:128|431:181|391:232,1,125.000000298023
415,192,91458,1,0,0:0:0:0:
350,247,91645,2,0,L|224:251,1,125.000000298023
117,256,92520,6,0,P|98:172|140:126,1,125.000000298023
195,112,93145,1,0,0:0:0:0:
200,116,93341,1,0,0:0:0:0:
283,116,93645,2,0,L|400:119,1,62.5000001490117
372,224,94045,2,0,P|297:275|231:216,1,187.500000447035
121,224,94770,1,0,0:0:0:0:
122,198,95020,1,0,0:0:0:0:
124,156,95145,1,0,0:0:0:0:
251,116,95395,6,0,P|330:57|451:125,1,250.000000596047
455,229,96266,1,0,0:0:0:0:
455,229,96440,1,0,0:0:0:0:
455,229,96620,1,0,0:0:0:0:
272,88,97049,2,0,B|342:195|342:195|254:312|254:312|175:187|175:187|249:77|249:77,1,500.000001192094
132,270,98270,5,0,0:0:0:0:
132,270,98437,1,0,0:0:0:0:
132,270,98632,1,0,0:0:0:0:
158,109,98891,2,0,B|257:301|257:301|350:104|350:104|176:103,1,562.500001341106
128,66,100270,5,0,0:0:0:0:
128,66,100487,1,0,0:0:0:0:
128,66,100682,1,0,0:0:0:0:
222,73,100895,2,0,B|318:136|318:136|210:225|210:225|337:312|337:312|321:301,1,375.00000089407
59,192,102270,6,0,P|83:95|129:103,1,125.000000298023
156,90,102770,1,0,0:0:0:0:
156,90,103020,1,0,0:0:0:0:
229,91,103270,2,0,L|346:88,1,62.5000001490117
362,92,103770,2,0,P|452:150|404:196,1,187.500000447035
365,242,104395,6,0,P|126:255|99:233,1,250.000000596047
131,258,104895,2,0,P|133:104|163:112,1,250.000000596047
131,103,105395,2,0,P|149:261|87:253,1,250.000000596047
66,127,106145,6,0,P|146:79|147:88,1,187.500000447035
145,77,106541,1,0,0:0:0:0:
151,82,106770,1,0,0:0:0:0:
211,88,107071,2,0,L|295:88,1,62.5000001490117
296,97,107441,1,0,0:0:0:0:
296,97,107816,1,0,0:0:0:0:
371,140,108270,6,0,P|429:284|353:307,1,250.000000596047
382,307,108770,2,0,P|247:338|158:288,1,187.500000447035
205,323,109145,2,0,P|131:249|227:184,1,250.000000596047
187,269,110145,6,0,P|128:207|148:144,1,125.000000298023
190,125,110520,2,0,P|259:94|309:132,1,125.000000298023
365,168,111020,2,0,B|402:360|191:297|191:297,1,250.000000596047
120,252,112270,6,0,L|120:127,1,125.000000298023
160,102,112645,1,0,0:0:0:0:
208,138,112770,1,0,0:0:0:0:
254,106,112895,1,0,0:0:0:0:
349,112,113270,2,0,L|348:272,1,125.000000298023
356,313,113770,6,2,P|157:317|148:310,1,187.500000447035
104,199,114520,1,0,0:0:0:0:
104,199,114720,1,0,0:0:0:0:
104,199,114895,1,0,0:0:0:0:
190,170,115145,2,0,L|362:129,1,125.000000298023
378,180,115770,5,0,0:0:0:0:
362,276,115895,2,0,L|193:326,1,125.000000298023
169,318,116395,2,0,L|146:218,1,62.5000001490117
134,146,116799,1,0,0:0:0:0:
199,147,117161,6,0,L|274:72,1,62.5000001490117
261,55,117645,2,0,L|399:56,1,125.000000298023
427,154,118395,1,0,0:0:0:0:
398,210,118770,2,0,L|312:306,1,125.000000298023
252,326,119186,1,0,0:0:0:0:
216,333,119279,1,0,0:0:0:0:
216,333,119365,1,0,0:0:0:0:
154,338,119520,1,0,0:0:0:0:
154,338,119645,1,0,0:0:0:0:
154,338,119770,1,0,0:0:0:0:
50,166,120270,6,0,L|148:105,1,62.5000001490117
147,108,120487,1,0,0:0:0:0:
220,100,120686,2,0,L|332:101,1,62.5000001490117
300,102,120895,1,0,0:0:0:0:
300,102,121020,1,0,0:0:0:0:
380,130,121270,2,0,P|381:206|376:214,2,62.5000001490117
369,252,121770,1,0,0:0:0:0:
321,262,121895,1,0,0:0:0:0:
267,276,122145,6,0,L|121:276,1,125.000000298023
155,277,122603,1,0,0:0:0:0:
149,274,122721,1,0,0:0:0:0:
155,277,122895,1,0,0:0:0:0:
106,263,123145,2,0,L|107:150,1,62.5000001490117
112,178,123595,5,0,0:0:0:0:
112,178,123824,1,0,0:0:0:0:
112,178,124066,1,0,0:0:0:0:
126,104,124395,2,0,L|233:70,1,62.5000001490117
217,79,124645,1,0,0:0:0:0:
217,79,124770,1,0,0:0:0:0:
221,82,124895,1,0,0:0:0:0:
281,86,125145,6,0,L|399:87,1,62.5000001490117
382,152,125520,2,0,P|341:213|341:213,1,62.5000001490117
318,264,125770,2,0,L|384:328,1,62.5000001490117
264,342,126270,2,0,L|171:293,1,62.5000001490117
208,312,126520,1,0,0:0:0:0:
141,271,126645,6,0,L|141:162,1,62.5000001490117
141,208,126808,1,0,0:0:0:0:
143,131,127020,2,0,P|254:76|276:99,1,125.000000298023
256,80,127520,1,0,0:0:0:0:
277,98,127645,1,0,0:0:0:0:
305,167,127895,2,0,L|304:257,1,62.5000001490117
305,241,128145,1,0,0:0:0:0:
278,311,128395,2,0,L|178:314,1,62.5000001490117
215,312,128645,1,0,0:0:0:0:
152,282,128770,5,0,0:0:0:0:
152,282,128895,1,0,0:0:0:0:
152,282,129020,1,0,0:0:0:0:
93,224,129270,2,0,L|94:128,1,62.5000001490117
121,131,129520,2,0,L|193:99,1,62.5000001490117
178,105,129645,2,0,L|242:134,1,62.5000001490117
285,166,129895,5,0,0:0:0:0:
262,205,130020,1,0,0:0:0:0:
282,236,130145,1,0,0:0:0:0:
263,272,130270,1,0,0:0:0:0:
207,338,130453,2,0,L|117:337,1,62.5000001490117
144,337,130770,1,0,0:0:0:0:
144,337,130895,1,0,0:0:0:0:
134,285,131145,6,0,L|121:200,1,62.5000001490117
117,180,131520,2,0,P|106:97|106:97,1,62.5000001490117
119,98,131895,2,0,L|189:54,1,62.5000001490117
171,64,132112,1,0,0:0:0:0:
320,73,132270,2,0,P|330:204|324:206,1,125.000000298023
320,226,132770,2,0,L|258:253,1,62.5000001490117
137,281,133103,6,0,L|137:210,2,62.5000001490117
138,141,133583,2,0,L|213:90,1,62.5000001490117
194,107,133895,1,0,0:0:0:0:
119,229,134270,6,0,L|164:170,1,62.5000001490117
156,179,134520,2,0,L|191:241,1,62.5000001490117
186,233,134645,2,0,L|264:149,1,62.5000001490117
228,187,134895,2,0,L|268:248,1,62.5000001490117
263,239,135020,2,0,L|332:173,1,62.5000001490117
308,196,135270,2,0,L|355:272,1,62.5000001490117
341,249,135520,1,0,0:0:0:0:
341,249,135645,1,0,0:0:0:0:
377,315,135808,6,0,P|139:323|104:298,1,250.000000596047
139,323,136382,1,0,0:0:0:0:
87,242,136770,2,0,L|179:189,1,62.5000001490117
188,180,137270,2,0,L|121:102,1,62.5000001490117
140,123,137520,1,0,0:0:0:0:
140,123,137645,1,0,0:0:0:0:
211,70,137895,2,0,L|321:71,1,62.5000001490117
279,70,138145,1,0,0:0:0:0:
359,116,138270,6,0,L|360:236,1,62.5000001490117
365,238,138645,2,0,P|255:302|241:290,1,125.000000298023
285,313,139270,2,0,L|149:316,1,125.000000298023
160,315,139770,2,0,P|74:221|89:184,1,125.000000298023
236,35,140341,6,0,B|393:-1|381:240|254:137|245:284,1,312.500000745059
261,314,141270,2,0,P|181:337|161:320,1,62.5000001490117
209,343,141520,1,0,0:0:0:0:
209,343,141645,1,0,0:0:0:0:
151,312,141895,2,0,L|111:203,1,62.5000001490117
120,206,142270,6,0,L|119:88,2,62.5000001490117
181,295,142770,2,0,L|296:296,1,62.5000001490117
365,291,143145,2,0,P|366:150|366:150,1,125.000000298023
366,152,143645,2,0,P|223:120|182:161,1,187.500000447035
199,141,144270,2,0,L|196:315,1,125.000000298023
89,130,145145,6,0,P|166:79|190:72,1,62.5000001490117
138,91,145395,1,0,0:0:0:0:
138,91,145520,1,0,0:0:0:0:
218,90,145770,2,0,L|333:88,1,62.5000001490117
285,90,146020,1,0,0:0:0:0:
371,91,146270,2,0,P|379:212|371:216,1,125.000000298023
361,251,146770,2,0,P|226:253|218:247,1,125.000000298023
201,254,147270,2,0,P|106:187|101:153,1,125.000000298023
87,132,147770,2,0,P|147:17|157:18,1,125.000000298023
216,63,148270,6,0,B|309:-24|462:204|160:144|233:202|229:272,1,312.500000745059
228,328,149115,1,0,0:0:0:0:
228,328,149324,2,0,P|130:352|86:325,1,125.000000298023
70,320,149779,1,0,0:0:0:0:
70,320,149932,2,0,P|61:164|65:159,1,125.000000298023
80,117,150395,6,0,P|171:79|176:68,1,62.5000001490117
146,107,150566,1,0,0:0:0:0:
218,95,150770,2,0,P|343:90|343:103,1,187.500000447035
343,98,151270,1,0,0:0:0:0:
343,98,151395,1,0,0:0:0:0:
354,177,151645,6,0,P|286:300|273:297,1,187.500000447035
192,314,152270,2,0,P|97:200|103:189,1,187.500000447035
98,197,152691,2,0,P|141:104|248:97,1,187.500000447035
217,86,153145,2,0,P|343:199|340:232,1,187.500000447035
336,230,153645,1,0,0:0:0:0:
308,263,153895,2,0,L|257:321,1,62.5000001490117
211,318,154270,6,0,L|145:271,1,62.5000001490117
160,281,154620,2,0,L|213:211,1,62.5000001490117
197,231,154895,1,0,0:0:0:0:
226,189,155020,2,0,L|157:109,1,62.5000001490117
181,136,155270,2,0,P|263:63|266:69,1,187.500000447035
256,53,155770,2,0,P|372:91|350:162,1,187.500000447035
369,132,156270,6,0,L|293:245,1,125.000000298023
299,235,156724,2,0,L|182:152,1,125.000000298023
193,157,157146,2,0,L|106:251,1,125.000000298023
108,248,157645,2,0,L|42:136,1,125.000000298023
65,84,158145,6,0,P|176:84|179:91,1,125.000000298023
196,91,158645,2,0,P|285:91|311:65,1,125.000000298023
320,71,159145,2,0,B|391:5|490:84|490:84,1,125.000000298023
455,146,159770,2,0,P|447:301|396:310,1,187.500000447035
362,309,160395,6,0,L|247:310,1,62.5000001490117
282,310,160699,1,0,0:0:0:0:
282,310,160870,1,0,0:0:0:0:
282,310,161020,1,0,0:0:0:0:
205,312,161270,2,0,L|69:311,1,125.000000298023
82,242,161895,6,0,P|86:102|96:101,1,187.500000447035
140,108,162770,1,0,0:0:0:0:
140,108,163020,1,0,0:0:0:0:
140,108,163245,1,0,0:0:0:0:
227,71,163770,5,0,0:0:0:0:
227,71,164020,2,0,P|385:71|396:52,1,187.500000447035
410,142,164770,1,0,0:0:0:0:
410,142,164895,2,0,P|412:273|397:305,1,125.000000298023
414,264,165270,1,0,0:0:0:0:
390,309,165395,2,0,L|280:307,1,62.5000001490117
327,307,165645,1,0,0:0:0:0:
327,307,165770,1,0,0:0:0:0:
254,311,165895,2,0,L|114:310,1,125.000000298023
127,275,166395,6,0,L|129:206,1,62.5000001490117
128,203,166645,1,0,0:0:0:0:
128,197,166770,1,0,0:0:0:0:
137,116,167020,2,0,P|250:68|254:73,1,125.000000298023
239,58,167395,1,0,0:0:0:0:
239,58,167520,1,0,0:0:0:0:
330,75,167770,6,0,L|370:131,1,62.5000001490117
379,161,168020,1,0,0:0:0:0:
377,176,168145,1,0,0:0:0:0:
376,189,168270,1,0,0:0:0:0:
350,263,168520,2,0,L|245:266,1,62.5000001490117
282,269,168770,1,0,0:0:0:0:
282,269,168895,1,0,0:0:0:0:
158,281,169145,6,0,L|98:219,1,62.5000001490117
115,237,169395,2,0,L|172:184,1,62.5000001490117
160,194,169520,2,0,L|109:139,1,62.5000001490117
117,148,169770,2,0,L|206:94,1,62.5000001490117
180,112,170083,1,0,0:0:0:0:
244,110,170270,6,0,L|358:112,1,62.5000001490117
331,169,170645,2,0,L|377:275,1,62.5000001490117
335,302,171145,2,0,L|199:302,1,125.000000298023
210,302,171645,2,0,L|120:222,1,62.5000001490117
103,207,172145,2,0,P|187:66|221:83,1,250.000000596047
289,81,173020,6,0,L|358:145,1,62.5000001490117
334,123,173270,2,0,L|270:165,1,62.5000001490117
281,157,173520,2,0,L|339:217,1,62.5000001490117
324,201,173645,2,0,L|238:246,1,62.5000001490117
268,229,173770,2,0,L|328:302,1,62.5000001490117
315,329,174145,5,0,0:0:0:0:
315,329,174270,2,0,L|197:333,1,62.5000001490117
190,332,174645,2,0,L|116:296,1,62.5000001490117
104,240,175020,2,0,P|101:68|158:79,1,250.000000596047
167,69,175645,2,0,L|348:70,1,125.000000298023
360,67,176145,2,0,P|443:215|350:268,1,312.500000745059
91,99,177145,6,0,P|182:56|195:66,1,125.000000298023
187,59,177520,1,0,0:0:0:0:
198,64,177645,1,0,0:0:0:0:
277,68,177895,2,0,L|388:64,1,62.5000001490117
345,67,178145,1,0,0:0:0:0:
413,110,178395,2,0,P|418:221|404:221,1,125.000000298023
398,234,178895,6,0,L|304:237,1,62.5000001490117
277,207,179270,2,0,L|223:152,1,62.5000001490117
233,162,179645,2,0,L|160:231,1,62.5000001490117
137,168,180020,2,0,B|193:292|193:292|247:160|295:289|295:289|358:151,1,437.500001043082
366,129,181145,6,0,L|316:75,1,62.5000001490117
317,77,181395,1,0,0:0:0:0:
246,78,181645,2,0,L|128:79,1,62.5000001490117
177,76,181895,1,0,0:0:0:0:
177,76,182020,2,0,L|47:79,1,125.000000298023
78,173,182520,6,0,L|135:290,1,125.000000298023
132,285,182770,2,0,L|208:181,1,125.000000298023
205,184,183020,2,0,L|252:306,1,125.000000298023
249,300,183303,2,0,L|336:156,1,125.000000298023
202,186,183895,2,0,B|254:45|321:164|320:240,1,187.500000447035
