osu file format v14

[General]
AudioFilename: audio.mp3
AudioLeadIn: 0
PreviewTime: 8058
Countdown: 0
SampleSet: Soft
StackLeniency: 0.7
Mode: 2
LetterboxInBreaks: 0
WidescreenStoryboard: 0

[Editor]
DistanceSpacing: 1.1
BeatDivisor: 4
GridSize: 4
TimelineZoom: 1

[Metadata]
Title:Shop
TitleUnicode:ショップ
Artist:Tomohito Nishiura
ArtistUnicode:西浦 智仁
Creator:JBHyperion
Version:Platter
Source:Dark Cloud 2
Tags:ダーククラウド dark chronicle cloud 2 two OST original sound tracks playstation rpg LEVEL-5 Inc. Magic Bomb MBomb
BeatmapID:1467453
BeatmapSetID:693535

[Difficulty]
HPDrainRate:5
CircleSize:3.5
OverallDifficulty:7.5
ApproachRate:7.5
SliderMultiplier:2
SliderTickRate:2

[Events]
//Background and Video events
0,0,"shop.jpg",0,0
//Break Periods
//Storyboard Layer 0 (Background)
//Storyboard Layer 1 (Fail)
//Storyboard Layer 2 (Pass)
//Storyboard Layer 3 (Foreground)
//Storyboard Sound Samples

[TimingPoints]
371,500,4,2,77,50,1,0
16120,-100,4,2,77,20,0,0
16162,-100,4,2,77,50,0,0
27371,-80,4,2,77,50,0,0
27871,-100,4,2,77,50,0,0
42371,-100,4,2,77,45,0,0
42871,-100,4,2,77,40,0,0
43371,-100,4,2,77,35,0,0
43871,-100,4,2,77,30,0,0
44371,-100,4,2,77,20,0,0
44871,-100,4,2,77,17,0,0
45371,-100,4,2,77,15,0,0
45871,-100,4,2,77,13,0,0
46371,-100,4,2,77,11,0,0
46871,-100,4,2,77,9,0,0
47371,-100,4,2,77,7,0,0
47871,-100,4,2,77,5,0,0

[Colours]
Combo1 : 175,95,95
Combo2 : 255,65,65
Combo3 : 255,255,128
Combo4 : 128,128,255

[HitObjects]
344,252,371,6,0,L|352:148,1,100,8|0,0:0|0:0,0:0:0:0:
152,152,871,1,2,0:0:0:0:
252,152,1121,1,0,0:0:0:0:
412,152,1371,2,0,L|500:100,1,100,8|0,0:0|0:0,0:0:0:0:
296,104,1871,1,2,0:0:0:0:
196,104,2121,1,0,0:0:0:0:
356,104,2371,6,0,L|404:192,1,100,8|0,0:0|0:0,0:0:0:0:
204,192,2871,1,2,0:0:0:0:
304,192,3121,1,0,0:0:0:0:
144,192,3371,2,0,L|64:256,1,100,8|0,0:0|0:0,0:0:0:0:
268,256,3871,1,2,0:0:0:0:
378,192,4121,1,0,0:0:0:0:
178,192,4371,6,0,L|78:192,1,100,8|0,0:0|0:0,0:0:0:0:
278,116,4871,1,2,0:0:0:0:
178,116,5121,1,0,0:0:0:0:
18,116,5371,2,0,L|90:48,1,100,8|0,0:0|0:0,0:0:0:0:
290,48,5871,1,2,0:0:0:0:
190,48,6121,1,0,0:0:0:0:
350,48,6371,6,0,L|450:48,1,100,8|0,0:0|0:0,0:0:0:0:
250,124,6871,1,2,0:0:0:0:
350,124,7121,1,0,0:0:0:0:
190,124,7371,2,0,L|118:192,1,100,8|0,0:0|0:0,0:0:0:0:
318,192,7871,1,2,0:0:0:0:
448,192,8121,1,0,0:0:0:0:
388,192,8246,1,0,0:0:0:0:
252,192,8371,6,0,L|152:192,1,100,4|0,0:0|0:0,0:0:0:0:
364,280,8871,1,2,0:0:0:0:
244,280,9121,1,0,0:0:0:0:
464,280,9371,2,0,P|480:228|404:112,1,200,8|2,0:0|0:0,0:0:0:0:
268,112,10121,2,0,L|212:112,1,50
268,112,10371,6,0,P|320:136|336:176,1,100,8|0,0:0|0:0,0:0:0:0:
136,172,10871,1,2,0:0:0:0:
256,172,11121,1,0,0:0:0:0:
36,172,11371,2,0,L|32:272,1,100,8|0,0:0|0:0,0:0:0:0:
272,272,11871,1,2,0:0:0:0:
92,272,12371,6,0,L|176:216,1,100,8|0,0:0|0:0,0:0:0:0:
336,192,12871,2,0,L|300:96,1,100,2|0,0:0|0:0,0:0:0:0:
100,96,13371,2,0,L|208:96,1,100,8|0,0:0|0:0,0:0:0:0:
420,96,13871,1,2,0:0:0:0:
96,120,14287,1,0,0:0:0:0:
56,120,14371,6,0,P|68:160|124:192,1,100,8|0,0:0|0:0,0:0:0:0:
316,192,14871,1,2,0:0:0:0:
196,192,15121,1,0,0:0:0:0:
416,192,15371,2,0,P|440:240|424:296,1,100,8|0,0:0|0:0,0:0:0:0:
400,312,15704,1,0,0:0:0:0:
360,324,15787,1,0,0:0:0:0:
312,324,15871,2,0,L|200:280,1,116.666666666667,2|0,0:0|0:0,0:0:0:0:
288,256,16287,1,0,0:0:0:0:
348,228,16371,6,0,L|352:124,1,100,8|0,0:0|0:0,0:0:0:0:
172,140,16871,1,2,0:0:0:0:
292,76,17121,1,0,0:0:0:0:
40,96,17371,2,0,P|8:140|92:232,1,200,8|2,0:0|0:0,0:0:0:0:
232,232,18121,2,0,L|176:232,1,50
132,232,18371,6,0,P|80:256|64:296,1,100,8|0,0:0|0:0,0:0:0:0:
268,332,18871,1,2,0:0:0:0:
148,332,19121,1,0,0:0:0:0:
368,332,19371,2,0,L|372:232,1,100,8|0,0:0|0:0,0:0:0:0:
132,232,19871,1,2,0:0:0:0:
332,232,20371,6,0,L|240:192,2,100,8|0|2,0:0|0:0|0:0,0:0:0:0:
432,232,21121,1,0,0:0:0:0:
232,232,21371,2,0,P|172:156|236:96,1,200,8|2,0:0|0:0,0:0:0:0:
344,96,22121,1,0,0:0:0:0:
164,96,22287,1,0,0:0:0:0:
116,96,22371,6,0,L|16:96,1,100,8|0,0:0|0:0,0:0:0:0:
220,180,22871,1,2,0:0:0:0:
100,180,23121,1,0,0:0:0:0:
280,180,23371,2,0,L|384:188,1,100,8|0,0:0|0:0,0:0:0:0:
408,136,23704,1,0,0:0:0:0:
396,76,23787,1,0,0:0:0:0:
352,40,23871,1,2,0:0:0:0:
152,40,24121,1,0,0:0:0:0:
432,136,24371,6,0,L|469:40,1,100,8|0,0:0|0:0,0:0:0:0:
260,40,24871,2,0,L|156:40,1,100,2|0,0:0|0:0,0:0:0:0:
480,112,25371,2,8,P|504:168|424:264,1,200,8|2,0:0|0:0,0:0:0:0:
224,264,26121,1,0,0:0:0:0:
164,264,26246,1,0,0:0:0:0:
224,264,26371,6,0,L|328:264,1,100,8|0,0:0|0:0,0:0:0:0:
124,172,26871,2,0,L|24:192,1,100,2|0,0:0|0:0,0:0:0:0:
344,172,27371,2,0,P|392:92|276:56,1,250,8|2,0:0|0:0,0:0:0:0:
412,172,28121,1,0,0:0:0:0:
192,172,28371,6,0,L|92:192,1,100,8|0,0:0|0:0,0:0:0:0:
304,320,28871,2,0,L|372:236,1,100,2|0,0:0|0:0,0:0:0:0:
45,343,29371,2,0,P|21:287|101:191,1,200,8|2,0:0|0:0,0:0:0:0:
301,191,30121,1,0,0:0:0:0:
361,191,30246,1,0,0:0:0:0:
301,191,30371,6,0,L|184:192,1,100,8|0,0:0|0:0,0:0:0:0:
412,104,30871,1,2,0:0:0:0:
272,104,31121,1,0,0:0:0:0:
492,104,31371,2,0,L|504:204,1,100,8|0,0:0|0:0,0:0:0:0:
284,204,31871,1,2,0:0:0:0:
456,204,32121,1,0,0:0:0:0:
136,204,32371,6,0,L|128:304,1,100,8|0,0:0|0:0,0:0:0:0:
348,304,32871,2,0,L|436:248,1,100,2|0,0:0|0:0,0:0:0:0:
112,204,33371,2,0,P|52:144|116:72,1,200,8|2,0:0|0:0,0:0:0:0:
336,72,34121,2,0,L|272:72,1,50
356,72,34371,6,0,L|460:72,1,100,8|0,0:0|0:0,0:0:0:0:
256,168,34871,1,2,0:0:0:0:
376,168,35121,1,0,0:0:0:0:
40,168,35371,2,0,P|64:256|160:308,1,200,8|2,0:0|0:0,0:0:0:0:
356,308,36121,1,0,0:0:0:0:
286,308,36246,1,0,0:0:0:0:
216,308,36371,6,0,L|112:308,1,100,8|0,0:0|0:0,0:0:0:0:
316,216,36871,1,2,0:0:0:0:
148,216,37121,1,0,0:0:0:0:
472,216,37371,2,0,B|472:164|472:164|428:140,1,100,8|0,0:0|0:0,0:0:0:0:
194,145,37871,2,0,L|82:145,1,100,2|0,0:0|0:0,0:0:0:0:
419,42,38371,6,0,L|430:141,1,100,8|0,0:0|0:0,0:0:0:0:
208,160,38871,1,2,0:0:0:0:
328,160,39121,1,0,0:0:0:0:
112,308,39371,2,0,L|100:204,1,100,8|0,0:0|0:0,0:0:0:0:
300,200,39871,1,2,0:0:0:0:
420,200,40121,1,0,0:0:0:0:
360,200,40246,1,0,0:0:0:0:
300,200,40371,6,0,L|400:200,1,100,4|0,0:0|0:0,0:0:0:0:
220,112,40871,1,2,0:0:0:0:
340,112,41121,1,0,0:0:0:0:
120,112,41371,2,0,P|104:164|180:280,1,200,8|2,0:0|0:0,0:0:0:0:
316,280,42121,2,0,L|376:280,1,50
424,280,42371,6,0,P|400:224|364:208,1,100,8|0,0:0|0:0,0:0:0:0:
164,208,42871,1,2,0:0:0:0:
272,208,43121,1,0,0:0:0:0:
452,208,43371,2,0,L|456:308,1,100,8|0,0:0|0:0,0:0:0:0:
256,308,43871,1,2,0:0:0:0:
256,192,44371,12,0,47871,0:0:0:0:
