osu file format v14

[General]
AudioFilename: audio.mp3
AudioLeadIn: 0
PreviewTime: 440
Countdown: 0
SampleSet: Soft
StackLeniency: 0.7
Mode: 2
LetterboxInBreaks: 0
WidescreenStoryboard: 0

[Editor]
Bookmarks: 564,16431,32299,48167,63787
DistanceSpacing: 1.2
BeatDivisor: 4
GridSize: 4
TimelineZoom: 1

[Metadata]
Title:Secret energy
TitleUnicode:Secret energy
Artist:Tomohito Nishiura
ArtistUnicode:西浦智仁
Creator:JBHyperion
Version:Salad
Source:Dark Cloud 2
Tags:ダーククラウド Chronicle ost original sound tracks playstation rpg level-5 inc. instrumental Possibly an unused theme for Emperor Griffon JBH ZiRoX Withered Lotus Sanyi
BeatmapID:1322383
BeatmapSetID:627545

[Difficulty]
HPDrainRate:4
CircleSize:2.8
OverallDifficulty:6.7
ApproachRate:6.7
SliderMultiplier:1.6
SliderTickRate:1

[Events]
//Background and Video events
0,0,"Griffon10k.png",0,0
//Break Periods
//Storyboard Layer 0 (Background)
//Storyboard Layer 1 (Fail)
//Storyboard Layer 2 (Pass)
//Storyboard Layer 3 (Foreground)
//Storyboard Sound Samples

[TimingPoints]
564,495.867768595041,4,2,2,100,1,0
687,-100,4,2,1,100,0,0
4530,-100,4,2,2,100,0,0
4654,-100,4,2,1,100,0,0
8497,-100,4,2,2,100,0,0
8621,-100,4,2,1,100,0,0
12464,-100,4,2,2,100,0,0
12588,-100,4,2,1,100,0,0
14200,-100,4,3,1,100,0,0
15935,-100,4,3,2,60,0,0
16431,-100,4,2,2,100,0,0
16555,-100,4,3,1,75,0,0
23869,-100,4,3,2,50,0,0
24365,-100,4,2,2,100,0,0
24489,-100,4,3,1,75,0,0
31803,-100,4,3,2,50,0,0
32299,-100,4,2,2,100,0,0
32423,-100,4,3,1,80,0,0
40233,-100,4,2,2,100,0,0
40357,-100,4,3,1,85,0,0
46183,-100,4,3,1,90,0,0
46555,-100,4,2,1,100,0,0
46927,-100,4,3,1,90,0,0
47299,-100,4,2,1,100,0,0
47671,-100,4,3,2,70,0,0
47919,-100,4,2,1,100,0,0
48167,-100,4,2,2,80,0,1
48291,-100,4,3,1,100,0,1
51266,-100,4,2,1,100,0,1
51514,-100,4,3,1,100,0,1
51886,-100,4,3,2,80,0,1
52134,-100,4,2,2,100,0,1
52258,-100,4,3,1,100,0,1
55853,-100,4,2,1,100,0,0
56101,-100,4,2,2,80,0,1
56225,-100,4,3,1,100,0,1
59200,-100,4,2,1,100,0,1
59448,-100,4,3,1,100,0,1
59820,-100,4,3,2,80,0,1
60068,-100,4,2,2,100,0,1
60192,-100,4,3,1,100,0,1
63043,-100,4,2,2,100,0,1
63167,-100,4,2,1,100,0,1
63787,-100,4,2,2,100,0,0
64035,-100,4,2,1,21,0,0
64283,-100,4,2,1,19,0,0
64530,-100,4,2,1,17,0,0
64778,-100,4,2,1,15,0,0
65026,-100,4,2,1,13,0,0
65274,-100,4,2,1,11,0,0
65522,-100,4,2,1,9,0,0
65770,-100,4,2,1,7,0,0
66018,-100,4,2,1,5,0,0

[Colours]
Combo1 : 160,0,80
Combo2 : 0,120,160

[HitObjects]
304,352,564,6,0,L|308:192,1,160,4|2,0:0|0:0,0:0:0:0:
116,192,1555,2,0,L|28:192,2,80,8|0|2,0:0|0:0|0:0,0:0:0:0:
468,192,2547,6,0,L|504:76,1,120,4|4,0:0|0:0,0:0:0:0:
372,192,3291,2,0,L|264:136,1,120,4|4,0:0|0:0,0:0:0:0:
416,136,4035,2,0,L|332:136,1,80,4|2,0:0|0:0,0:0:0:0:
120,136,4530,6,0,B|40:136|40:136|12:212,1,160,4|2,0:0|0:0,0:0:0:0:
212,212,5522,1,8,0:0:0:0:
300,212,5770,1,0,0:0:0:0:
388,212,6018,1,2,0:0:0:0:
36,208,6514,6,0,L|32:336,1,120,4|4,0:0|0:0,0:0:0:0:
200,204,7258,2,0,L|204:332,1,120,4|4,0:0|0:0,0:0:0:0:
372,204,8002,2,0,L|456:204,1,80,4|2,0:0|0:0,0:0:0:0:
236,204,8497,6,0,L|156:192,2,80,4|0|2,0:0|0:0|0:0,0:0:0:0:
316,204,9241,1,0,0:0:0:0:
220,292,9489,2,0,L|136:292,1,80,8|0,0:0|0:0,0:0:0:0:
44,192,9985,2,0,L|132:192,1,80,2|0,0:0|0:0,0:0:0:0:
340,192,10481,6,0,L|443:132,1,120,4|4,0:0|0:0,0:0:0:0:
288,112,11225,2,0,L|391:52,1,120,4|4,0:0|0:0,0:0:0:0:
236,52,11968,2,0,L|148:52,1,80,4|2,0:0|0:0,0:0:0:0:
372,52,12464,6,0,L|452:40,2,80,4|0|2,0:0|0:0|0:0,0:0:0:0:
292,52,13208,1,0,0:0:0:0:
160,140,13456,2,0,L|244:140,1,80,8|0,0:0|0:0,0:0:0:0:
376,228,13952,2,0,L|288:228,1,80,2|8,0:0|0:0,0:0:0:0:
72,228,14448,6,0,P|16:196|4:136,2,120,12|0|0,0:0|0:0|0:0,0:0:0:0:
172,228,15440,1,4,0:0:0:0:
364,228,15935,2,0,L|436:192,1,80,8|0,0:0|0:0,0:0:0:0:
220,192,16431,6,0,P|152:164|120:84,1,160,4|8,0:0|0:0,0:0:0:0:
144,88,17051,1,0,0:0:0:0:
312,88,17423,2,0,L|432:88,1,120,8|8,0:0|0:0,0:0:0:0:
392,88,17919,2,0,L|300:88,1,80,0|8,0:0|0:0,0:0:0:0:
200,88,18415,6,0,L|284:88,1,80,2|8,0:0|0:0,0:0:0:0:
376,192,18911,1,0,0:0:0:0:
401,192,19035,2,0,L|280:191,1,120,8|8,0:0|0:0,0:0:0:0:
168,192,19654,2,0,P|104:224|72:304,1,160,2|0,0:0|0:0,0:0:0:0:
288,304,20398,6,0,P|356:276|388:200,1,160,12|8,0:0|0:0,0:0:0:0:
344,304,21018,1,0,0:0:0:0:
172,192,21390,2,0,P|92:160|72:92,1,160,8|0,0:0|0:0,0:0:0:0:
168,96,22134,1,8,0:0:0:0:
384,96,22382,5,4,0:0:0:0:
288,96,22630,2,0,L|196:176,2,120,8|8|2,0:0|0:0|0:0,0:0:0:0:
124,112,23869,1,8,0:0:0:0:
72,192,24117,1,8,0:0:0:0:
300,192,24365,6,0,P|368:220|400:300,1,160,4|8,0:0|0:0,0:0:0:0:
376,296,24985,1,0,0:0:0:0:
208,296,25357,1,8,0:0:0:0:
320,296,25605,2,0,P|377:265|344:192,1,160,2|8,0:0|0:0,0:0:0:0:
240,192,26349,5,2,0:0:0:0:
136,192,26597,2,0,L|243:130,2,120,8|8|8,0:0|0:0|0:0,0:0:0:0:
376,192,27836,2,0,L|300:148,1,80,2|0,0:0|0:0,0:0:0:0:
88,152,28332,5,12,0:0:0:0:
184,152,28580,2,0,L|276:76,2,120,8|8|8,0:0|0:0|0:0,0:0:0:0:
32,152,29696,2,0,L|152:152,1,120,2|0,0:0|0:0,0:0:0:0:
376,152,30316,6,0,L|384:236,1,80,12|0,0:0|0:0,0:0:0:0:
272,232,30811,2,0,L|260:276,1,40,8|0,0:0|0:0,0:0:0:0:
404,272,31307,1,8,0:0:0:0:
208,272,31803,2,0,L|120:272,1,80,8|8,0:0|0:0,0:0:0:0:
344,192,32299,6,0,L|432:192,1,80,4|0,0:0|0:0,0:0:0:0:
312,192,32795,1,8,0:0:0:0:
279,192,32919,2,0,L|167:147,1,120,0|8,0:0|0:0,0:0:0:0:
312,104,33663,2,0,P|367:83|394:31,1,120,8|8,0:0|0:0,0:0:0:0:
280,32,34283,6,0,L|192:32,1,80,2|0,0:0|0:0,0:0:0:0:
104,32,34778,2,0,L|52:32,2,40,8|0|0,0:0|0:0|0:0,0:0:0:0:
200,128,35274,2,0,L|280:128,1,80,8|0,0:0|0:0,0:0:0:0:
160,212,35770,2,0,L|80:192,1,80,2|0,0:0|0:0,0:0:0:0:
300,212,36266,6,0,L|392:212,1,80,12|0,0:0|0:0,0:0:0:0:
268,212,36762,1,8,0:0:0:0:
236,212,36886,2,0,P|256:148|304:124,1,120,0|8,0:0|0:0,0:0:0:0:
444,124,37630,2,0,L|320:124,1,120,2|8,0:0|0:0,0:0:0:0:
108,120,38249,5,12,0:0:0:0:
12,120,38497,2,0,L|144:120,1,120
132,120,38993,1,0,0:0:0:0:
260,120,39241,2,0,L|276:208,1,80,2|0,0:0|0:0,0:0:0:0:
144,196,39737,2,0,L|136:280,1,80,8|8,0:0|0:0,0:0:0:0:
356,276,40233,6,0,L|444:276,1,80,4|0,0:0|0:0,0:0:0:0:
324,276,40729,1,8,0:0:0:0:
291,276,40853,2,0,L|179:231,1,120,0|8,0:0|0:0,0:0:0:0:
404,192,41473,2,0,P|460:152|400:116,1,160,2|0,0:0|0:0,0:0:0:0:
180,116,42216,6,0,P|116:144|84:228,1,160,8|2,0:0|0:0,0:0:0:0:
180,224,42960,1,0,0:0:0:0:
292,224,43208,2,0,L|176:192,2,120,8|8|8,0:0|0:0|0:0,0:0:0:0:
76,224,44200,6,0,P|20:264|80:300,1,160,12|8,0:0|0:0,0:0:0:0:
172,304,44944,1,0,0:0:0:0:
268,304,45192,2,0,L|140:304,1,120
148,304,45687,2,0,L|216:260,1,80,2|0,0:0|0:0,0:0:0:0:
436,192,46183,6,0,L|440:68,1,120,4|4,0:0|0:0,0:0:0:0:
260,192,46927,2,0,L|256:68,1,120,4|4,0:0|0:0,0:0:0:0:
448,72,47671,1,8,0:0:0:0:
88,72,48167,6,0,L|8:72,1,80,6|0,0:0|0:0,0:0:0:0:
136,72,48663,1,8,0:0:0:0:
184,72,48787,1,0,0:0:0:0:
352,72,49159,2,0,L|248:72,1,80,8|0,0:0|0:0,0:0:0:0:
184,72,49530,2,0,L|312:72,1,120,8|8,0:0|0:0,0:0:0:0:
80,72,50150,6,0,L|72:168,1,80,4|0,0:0|0:0,0:0:0:0:
120,152,50522,1,0,0:0:0:0:
168,152,50646,2,0,L|228:152,1,40,8|0,0:0|0:0,0:0:0:0:
376,236,51142,2,0,L|400:268,2,40,4|2|2,0:0|0:0|0:0,0:0:0:0:
320,236,51514,2,0,L|188:236,1,120,4|8,0:0|0:0,0:0:0:0:
416,352,52134,6,0,L|496:352,1,80,4|0,0:0|0:0,0:0:0:0:
368,352,52630,1,8,0:0:0:0:
320,352,52754,1,0,0:0:0:0:
476,208,53125,2,0,L|372:208,1,80,8|0,0:0|0:0,0:0:0:0:
340,208,53497,2,0,L|468:208,1,120,8|8,0:0|0:0,0:0:0:0:
240,208,54117,6,0,L|144:208,1,80,4|0,0:0|0:0,0:0:0:0:
112,208,54489,1,0,0:0:0:0:
160,208,54613,2,0,L|256:208,1,80,8|0,0:0|0:0,0:0:0:0:
20,208,55109,5,4,0:0:0:0:
156,168,55481,1,4,0:0:0:0:
36,168,55853,1,4,0:0:0:0:
256,64,56101,6,0,L|336:64,1,80,6|0,0:0|0:0,0:0:0:0:
448,152,56597,1,8,0:0:0:0:
400,152,56721,1,0,0:0:0:0:
232,152,57092,2,0,L|152:152,1,80,8|0,0:0|0:0,0:0:0:0:
208,152,57464,2,0,L|328:152,1,120,8|8,0:0|0:0,0:0:0:0:
108,152,58084,6,0,L|24:152,1,80,4|0,0:0|0:0,0:0:0:0:
76,232,58456,1,0,0:0:0:0:
132,232,58580,2,0,L|192:232,1,40,8|0,0:0|0:0,0:0:0:0:
460,232,59076,5,4,0:0:0:0:
500,268,59200,1,2,0:0:0:0:
504,324,59324,1,2,0:0:0:0:
460,360,59448,2,0,L|328:360,1,120,4|8,0:0|0:0,0:0:0:0:
124,360,60068,6,0,L|108:272,1,80,4|0,0:0|0:0,0:0:0:0:
220,360,60563,1,8,0:0:0:0:
272,360,60687,1,0,0:0:0:0:
109,281,61059,2,0,L|29:281,1,80,8|0,0:0|0:0,0:0:0:0:
85,281,61431,2,0,L|192:228,1,120,8|8,0:0|0:0,0:0:0:0:
412,228,62051,6,0,L|508:228,1,80,4|0,0:0|0:0,0:0:0:0:
444,228,62423,1,0,0:0:0:0:
396,228,62547,2,0,L|480:228,1,80,8|0,0:0|0:0,0:0:0:0:
252,192,63043,5,4,0:0:0:0:
424,136,63415,1,4,0:0:0:0:
112,192,63787,1,6,0:0:0:0:
256,192,64283,12,0,66018,0:0:0:0:
