osu file format v14

[General]
AudioFilename: audio.mp3
AudioLeadIn: 0
PreviewTime: 440
Countdown: 0
SampleSet: None
StackLeniency: 0.7
Mode: 2
LetterboxInBreaks: 0
WidescreenStoryboard: 0

[Editor]
Bookmarks: 564,16431,32299,48167,63787
DistanceSpacing: 1.3
BeatDivisor: 4
GridSize: 4
TimelineZoom: 1

[Metadata]
Title:Secret energy
TitleUnicode:Secret energy
Artist:Tomohito Nishiura
ArtistUnicode:西浦智仁
Creator:JBHyperion
Version:Platter
Source:Dark Cloud 2
Tags:ダーククラウド Chronicle ost original sound tracks playstation rpg level-5 inc. instrumental Possibly an unused theme for Emperor Griffon JBH ZiRoX Withered Lotus Sanyi
BeatmapID:1322381
BeatmapSetID:627545

[Difficulty]
HPDrainRate:5
CircleSize:3.2
OverallDifficulty:7.8
ApproachRate:7.8
SliderMultiplier:1.7
SliderTickRate:1

[Events]
//Background and Video events
0,0,"Griffon10k.png",0,0
//Break Periods
//Storyboard Layer 0 (Background)
//Storyboard Layer 1 (Fail)
//Storyboard Layer 2 (Pass)
//Storyboard Layer 3 (Foreground)
//Storyboard Sound Samples

[TimingPoints]
564,495.867768595041,4,2,2,100,1,0
687,-100,4,2,1,100,0,0
4530,-100,4,2,2,100,0,0
4654,-100,4,2,1,100,0,0
8497,-100,4,2,2,100,0,0
8621,-100,4,2,1,100,0,0
12464,-100,4,2,2,100,0,0
12588,-100,4,2,1,100,0,0
14200,-100,4,3,1,100,0,0
15935,-100,4,3,2,60,0,0
16431,-100,4,2,2,100,0,0
16555,-100,4,3,1,75,0,0
22382,-80,4,3,1,75,0,0
22630,-100,4,3,1,75,0,0
23869,-100,4,3,2,50,0,0
24365,-100,4,2,2,100,0,0
24489,-100,4,3,1,75,0,0
31803,-100,4,3,2,50,0,0
32299,-100,4,2,2,100,0,0
32423,-100,4,3,1,80,0,0
33291,-80,4,3,1,80,0,0
34035,-100,4,3,1,80,0,0
39861,-100,4,2,1,100,0,0
39985,-100,4,3,1,80,0,0
40233,-100,4,2,2,100,0,0
40357,-100,4,3,1,85,0,0
46183,-100,4,3,1,90,0,0
46555,-100,4,2,1,100,0,0
46927,-100,4,3,1,90,0,0
47299,-100,4,2,1,100,0,0
47671,-100,4,3,2,70,0,0
47919,-100,4,2,1,100,0,0
48167,-80,4,2,2,80,0,1
48291,-80,4,3,1,100,0,1
51266,-80,4,2,1,100,0,1
51514,-80,4,3,1,100,0,1
51886,-80,4,3,2,80,0,1
52134,-80,4,2,2,100,0,1
52258,-80,4,3,1,100,0,1
55853,-80,4,2,1,100,0,0
56101,-80,4,2,2,80,0,1
56225,-80,4,3,1,100,0,1
59200,-80,4,2,1,100,0,1
59448,-80,4,3,1,100,0,1
59820,-80,4,3,2,80,0,1
60068,-80,4,2,2,100,0,1
60192,-80,4,3,1,100,0,1
63043,-80,4,2,2,100,0,1
63167,-80,4,2,1,100,0,1
63787,-80,4,2,2,100,0,0
64035,-100,4,2,1,21,0,0
64283,-100,4,2,1,19,0,0
64530,-100,4,2,1,17,0,0
64778,-100,4,2,1,15,0,0
65026,-100,4,2,1,13,0,0
65274,-100,4,2,1,11,0,0
65522,-100,4,2,1,9,0,0
65770,-100,4,2,1,7,0,0
66018,-100,4,2,1,5,0,0

[Colours]
Combo1 : 160,0,80
Combo2 : 0,120,160

[HitObjects]
352,272,564,6,0,L|360:180,1,85,4|0,0:0|0:0,0:0:0:0:
256,188,1059,2,0,L|248:96,1,85,2|0,0:0|0:0,0:0:0:0:
460,108,1555,2,0,L|512:108,2,42.5,8|0|0,0:0|0:0|0:0,0:0:0:0:
236,108,2051,2,0,L|136:108,1,85,2|0,0:0|0:0,0:0:0:0:
372,108,2547,6,0,L|372:204,1,85,4|0,0:0|0:0,0:0:0:0:
296,192,2919,2,0,L|296:288,1,85,4|0,0:0|0:0,0:0:0:0:
220,276,3291,2,0,L|220:180,1,85,4|0,0:0|0:0,0:0:0:0:
144,192,3663,2,0,L|144:96,1,85,4|0,0:0|0:0,0:0:0:0:
240,108,4035,2,0,L|340:108,1,85,4|2,0:0|0:0,0:0:0:0:
68,108,4530,6,0,L|64:200,1,85,4|0,0:0|0:0,0:0:0:0:
192,192,5026,1,2,0:0:0:0:
244,192,5150,1,2,0:0:0:0:
296,192,5274,1,0,0:0:0:0:
92,280,5522,2,0,L|44:280,2,42.5,8|0|0,0:0|0:0|0:0,0:0:0:0:
304,280,6018,2,0,L|392:280,1,85,2|0,0:0|0:0,0:0:0:0:
156,280,6514,6,0,L|240:280,1,85,4|0,0:0|0:0,0:0:0:0:
156,192,6886,2,0,L|244:192,1,85,4|0,0:0|0:0,0:0:0:0:
326,192,7258,2,0,L|234:192,1,85,4|0,0:0|0:0,0:0:0:0:
326,280,7630,2,0,L|241:280,1,85,4|0,0:0|0:0,0:0:0:0:
336,280,8002,2,0,L|428:280,1,85,4|2,0:0|0:0,0:0:0:0:
100,280,8497,5,4,0:0:0:0:
54,255,8621,1,2,0:0:0:0:
39,205,8745,1,2,0:0:0:0:
63,159,8869,1,0,0:0:0:0:
112,143,8993,2,0,L|216:144,1,85,2|0,0:0|0:0,0:0:0:0:
412,144,9489,2,0,L|456:144,2,42.5,8|0|0,0:0|0:0|0:0,0:0:0:0:
196,224,9985,2,0,L|280:224,1,85,2|0,0:0|0:0,0:0:0:0:
68,224,10481,6,0,L|68:312,1,85,4|0,0:0|0:0,0:0:0:0:
144,308,10853,2,0,L|144:224,1,85,4|0,0:0|0:0,0:0:0:0:
212,224,11225,1,4,0:0:0:0:
144,223,11349,1,0,0:0:0:0:
76,224,11473,1,0,0:0:0:0:
144,144,11597,1,4,0:0:0:0:
76,144,11721,1,0,0:0:0:0:
8,144,11844,1,0,0:0:0:0:
92,64,11968,2,0,L|180:64,1,85,4|2,0:0|0:0,0:0:0:0:
400,64,12464,6,0,L|424:124,2,42.5,4|2|2,0:0|0:0|0:0,0:0:0:0:
248,64,12960,2,0,L|224:124,2,42.5,2|0|0,0:0|0:0|0:0,0:0:0:0:
472,120,13456,1,8,0:0:0:0:
500,160,13580,1,0,0:0:0:0:
504,208,13704,1,0,0:0:0:0:
488,252,13828,1,0,0:0:0:0:
460,276,13952,2,0,L|372:276,1,85,2|8,0:0|0:0,0:0:0:0:
60,272,14448,5,12,0:0:0:0:
188,192,14820,1,0,0:0:0:0:
60,192,15192,1,0,0:0:0:0:
284,272,15440,1,4,0:0:0:0:
104,272,15935,2,0,L|36:216,1,85,8|0,0:0|0:0,0:0:0:0:
364,224,16431,6,0,L|460:224,1,85,4|0,0:0|0:0,0:0:0:0:
228,224,16927,2,0,L|220:172,1,42.5,8|0,0:0|0:0,0:0:0:0:
396,152,17423,2,0,P|412:108|376:40,1,127.5,8|8,0:0|0:0,0:0:0:0:
288,40,17919,2,0,L|196:40,1,85,0|8,0:0|0:0,0:0:0:0:
416,40,18415,6,0,L|432:136,1,85,2|8,0:0|0:0,0:0:0:0:
216,124,18911,1,0,0:0:0:0:
156,124,19035,2,0,L|28:124,1,127.5,8|8,0:0|0:0,0:0:0:0:
164,192,19654,1,2,0:0:0:0:
284,192,19902,2,0,L|184:192,1,85
420,192,20398,6,0,L|516:192,1,85,12|0,0:0|0:0,0:0:0:0:
284,192,20894,2,0,L|276:244,1,42.5,8|0,0:0|0:0,0:0:0:0:
468,264,21390,2,0,L|336:264,1,127.5,8|0,0:0|0:0,0:0:0:0:
396,344,21886,2,0,L|481:344,1,85,0|8,0:0|0:0,0:0:0:0:
252,344,22382,6,0,L|140:344,1,106.25,4|8,0:0|0:0,0:0:0:0:
84,340,22754,1,0,0:0:0:0:
40,288,22878,1,0,0:0:0:0:
40,220,23002,1,8,0:0:0:0:
248,224,23373,1,2,0:0:0:0:
52,224,23869,2,0,L|132:192,1,85,8|8,0:0|0:0,0:0:0:0:
460,192,24365,6,0,L|472:276,1,85,4|0,0:0|0:0,0:0:0:0:
256,348,24861,2,0,L|248:296,1,42.5,8|0,0:0|0:0,0:0:0:0:
96,304,25357,2,0,L|228:304,1,127.5,8|0,0:0|0:0,0:0:0:0:
156,224,25853,2,0,L|108:224,2,42.5,0|0|8,0:0|0:0|0:0,0:0:0:0:
376,224,26349,6,0,L|468:224,1,85,2|8,0:0|0:0,0:0:0:0:
504,180,26721,1,0,0:0:0:0:
500,128,26844,1,0,0:0:0:0:
452,96,26968,2,0,L|324:96,1,127.5,8|8,0:0|0:0,0:0:0:0:
204,192,27588,1,0,0:0:0:0:
264,192,27712,1,0,0:0:0:0:
324,192,27836,2,0,L|224:192,1,85,2|0,0:0|0:0,0:0:0:0:
12,192,28332,6,0,L|104:192,1,85,12|0,0:0|0:0,0:0:0:0:
312,192,28828,2,0,L|260:192,1,42.5,0|8,0:0|0:0,0:0:0:0:
64,276,29324,2,0,L|196:276,1,127.5,8|0,0:0|0:0,0:0:0:0:
248,276,29820,1,2,0:0:0:0:
280,276,29944,1,0,0:0:0:0:
248,276,30068,1,0,0:0:0:0:
476,276,30316,6,0,L|492:192,1,85,12|0,0:0|0:0,0:0:0:0:
440,192,30687,1,0,0:0:0:0:
388,192,30811,1,8,0:0:0:0:
336,192,30935,1,0,0:0:0:0:
120,192,31307,1,8,0:0:0:0:
444,108,31803,2,0,L|464:24,1,85,8|8,0:0|0:0,0:0:0:0:
136,24,32299,6,0,L|32:24,1,85,4|0,0:0|0:0,0:0:0:0:
180,104,32795,2,0,L|84:104,1,85,8|0,0:0|0:0,0:0:0:0:
316,108,33291,2,0,L|476:108,2,159.375,8|8|8,0:0|0:0|0:0,0:0:0:0:
96,104,34283,6,0,L|92:188,1,85,2|0,0:0|0:0,0:0:0:0:
168,192,34654,1,0,0:0:0:0:
244,192,34778,2,0,L|248:276,1,85,8|0,0:0|0:0,0:0:0:0:
24,276,35274,2,0,L|108:276,1,85,8|0,0:0|0:0,0:0:0:0:
280,352,35770,2,0,L|196:352,1,85,2|0,0:0|0:0,0:0:0:0:
424,352,36266,6,0,L|432:252,1,85,12|0,0:0|0:0,0:0:0:0:
304,264,36762,2,0,L|312:164,1,85,8|0,0:0|0:0,0:0:0:0:
88,176,37258,2,0,L|4:176,1,85,8|0,0:0|0:0,0:0:0:0:
72,176,37630,1,2,0:0:0:0:
140,176,37754,2,0,L|228:176,1,85,0|8,0:0|0:0,0:0:0:0:
448,176,38249,6,0,L|352:176,1,85,12|0,0:0|0:0,0:0:0:0:
492,92,38745,2,0,L|396:92,1,85,0|0,0:0|0:0,0:0:0:0:
184,92,39241,1,2,0:0:0:0:
172,148,39365,1,0,0:0:0:0:
196,200,39489,1,0,0:0:0:0:
248,224,39613,1,0,0:0:0:0:
344,224,39737,2,0,L|396:224,2,42.5,8|2|8,0:0|0:0|0:0,0:0:0:0:
28,224,40233,6,0,L|28:120,1,85,4|0,0:0|0:0,0:0:0:0:
156,140,40729,2,0,L|252:140,1,85,8|0,0:0|0:0,0:0:0:0:
104,140,41225,1,8,0:0:0:0:
428,144,41473,2,0,P|488:208|492:292,1,170,2|0,0:0|0:0,0:0:0:0:
272,192,42216,5,8,0:0:0:0:
144,192,42464,2,0,P|84:232|144:276,1,170,2|0,0:0|0:0,0:0:0:0:
364,280,43208,2,0,L|232:280,2,127.5,8|8|8,0:0|0:0|0:0,0:0:0:0:
140,280,44200,6,0,L|132:180,1,85,12|0,0:0|0:0,0:0:0:0:
264,192,44696,2,0,L|272:92,1,85,8|0,0:0|0:0,0:0:0:0:
492,108,45192,2,0,L|408:108,1,85,8|0,0:0|0:0,0:0:0:0:
355,108,45563,1,0,0:0:0:0:
407,108,45687,2,0,L|495:108,1,85,2|0,0:0|0:0,0:0:0:0:
168,108,46183,6,0,L|72:108,1,85,4|0,0:0|0:0,0:0:0:0:
208,192,46555,2,0,L|304:192,1,85,4|0,0:0|0:0,0:0:0:0:
168,272,46927,2,0,L|72:272,1,85,4|0,0:0|0:0,0:0:0:0:
208,356,47299,2,0,L|304:356,1,85,4|0,0:0|0:0,0:0:0:0:
168,356,47671,2,0,L|168:260,1,85,8|0,0:0|0:0,0:0:0:0:
488,272,48167,5,6,0:0:0:0:
380,272,48415,2,0,L|312:272,1,53.125,0|0,0:0|0:0,0:0:0:0:
424,272,48663,2,0,L|424:216,1,53.125,8|8,0:0|0:0,0:0:0:0:
156,220,49159,2,0,L|88:220,2,53.125,8|0|0,0:0|0:0|0:0,0:0:0:0:
268,220,49530,2,0,L|432:220,1,159.375,8|8,0:0|0:0,0:0:0:0:
212,220,50150,6,0,B|160:208|160:208|212:192,1,106.25,4|0,0:0|0:0,0:0:0:0:
284,192,50522,1,0,0:0:0:0:
356,192,50646,2,0,L|416:192,1,53.125,8|0,0:0|0:0,0:0:0:0:
152,96,51142,1,4,0:0:0:0:
216,96,51266,1,2,0:0:0:0:
152,96,51390,1,2,0:0:0:0:
32,192,51514,2,0,B|32:272|32:272|132:292,1,159.375,4|8,0:0|0:0,0:0:0:0:
424,288,52134,5,4,0:0:0:0:
304,288,52382,2,0,L|236:288,1,53.125,0|0,0:0|0:0,0:0:0:0:
180,364,52630,2,0,L|236:364,1,53.125,8|8,0:0|0:0,0:0:0:0:
488,192,53125,1,8,0:0:0:0:
504,128,53249,1,0,0:0:0:0:
456,80,53373,1,0,0:0:0:0:
392,80,53497,2,0,L|228:80,1,159.375,8|8,0:0|0:0,0:0:0:0:
16,192,54117,6,0,L|124:192,1,106.25,4|0,0:0|0:0,0:0:0:0:
188,192,54489,1,0,0:0:0:0:
122,192,54613,2,0,L|66:192,2,53.125,8|0|8,0:0|0:0|0:0,0:0:0:0:
440,192,55109,6,0,L|448:256,1,53.125,4|0,0:0|0:0,0:0:0:0:
312,244,55481,2,0,L|308:308,1,53.125,4|8,0:0|0:0,0:0:0:0:
432,296,55853,1,4,0:0:0:0:
114,296,56101,5,6,0:0:0:0:
224,296,56349,2,0,L|224:240,1,53.125,0|0,0:0|0:0,0:0:0:0:
128,240,56597,2,0,L|66:240,1,53.125,8|8,0:0|0:0,0:0:0:0:
348,240,57092,2,0,L|416:240,2,53.125,8|0|0,0:0|0:0|0:0,0:0:0:0:
224,242,57464,2,0,L|60:242,1,159.375,8|8,0:0|0:0,0:0:0:0:
308,168,58084,6,0,L|204:140,1,106.25,4|0,0:0|0:0,0:0:0:0:
276,140,58456,1,0,0:0:0:0:
348,140,58580,2,0,B|404:140,1,53.125,8|0,0:0|0:0,0:0:0:0:
96,228,59076,1,4,0:0:0:0:
172,228,59200,1,2,0:0:0:0:
248,228,59324,1,2,0:0:0:0:
372,228,59448,2,0,B|452:228|452:228|472:328,1,159.375,4|8,0:0|0:0,0:0:0:0:
148,304,60068,5,4,0:0:0:0:
256,304,60316,2,0,L|324:304,1,53.125,0|0,0:0|0:0,0:0:0:0:
216,224,60563,2,0,L|160:224,1,53.125,8|8,0:0|0:0,0:0:0:0:
416,128,61059,1,8,0:0:0:0:
368,152,61183,1,0,0:0:0:0:
368,212,61307,1,0,0:0:0:0:
420,212,61431,2,0,B|500:212|500:212|500:128,1,159.375,8|8,0:0|0:0,0:0:0:0:
180,128,62051,6,0,L|72:128,1,106.25,4|0,0:0|0:0,0:0:0:0:
122,143,62423,1,0,0:0:0:0:
145,190,62547,1,8,0:0:0:0:
125,237,62671,1,0,0:0:0:0:
77,256,62795,1,0,0:0:0:0:
312,260,63043,5,4,0:0:0:0:
40,256,63415,1,4,0:0:0:0:
475,260,63787,1,6,0:0:0:0:
256,192,64035,12,0,66018,0:0:0:0:
