osu file format v14

[General]
AudioFilename: audio.mp3
AudioLeadIn: 0
PreviewTime: 440
Countdown: 0
SampleSet: None
StackLeniency: 0.7
Mode: 2
LetterboxInBreaks: 0
WidescreenStoryboard: 0

[Editor]
Bookmarks: 564,16431,32299,48167,63787
DistanceSpacing: 1.3
BeatDivisor: 4
GridSize: 4
TimelineZoom: 1

[Metadata]
Title:Secret energy
TitleUnicode:Secret energy
Artist:Tomohito Nishiura
ArtistUnicode:西浦智仁
Creator:JBHyperion
Version:Cup
Source:Dark Cloud 2
Tags:ダーククラウド Chronicle ost original sound tracks playstation rpg level-5 inc. instrumental Possibly an unused theme for Emperor Griffon JBH ZiRoX Withered Lotus Sanyi
BeatmapID:1322380
BeatmapSetID:627545

[Difficulty]
HPDrainRate:3
CircleSize:2.5
OverallDifficulty:6
ApproachRate:6
SliderMultiplier:1.4
SliderTickRate:1

[Events]
//Background and Video events
0,0,"Griffon10k.png",0,0
//Break Periods
//Storyboard Layer 0 (Background)
//Storyboard Layer 1 (Fail)
//Storyboard Layer 2 (Pass)
//Storyboard Layer 3 (Foreground)
//Storyboard Sound Samples

[TimingPoints]
564,495.867768595041,4,2,2,100,1,0
687,-100,4,2,1,100,0,0
4530,-100,4,2,2,100,0,0
4654,-100,4,2,1,100,0,0
8497,-100,4,2,2,100,0,0
8621,-100,4,2,1,100,0,0
12464,-100,4,2,2,100,0,0
12588,-100,4,2,1,100,0,0
14200,-100,4,3,1,100,0,0
15935,-100,4,3,2,60,0,0
16431,-100,4,2,2,100,0,0
16555,-100,4,3,1,75,0,0
23869,-100,4,3,2,50,0,0
24365,-100,4,2,2,100,0,0
24489,-100,4,3,1,75,0,0
30316,-83.3333333333333,4,3,1,75,0,0
31307,-100,4,3,1,75,0,0
31803,-100,4,3,2,50,0,0
32299,-100,4,2,2,100,0,0
32423,-100,4,3,1,80,0,0
40233,-100,4,2,2,100,0,0
40357,-100,4,3,1,85,0,0
46183,-100,4,3,1,90,0,0
46555,-100,4,2,1,100,0,0
46927,-100,4,3,1,80,0,0
47299,-100,4,2,1,100,0,0
47671,-100,4,3,2,70,0,0
47919,-100,4,2,1,100,0,0
48167,-100,4,2,2,80,0,1
48291,-100,4,3,1,100,0,1
51266,-100,4,2,1,100,0,1
51514,-100,4,3,1,100,0,1
51886,-100,4,3,2,80,0,1
52134,-100,4,2,2,100,0,1
52258,-100,4,3,1,100,0,1
55853,-100,4,2,1,100,0,0
56101,-100,4,2,2,80,0,1
56225,-100,4,3,1,100,0,1
59200,-100,4,2,1,100,0,1
59448,-100,4,3,1,100,0,1
59820,-100,4,3,2,80,0,1
60068,-100,4,2,2,100,0,1
60192,-100,4,3,1,100,0,1
63043,-100,4,2,2,100,0,1
63167,-100,4,2,1,100,0,1
63787,-100,4,2,2,100,0,0
64035,-100,4,2,1,21,0,0
64283,-100,4,2,1,19,0,0
64530,-100,4,2,1,17,0,0
64778,-100,4,2,1,15,0,0
65026,-100,4,2,1,13,0,0
65274,-100,4,2,1,11,0,0
65522,-100,4,2,1,9,0,0
65770,-100,4,2,1,7,0,0
66018,-100,4,2,1,5,0,0

[Colours]
Combo1 : 160,0,80
Combo2 : 0,120,160

[HitObjects]
84,192,564,6,0,L|204:120,1,140,4|2,0:0|0:0,0:0:0:0:
344,120,1555,1,8,0:0:0:0:
176,120,2051,1,2,0:0:0:0:
372,124,2547,6,0,L|452:192,1,105,4|4,0:0|0:0,0:0:0:0:
348,192,3291,2,0,L|268:260,1,105,4|4,0:0|0:0,0:0:0:0:
140,260,4035,2,0,L|216:260,1,70,4|2,0:0|0:0,0:0:0:0:
304,260,4530,6,0,L|180:192,1,140,4|2,0:0|0:0,0:0:0:0:
344,192,5522,1,8,0:0:0:0:
164,192,6018,1,2,0:0:0:0:
360,56,6514,6,0,L|280:124,1,105,4|4,0:0|0:0,0:0:0:0:
176,56,7258,2,0,L|256:124,1,105,4|4,0:0|0:0,0:0:0:0:
384,124,8002,2,0,L|308:124,1,70,4|2,0:0|0:0,0:0:0:0:
220,124,8497,6,0,P|160:168|144:232,1,140,4|2,0:0|0:0,0:0:0:0:
300,228,9489,1,8,0:0:0:0:
472,192,9985,1,2,0:0:0:0:
272,128,10481,6,0,L|192:48,3,105,4|4|4|4,0:0|0:0|0:0|0:0,0:0:0:0:
344,40,11968,2,0,L|424:40,1,70,4|2,0:0|0:0,0:0:0:0:
320,40,12464,5,4,0:0:0:0:
156,40,12960,1,2,0:0:0:0:
336,40,13456,1,8,0:0:0:0:
136,40,13952,2,0,L|120:116,1,70,2|8,0:0|0:0,0:0:0:0:
232,108,14448,6,0,L|372:108,2,140,12|0|4,0:0|0:0|0:0,0:0:0:0:
64,108,15935,2,0,L|84:184,1,70,8|0,0:0|0:0,0:0:0:0:
168,176,16431,6,0,L|308:176,1,140,4|8,0:0|0:0,0:0:0:0:
180,208,17423,2,0,L|88:268,2,105,8|8|8,0:0|0:0|0:0,0:0:0:0:
264,208,18415,5,2,0:0:0:0:
348,208,18663,2,0,L|452:192,2,105,8|8|8,0:0|0:0|0:0,0:0:0:0:
168,208,19902,1,2,0:0:0:0:
252,208,20150,1,0,0:0:0:0:
336,208,20398,6,0,P|393:188|424:116,1,140,12|8,0:0|0:0,0:0:0:0:
296,120,21390,1,8,0:0:0:0:
192,120,21762,1,8,0:0:0:0:
88,120,22134,1,8,0:0:0:0:
172,120,22382,6,0,L|308:152,1,140,4|8,0:0|0:0,0:0:0:0:
188,192,23373,1,2,0:0:0:0:
356,192,23869,2,0,L|428:192,1,70,8|8,0:0|0:0,0:0:0:0:
320,192,24365,6,0,L|184:232,2,140,4|8|8,0:0|0:0|0:0,0:0:0:0:
496,192,25853,2,0,L|416:192,1,70,8|8,0:0|0:0,0:0:0:0:
336,192,26349,5,2,0:0:0:0:
248,192,26597,2,0,L|352:208,2,105,8|8|8,0:0|0:0|0:0,0:0:0:0:
96,208,27836,1,2,0:0:0:0:
24,208,28084,1,0,0:0:0:0:
116,208,28332,6,0,L|252:240,1,140,12|8,0:0|0:0,0:0:0:0:
380,280,29324,1,8,0:0:0:0:
212,320,29820,2,0,L|140:320,1,70,2|0,0:0|0:0,0:0:0:0:
240,320,30316,6,0,P|308:284|340:192,2,167.999994873047,12|8|8,0:0|0:0|0:0,0:0:0:0:
72,320,31803,2,0,L|64:248,1,70,8|8,0:0|0:0,0:0:0:0:
172,252,32299,6,0,P|228:236|264:164,1,140,4|8,0:0|0:0,0:0:0:0:
200,108,33043,1,0,0:0:0:0:
112,108,33291,2,0,L|220:72,2,105,8|8|8,0:0|0:0|0:0,0:0:0:0:
212,108,34283,6,0,L|360:108,1,140,2|8,0:0|0:0,0:0:0:0:
240,192,35274,1,8,0:0:0:0:
424,192,35770,2,0,L|432:268,1,70,2|0,0:0|0:0,0:0:0:0:
336,264,36266,6,0,L|184:264,1,140,12|8,0:0|0:0,0:0:0:0:
52,192,37258,1,2,0:0:0:0:
228,192,37754,2,0,L|292:152,1,70,8|8,0:0|0:0,0:0:0:0:
184,108,38249,6,0,L|44:108,1,140,12|0,0:0|0:0,0:0:0:0:
224,108,39241,2,0,L|232:188,1,70,2|0,0:0|0:0,0:0:0:0:
132,176,39737,2,0,L|124:256,1,70,8|8,0:0|0:0,0:0:0:0:
244,248,40233,6,0,P|300:232|336:160,1,140,4|8,0:0|0:0,0:0:0:0:
280,100,40977,1,0,0:0:0:0:
200,100,41225,1,8,0:0:0:0:
312,100,41473,2,0,L|472:100,1,140,2|0,0:0|0:0,0:0:0:0:
348,192,42216,6,0,P|280:224|260:284,1,140,8|2,0:0|0:0,0:0:0:0:
348,280,42960,1,0,0:0:0:0:
256,281,43208,2,0,L|152:325,2,105,8|8|8,0:0|0:0|0:0,0:0:0:0:
368,280,44200,6,0,P|428:256|460:180,1,140,12|8,0:0|0:0,0:0:0:0:
304,192,45192,2,0,L|172:124,1,140,8|2,0:0|0:0,0:0:0:0:
272,128,45935,1,0,0:0:0:0:
364,128,46183,6,0,L|448:192,1,105,4|4,0:0|0:0,0:0:0:0:
300,232,46927,2,0,L|196:232,1,105,4|4,0:0|0:0,0:0:0:0:
332,232,47671,2,0,L|340:312,1,70,8|2,0:0|0:0,0:0:0:0:
248,300,48167,6,0,L|168:300,1,70,6|0,0:0|0:0,0:0:0:0:
80,300,48663,1,8,0:0:0:0:
80,300,48787,1,0,0:0:0:0:
212,192,49159,2,0,L|328:192,2,105,8|8|8,0:0|0:0|0:0,0:0:0:0:
120,104,50150,6,0,L|200:104,1,70,4|0,0:0|0:0,0:0:0:0:
288,104,50646,1,8,0:0:0:0:
288,104,50770,1,0,0:0:0:0:
160,12,51142,2,0,P|136:36|160:60,1,70,4|2,0:0|0:0,0:0:0:0:
204,12,51514,2,0,L|308:12,1,105,4|8,0:0|0:0,0:0:0:0:
400,104,52134,6,0,L|320:104,1,70,4|0,0:0|0:0,0:0:0:0:
232,104,52630,1,8,0:0:0:0:
232,104,52754,1,0,0:0:0:0:
100,192,53125,2,0,L|216:192,2,105,8|8|8,0:0|0:0|0:0,0:0:0:0:
192,280,54117,6,0,L|272:280,1,70,4|0,0:0|0:0,0:0:0:0:
360,280,54613,1,8,0:0:0:0:
360,280,54737,1,0,0:0:0:0:
204,280,55109,1,4,0:0:0:0:
292,192,55481,1,4,0:0:0:0:
380,192,55853,1,4,0:0:0:0:
268,192,56101,6,0,L|188:192,1,70,6|0,0:0|0:0,0:0:0:0:
288,192,56597,1,8,0:0:0:0:
288,192,56721,1,0,0:0:0:0:
156,84,57092,2,0,L|40:84,2,105,8|8|8,0:0|0:0|0:0,0:0:0:0:
248,84,58084,6,0,L|168:84,1,70,4|0,0:0|0:0,0:0:0:0:
80,84,58580,1,8,0:0:0:0:
80,84,58704,1,0,0:0:0:0:
236,176,59076,2,0,L|320:176,1,70,4|2,0:0|0:0,0:0:0:0:
264,176,59448,2,0,L|160:176,1,105,4|8,0:0|0:0,0:0:0:0:
256,272,60068,6,0,L|336:272,1,70,4|0,0:0|0:0,0:0:0:0:
236,272,60563,1,8,0:0:0:0:
236,272,60687,1,0,0:0:0:0:
384,180,61059,2,0,L|268:180,2,105,8|8|8,0:0|0:0|0:0,0:0:0:0:
292,92,62051,6,0,L|212:92,1,70,4|0,0:0|0:0,0:0:0:0:
124,92,62547,1,8,0:0:0:0:
124,92,62671,1,0,0:0:0:0:
260,180,63043,1,4,0:0:0:0:
104,180,63415,1,4,0:0:0:0:
288,180,63787,1,6,0:0:0:0:
256,192,64283,12,0,66018,0:0:0:0:
