osu file format v14

[General]
AudioFilename: audio.mp3
AudioLeadIn: 0
PreviewTime: 16031
Countdown: 1
SampleSet: Soft
StackLeniency: 0.6
Mode: 0
LetterboxInBreaks: 0
WidescreenStoryboard: 1

[Editor]
Bookmarks: 16022,32022,44022,48022
DistanceSpacing: 1
BeatDivisor: 4
GridSize: 16
TimelineZoom: 1

[Metadata]
Title:Puzzle
TitleUnicode:謎
Artist:Tomohito Nishiura
ArtistUnicode:西浦 智仁
Creator:StarCastler
Version:70 Picarats
Source:レイトン教授と不思議な町
Tags:level5 nintendo video game ost professor layton curious village
BeatmapID:2113889
BeatmapSetID:1009792

[Difficulty]
HPDrainRate:6
CircleSize:6
OverallDifficulty:8
ApproachRate:8
SliderMultiplier:1.92
SliderTickRate:2

[Events]
//Background and Video events
0,0,"laytoncuriousvillage1.jpg",0,0
//Break Periods
//Storyboard Layer 0 (Background)
//Storyboard Layer 1 (Fail)
//Storyboard Layer 2 (Pass)
//Storyboard Layer 3 (Foreground)
//Storyboard Layer 4 (Overlay)
//Storyboard Sound Samples

[TimingPoints]
25,500.208420175073,4,2,0,60,1,0

[Colours]
Combo1 : 0,255,255
Combo2 : 128,64,0
Combo3 : 255,128,64
Combo4 : 0,128,192

[HitObjects]
256,192,25,6,0,L|352:192,1,96,2|0,0:0|0:0,0:0:0:0:
448,192,525,2,0,L|448:288,1,96,2|0,0:0|0:0,0:0:0:0:
352,288,1025,2,0,L|256:288,1,96,2|0,0:0|0:0,0:0:0:0:
256,384,1525,1,2,0:0:0:0:
160,384,1775,1,0,0:0:0:0:
160,288,2025,6,0,B|256:288|320:224|256:192|256:192|192:224|256:288|352:288,1,384,6|4,0:0|0:0,0:0:0:0:
352,192,3276,1,0,0:0:0:0:
160,192,3526,1,0,0:0:0:0:
352,192,3776,1,0,0:0:0:0:
256,192,4026,6,0,L|256:96,1,96,2|0,0:0|0:0,0:0:0:0:
256,0,4526,2,0,L|352:0,1,96,2|0,0:0|0:0,0:0:0:0:
448,0,5027,2,0,L|448:96,1,96,2|0,0:0|0:0,0:0:0:0:
448,192,5527,1,2,0:0:0:0:
448,288,5777,1,0,0:0:0:0:
352,288,6027,6,0,B|352:192|288:128|256:192|256:192|288:256|352:192|352:96,1,384,6|4,0:0|0:0,0:0:0:0:
256,96,7278,1,0,0:0:0:0:
256,288,7528,1,0,0:0:0:0:
256,96,7778,1,0,0:0:0:0:
160,192,8028,6,0,L|64:192,1,96,2|0,0:0|0:0,0:0:0:0:
256,288,8528,2,0,L|256:384,1,96,2|0,0:0|0:0,0:0:0:0:
352,192,9028,2,0,B|448:192,1,96,2|0,0:0|0:0,0:0:0:0:
256,96,9528,2,0,L|256:0,1,96,2|0,0:0|0:0,0:0:0:0:
160,192,10029,6,0,B|208:192|208:192|208:96|208:96|304:96|304:96|304:192|304:192|352:192,1,384,6|4,0:0|0:0,0:0:0:0:
256,288,11279,1,0,0:0:0:0:
256,96,11529,1,0,0:0:0:0:
256,288,11779,1,0,0:0:0:0:
256,192,12030,6,0,L|160:192,1,96,2|0,0:0|0:0,0:0:0:0:
160,96,12530,1,2,0:0:0:0:
256,96,12780,1,0,0:0:0:0:
256,192,13030,2,0,L|352:192,1,96,2|0,0:0|0:0,0:0:0:0:
352,288,13530,1,2,0:0:0:0:
256,288,13780,1,0,0:0:0:0:
160,192,14030,6,0,B|208:192|208:192|208:96|208:96|304:96|304:96|304:192|304:192|352:192,1,384,6|4,0:0|0:0,0:0:0:0:
256,288,15281,1,0,0:0:0:0:
256,96,15531,1,0,0:0:0:0:
256,288,15781,1,0,0:0:0:0:
160,192,16031,6,0,L|256:192,1,96,2|0,0:0|0:0,0:0:0:0:
352,192,16531,2,0,L|256:192,1,96,2|0,0:0|0:0,0:0:0:0:
256,96,17032,2,0,L|256:0,1,96,2|0,0:0|0:0,0:0:0:0:
160,0,17532,1,2,0:0:0:0:
352,0,17782,1,0,0:0:0:0:
352,96,18032,6,0,B|256:96|192:160|256:192|256:192|320:160|256:96|160:96,1,384,6|4,0:0|0:0,0:0:0:0:
160,192,19283,1,0,0:0:0:0:
352,192,19533,1,0,0:0:0:0:
160,192,19783,1,0,0:0:0:0:
256,192,20033,6,0,L|256:288,1,96,2|0,0:0|0:0,0:0:0:0:
160,288,20533,2,0,L|160:384,1,96,2|0,0:0|0:0,0:0:0:0:
64,384,21033,2,0,L|64:288,1,96,2|0,0:0|0:0,0:0:0:0:
64,192,21533,1,2,0:0:0:0:
64,96,21784,1,0,0:0:0:0:
160,96,22034,6,0,B|160:192|224:256|256:192|256:192|224:128|160:192|160:288,1,384,6|4,0:0|0:0,0:0:0:0:
256,288,23284,1,0,0:0:0:0:
256,96,23534,1,0,0:0:0:0:
256,288,23784,1,0,0:0:0:0:
448,192,24035,6,0,L|352:192,1,96,2|0,0:0|0:0,0:0:0:0:
256,0,24535,2,0,L|256:96,1,96,2|0,0:0|0:0,0:0:0:0:
64,192,25035,2,0,B|160:192,1,96,2|0,0:0|0:0,0:0:0:0:
256,384,25535,2,0,L|256:288,1,96,2|0,0:0|0:0,0:0:0:0:
352,192,26035,6,0,B|304:192|304:192|304:96|304:96|208:96|208:96|208:192|208:192|160:192,1,384,6|4,0:0|0:0,0:0:0:0:
256,288,27286,1,0,0:0:0:0:
256,96,27536,1,0,0:0:0:0:
256,288,27786,1,0,0:0:0:0:
256,192,28036,6,0,L|352:192,1,96,2|0,0:0|0:0,0:0:0:0:
352,96,28536,1,2,0:0:0:0:
352,288,28786,1,0,0:0:0:0:
256,192,29037,2,0,L|160:192,1,96,2|0,0:0|0:0,0:0:0:0:
160,96,29537,1,2,0:0:0:0:
160,288,29787,1,0,0:0:0:0:
160,192,30037,6,0,B|208:192|208:192|208:96|208:96|304:96|304:96|304:192|304:192|352:192,1,384,6|4,0:0|0:0,0:0:0:0:
256,288,31288,1,0,0:0:0:0:
256,96,31538,1,0,0:0:0:0:
256,288,31788,1,0,0:0:0:0:
256,192,32038,5,2,0:0:0:0:
160,288,32288,1,2,0:0:0:0:
64,191,32538,2,0,L|64:96,1,96,2|0,0:0|0:0,0:0:0:0:
160,0,33038,1,6,0:0:0:0:
256,192,34039,6,0,L|256:288,1,96,2|0,0:0|0:0,0:0:0:0:
352,384,34539,1,2,0:0:0:0:
352,288,34789,1,2,0:0:0:0:
448,384,35039,1,2,0:0:0:0:
448,288,35289,1,2,0:0:0:0:
448,192,35539,1,6,0:0:0:0:
160,192,36040,5,2,0:0:0:0:
256,96,36290,1,2,0:0:0:0:
352,192,36540,1,2,0:0:0:0:
256,288,36790,1,2,0:0:0:0:
256,192,37040,1,6,0:0:0:0:
256,192,38040,6,0,L|256:96,1,96,2|0,0:0|0:0,0:0:0:0:
160,0,38541,1,2,0:0:0:0:
160,96,38791,1,2,0:0:0:0:
64,0,39041,1,6,0:0:0:0:
256,192,40041,5,2,0:0:0:0:
352,96,40291,1,2,0:0:0:0:
448,192,40541,2,0,L|448:288,1,96,2|0,0:0|0:0,0:0:0:0:
352,384,41042,1,6,0:0:0:0:
256,192,42042,6,0,L|256:96,1,96,2|0,0:0|0:0,0:0:0:0:
160,0,42542,1,2,0:0:0:0:
160,96,42792,1,2,0:0:0:0:
64,0,43042,1,2,0:0:0:0:
64,96,43293,1,2,0:0:0:0:
64,192,43543,1,6,0:0:0:0:
256,192,44043,6,0,L|256:96,2,96,2|0|0,0:0|0:0|0:0,0:0:0:0:
160,288,44793,1,2,0:0:0:0:
352,288,45043,1,6,0:0:0:0:
256,0,46044,6,0,L|256:96,1,96,2|0,0:0|0:0,0:0:0:0:
256,384,46544,2,0,L|256:288,1,96,2|0,0:0|0:0,0:0:0:0:
256,192,47044,1,4,0:0:0:0:
