osu file format v14

[General]
AudioFilename: audio.mp3
AudioLeadIn: 0
PreviewTime: 16031
Countdown: 1
SampleSet: Soft
StackLeniency: 0.6
Mode: 0
LetterboxInBreaks: 0
WidescreenStoryboard: 1

[Editor]
Bookmarks: 16022,32022,44022,48022
DistanceSpacing: 1
BeatDivisor: 4
GridSize: 8
TimelineZoom: 1

[Metadata]
Title:Puzzle
TitleUnicode:謎
Artist:Tomohito Nishiura
ArtistUnicode:西浦 智仁
Creator:StarCastler
Version:50 Picarats
Source:レイトン教授と不思議な町
Tags:level5 nintendo video game ost professor layton curious village
BeatmapID:2113888
BeatmapSetID:1009792

[Difficulty]
HPDrainRate:5
CircleSize:5
OverallDifficulty:6
ApproachRate:6
SliderMultiplier:1.6
SliderTickRate:2

[Events]
//Background and Video events
0,0,"laytoncuriousvillage1.jpg",0,0
//Break Periods
//Storyboard Layer 0 (Background)
//Storyboard Layer 1 (Fail)
//Storyboard Layer 2 (Pass)
//Storyboard Layer 3 (Foreground)
//Storyboard Layer 4 (Overlay)
//Storyboard Sound Samples

[TimingPoints]
25,500.208420175073,4,2,0,60,1,0

[Colours]
Combo1 : 0,255,255
Combo2 : 128,64,0
Combo3 : 255,128,64
Combo4 : 0,128,192

[HitObjects]
184,272,25,6,0,P|288:296|328:272,1,160
328,112,1025,2,0,P|224:88|184:112,1,160
176,272,2025,6,0,P|256:384|336:272,1,320
328,112,4026,6,0,P|224:88|184:112,1,160
184,272,5026,2,0,P|288:296|328:272,1,160
336,112,6026,6,0,P|256:0|176:112,1,320
176,272,8028,5,0,0:0:0:0:
336,272,8528,1,0,0:0:0:0:
336,112,9028,1,0,0:0:0:0:
176,112,9528,1,0,0:0:0:0:
40,192,10029,5,0,0:0:0:0:
472,192,11029,1,0,0:0:0:0:
256,192,12030,5,0,0:0:0:0:
144,80,12530,1,0,0:0:0:0:
256,192,13030,1,0,0:0:0:0:
368,80,13530,1,0,0:0:0:0:
256,192,14030,5,0,0:0:0:0:
256,192,14155,12,0,15031,0:0:0:0:
176,32,16031,6,0,P|152:120|192:128,1,160
336,32,17032,2,0,P|360:120|320:128,1,160
176,192,18032,6,0,P|256:304|336:192,1,320
336,352,20033,6,0,P|360:264|320:256,1,160
176,352,21034,2,0,P|152:264|192:256,1,160
336,192,22034,6,0,P|256:80|176:192,1,320
40,296,24035,5,0,0:0:0:0:
144,176,24535,1,0,0:0:0:0:
144,336,25035,1,0,0:0:0:0:
256,224,25535,1,0,0:0:0:0:
256,64,26035,5,0,0:0:0:0:
256,384,27036,1,0,0:0:0:0:
472,88,28036,5,0,0:0:0:0:
368,208,28536,1,0,0:0:0:0:
368,48,29036,1,0,0:0:0:0:
256,160,29536,1,0,0:0:0:0:
256,320,30036,5,0,0:0:0:0:
256,192,30162,12,0,31037,0:0:0:0:
256,344,32038,6,0,B|216:344|184:312|184:312,1,80
256,344,32538,2,0,B|296:344|328:312|328:312,1,80
256,272,33038,1,0,0:0:0:0:
256,40,34039,6,0,B|296:40|328:72|328:72,1,80
256,40,34539,2,0,B|216:40|184:72|184:72,1,80
256,112,35039,1,0,0:0:0:0:
256,192,35289,1,0,0:0:0:0:
256,272,35539,1,0,0:0:0:0:
96,264,36040,6,0,P|64:232|56:192,1,80
96,120,36540,2,0,P|120:152|128:192,1,80
96,264,37040,1,0,0:0:0:0:
416,120,38040,6,0,P|448:152|456:192,1,80
416,264,38540,2,0,P|392:232|384:192,1,80
416,120,39040,1,0,0:0:0:0:
136,112,40041,5,0,0:0:0:0:
64,80,40291,1,0,0:0:0:0:
32,152,40541,1,0,0:0:0:0:
96,8,41042,1,0,0:0:0:0:
416,8,42042,5,0,0:0:0:0:
480,152,42542,1,0,0:0:0:0:
448,224,42792,1,0,0:0:0:0:
480,296,43042,1,0,0:0:0:0:
408,328,43293,1,0,0:0:0:0:
336,296,43543,1,0,0:0:0:0:
176,296,44043,6,0,P|128:160|176:88,1,240
256,88,45043,1,0,0:0:0:0:
256,384,46044,5,0,0:0:0:0:
256,192,46544,1,0,0:0:0:0:
256,0,47044,1,0,0:0:0:0:
