osu file format v14

[General]
AudioFilename: Moonlight Tango.mp3
AudioLeadIn: 0
PreviewTime: 58378
Countdown: 0
SampleSet: Soft
StackLeniency: 0.7
Mode: 2
LetterboxInBreaks: 0
WidescreenStoryboard: 0

[Editor]
DistanceSpacing: 1.1
BeatDivisor: 4
GridSize: 4
TimelineZoom: 1.800005

[Metadata]
Title:Moonlight Tango
TitleUnicode:Moonlight Tango
Artist:Tomohito Nishiura
ArtistUnicode:西浦智仁
Creator:JBHyperion
Version:Platter
Source:Dark Cloud 2
Tags:ダーククラウド Chronicle ost original sound tracks playstation rpg level-5 inc. instrumental metal flotsam theme zelmite mine
BeatmapID:1135247
BeatmapSetID:536001

[Difficulty]
HPDrainRate:5
CircleSize:3.5
OverallDifficulty:7.5
ApproachRate:7.5
SliderMultiplier:1.8
SliderTickRate:1

[Events]
//Background and Video events
0,0,"DC2Cast.jpg",0,0
//Break Periods
//Storyboard Layer 0 (Background)
//Storyboard Layer 1 (Fail)
//Storyboard Layer 2 (Pass)
//Storyboard Layer 3 (Foreground)
//Storyboard Sound Samples

[TimingPoints]
454,454.545454545455,4,2,1,60,1,0
908,-100,4,2,2,50,0,0
5858,454.545454545455,4,2,1,30,1,0
6312,-100,4,2,1,50,0,0
6767,-100,4,2,1,60,0,0
6994,-100,4,2,1,50,0,0
7697,454.545454545455,4,2,1,50,1,0
15424,-100,4,2,2,40,0,0
15651,-100,4,2,1,50,0,0
16333,-100,4,2,2,40,0,0
16560,-100,4,2,1,50,0,0
17242,-100,4,2,2,40,0,0
17470,-100,4,2,1,50,0,0
18151,-100,4,2,3,50,0,0
18379,-100,4,2,1,50,0,0
19060,-100,4,2,2,40,0,0
19287,-100,4,2,1,50,0,0
19969,-100,4,2,2,40,0,0
20197,-100,4,2,1,50,0,0
21333,-100,4,2,2,40,0,0
22242,-100,4,2,1,50,0,0
22697,-100,4,2,2,40,0,0
22924,-100,4,2,1,50,0,0
23606,-100,4,2,2,40,0,0
23833,-100,4,2,1,50,0,0
24515,-100,4,2,2,40,0,0
24742,-100,4,2,1,50,0,0
25424,-100,4,2,3,50,0,0
25651,-100,4,2,1,50,0,0
26333,-100,4,2,2,40,0,0
26560,-100,4,2,1,50,0,0
27242,-100,4,2,2,40,0,0
27469,-100,4,2,1,50,0,0
28606,-100,4,2,2,40,0,0
29515,-100,4,2,2,65,0,1
43151,-100,4,2,2,65,0,0
44060,-100,4,2,1,50,0,0
46788,-100,4,2,1,30,0,0
47129,-100,4,2,1,50,0,0
47697,-100,4,2,1,40,0,0
54060,-100,4,2,1,30,0,0
54401,-100,4,2,1,50,0,0
54970,-100,4,2,1,40,0,0
59060,-100,4,2,2,40,0,0
59288,-100,4,2,1,50,0,0
59970,-100,4,2,2,40,0,0
60197,-100,4,2,1,50,0,0
60879,-100,4,2,2,40,0,0
61106,-100,4,2,1,50,0,0
61788,-100,4,2,3,50,0,0
62015,-100,4,2,1,50,0,0
62697,-100,4,2,2,40,0,0
62924,-100,4,2,1,50,0,0
63606,-100,4,2,2,40,0,0
63833,-100,4,2,1,50,0,0
64969,-100,4,2,2,40,0,0
65651,-100,4,2,1,50,0,0
66333,-100,4,2,2,40,0,0
66560,-100,4,2,1,50,0,0
67242,-100,4,2,2,40,0,0
67470,-100,4,2,1,50,0,0
68151,-100,4,2,2,40,0,0
68379,-100,4,2,1,50,0,0
69060,-100,4,2,3,50,0,0
69288,-100,4,2,1,50,0,0
69969,-100,4,2,2,40,0,0
70197,-100,4,2,1,50,0,0
70878,-100,4,2,2,40,0,0
71103,-100,4,2,1,50,0,0
71787,-100,4,2,2,40,0,0
72015,-100,4,2,1,50,0,0
73151,-100,4,2,2,50,0,0
78606,-100,4,2,1,50,0,0
79060,-100,4,2,1,25,0,0
79288,-100,4,2,2,50,0,0
79515,-100,4,2,1,25,0,0
79969,-100,4,2,2,50,0,0
86333,-100,4,2,1,50,0,0
86560,-100,4,2,1,50,0,0
87697,-100,4,2,2,60,0,1
94288,-100,4,2,2,25,0,1
94515,-100,4,2,2,60,0,1
102242,-100,4,2,1,50,0,0
104515,-100,4,2,2,40,0,0
104742,-100,4,2,1,50,0,0
105424,-100,4,2,2,40,0,0
105651,-100,4,2,1,50,0,0
105879,-100,4,2,1,40,0,0
106333,-100,4,2,2,30,0,0
106560,-100,4,2,1,35,0,0
106788,-100,4,2,1,30,0,0
107242,-100,4,2,3,25,0,0
107697,-100,4,2,1,35,0,0
108151,-100,4,2,1,30,0,0
108606,-100,4,2,1,25,0,0
109060,-100,4,2,1,20,0,0
109515,-100,4,2,1,15,0,0
109970,-100,4,2,1,10,0,0
110424,-100,4,2,1,5,0,0

[Colours]
Combo1 : 175,90,50
Combo2 : 100,255,100
Combo3 : 128,128,255
Combo4 : 255,80,80

[HitObjects]
244,192,454,6,0,P|324:162|342:77,1,180,4|0,0:0|0:0,0:0:0:0:
164,78,1363,1,2,0:0:0:0:
132,128,1448,1,0,0:0:0:0:
168,170,1552,1,0,0:0:0:0:
216,168,1628,1,0,0:0:0:0:
256,220,1704,1,0,0:0:0:0:
188,288,1846,1,2,0:0:0:0:
136,288,1931,1,0,0:0:0:0:
52,286,2101,1,0,0:0:0:0:
216,288,2272,6,0,P|340:147|158:101,1,450,2|0,0:0|0:0,0:0:0:0:
104,104,3522,1,0,0:0:0:0:
157,101,3635,2,0,P|312:132|412:304,1,360,2|0,0:0|0:0,0:0:0:0:
84,192,4999,6,0,P|24:104|140:36,1,270,4|0,0:0|0:0,0:0:0:0:
280,36,5858,6,0,L|336:36,1,45,2|0,0:0|0:0,0:0:0:0:
268,108,6085,2,0,L|220:108,1,45,2|0,0:0|0:0,0:0:0:0:
164,152,6312,2,0,L|204:192,1,45,2|0,0:0|0:0,0:0:0:0:
268,184,6539,2,0,L|312:184,1,45,2|0,0:0|0:0,0:0:0:0:
224,264,6767,6,0,L|183:264,2,33.75,2|0|0,0:0|0:0|0:0,0:0:0:0:
288,264,7032,2,0,L|324:264,1,30
260,340,7183,2,0,L|224:340,1,30
172,340,7335,2,0,L|136:340,1,30
84,192,7486,2,0,L|60:160,2,30
124,192,7697,6,0,L|300:152,1,180,4|0,0:0|0:0,0:0:0:0:
80,288,8606,1,2,0:0:0:0:
304,244,9060,2,0,L|392:208,1,90,2|0,0:0|0:0,0:0:0:0:
168,192,9515,5,2,0:0:0:0:
392,120,9970,2,0,P|452:168|382:209,1,180,2|2,0:0|0:0,0:0:0:0:
164,192,10879,2,0,L|260:192,1,90,2|0,0:0|0:0,0:0:0:0:
56,112,11333,6,0,L|148:64,2,90,2|0|0,0:0|0:0|0:0,0:0:0:0:
200,112,12015,1,0,0:0:0:0:
416,192,12242,1,2,0:0:0:0:
468,232,12355,1,0,0:0:0:0:
472,300,12469,1,0,0:0:0:0:
416,336,12582,1,0,0:0:0:0:
348,340,12697,2,0,L|236:340,1,90,2|0,0:0|0:0,0:0:0:0:
472,192,13151,5,2,0:0:0:0:
336,192,13378,1,0,0:0:0:0:
281,175,13492,1,0,0:0:0:0:
228,159,13605,1,2,0:0:0:0:
282,146,13718,1,0,0:0:0:0:
324,112,13832,1,0,0:0:0:0:
316,56,13946,1,0,0:0:0:0:
180,36,14060,2,0,P|96:60|36:136,1,180,2|2,0:0|0:0,0:0:0:0:
168,128,14742,1,0,0:0:0:0:
460,192,14969,6,0,P|476:268|392:292,1,180,2|8,0:0|0:0,0:0:0:0:
272,292,15651,1,0,0:0:0:0:
128,292,15878,2,0,P|72:240|128:164,1,180,2|8,0:0|0:0,0:0:0:0:
248,84,16560,1,0,0:0:0:0:
32,220,16787,6,0,P|70:308|148:332,1,180,2|8,0:0|0:0,0:0:0:0:
272,332,17469,1,0,0:0:0:0:
328,332,17583,1,0,0:0:0:0:
384,332,17697,1,2,0:0:0:0:
168,332,17924,2,0,L|120:332,2,45,0|0|8,0:0|0:0|0:0,0:0:0:0:
368,220,18378,1,0,0:0:0:0:
72,220,18606,6,0,P|56:168|152:120,1,180,2|8,0:0|0:0,0:0:0:0:
280,120,19287,1,0,0:0:0:0:
72,116,19515,2,0,P|8:172|20:260,1,180,2|8,0:0|0:0,0:0:0:0:
236,264,20197,1,0,0:0:0:0:
292,264,20311,1,0,0:0:0:0:
348,264,20425,1,2,0:0:0:0:
132,192,20651,5,0,0:0:0:0:
76,160,20764,1,0,0:0:0:0:
92,96,20878,1,2,0:0:0:0:
151,95,20991,1,0,0:0:0:0:
208,80,21106,1,0,0:0:0:0:
172,32,21220,1,0,0:0:0:0:
120,32,21333,1,8,0:0:0:0:
336,32,21787,1,8,0:0:0:0:
196,32,22015,1,0,0:0:0:0:
484,192,22242,6,0,P|444:284|372:304,1,180,2|8,0:0|0:0,0:0:0:0:
256,300,22924,1,0,0:0:0:0:
400,192,23151,2,0,P|456:148|396:80,1,180,2|8,0:0|0:0,0:0:0:0:
296,80,23833,1,0,0:0:0:0:
84,192,24060,6,0,P|32:244|108:304,1,180,2|8,0:0|0:0,0:0:0:0:
220,192,24742,1,0,0:0:0:0:
168,192,24856,1,0,0:0:0:0:
116,192,24970,1,2,0:0:0:0:
332,104,25197,2,0,L|380:104,2,45,0|0|8,0:0|0:0|0:0,0:0:0:0:
192,104,25651,1,0,0:0:0:0:
488,212,25879,6,0,P|472:284|376:320,1,180,2|8,0:0|0:0,0:0:0:0:
256,320,26560,1,0,0:0:0:0:
40,236,26788,2,0,P|91:164|176:136,1,180,2|8,0:0|0:0,0:0:0:0:
392,136,27470,1,0,0:0:0:0:
336,136,27584,1,0,0:0:0:0:
280,136,27698,1,2,0:0:0:0:
64,192,27924,6,0,L|48:244,1,45
116,252,28151,2,0,L|152:292,1,45,2|0,0:0|0:0,0:0:0:0:
76,308,28378,2,0,L|60:360,1,45
160,352,28606,1,8,0:0:0:0:
396,288,29060,1,10,0:0:0:0:
276,288,29287,2,0,L|212:288,1,45
364,224,29515,6,0,L|456:224,1,90,2|0,0:0|0:0,0:0:0:0:
320,144,29969,2,0,L|276:112,1,45,8|0,0:0|0:0,0:0:0:0:
420,140,30197,2,0,P|440:64|356:24,1,180,2|0,0:0|0:0,0:0:0:0:
248,24,30878,1,8,0:0:0:0:
448,20,31106,1,0,0:0:0:0:
148,24,31333,6,0,P|84:84|136:136,1,180,2|8,0:0|0:0,0:0:0:0:
244,136,32015,1,0,0:0:0:0:
304,136,32128,1,0,0:0:0:0:
212,136,32242,2,0,B|156:204|156:204|216:280,1,180,2|8,0:0|0:0,0:0:0:0:
332,236,32924,1,0,0:0:0:0:
260,236,33037,1,0,0:0:0:0:
188,240,33151,6,0,L|92:240,1,90,2|0,0:0|0:0,0:0:0:0:
220,240,33606,2,0,L|264:208,1,45,8|0,0:0|0:0,0:0:0:0:
112,144,33834,2,0,P|52:100|112:40,1,180,2|0,0:0|0:0,0:0:0:0:
308,40,34515,1,10,0:0:0:0:
168,40,34743,1,0,0:0:0:0:
456,40,34969,6,0,P|504:96|452:176,1,180,2|8,0:0|0:0,0:0:0:0:
332,192,35651,1,0,0:0:0:0:
272,192,35764,1,0,0:0:0:0:
148,192,35878,2,0,P|176:272|276:288,1,180,2|8,0:0|0:0,0:0:0:0:
172,292,36560,1,0,0:0:0:0:
116,292,36673,1,0,0:0:0:0:
212,192,36787,6,0,L|308:192,1,90,2|0,0:0|0:0,0:0:0:0:
412,36,37242,2,0,L|356:36,1,45,8|0,0:0|0:0,0:0:0:0:
316,36,37470,2,0,L|132:84,1,180,2|0,0:0|0:0,0:0:0:0:
344,192,38151,1,10,0:0:0:0:
160,192,38379,1,0,0:0:0:0:
460,192,38605,6,0,P|504:276|432:316,1,180,2|8,0:0|0:0,0:0:0:0:
300,192,39287,1,0,0:0:0:0:
214,192,39400,1,0,0:0:0:0:
128,192,39514,2,0,P|120:128|212:84,1,180,2|8,0:0|0:0,0:0:0:0:
320,84,40196,1,0,0:0:0:0:
264,84,40309,1,0,0:0:0:0:
136,192,40424,5,2,0:0:0:0:
28,192,40651,1,0,0:0:0:0:
156,276,40879,2,0,L|204:276,1,45,8|0,0:0|0:0,0:0:0:0:
348,276,41107,2,0,P|412:240|432:136,1,180,2|0,0:0|0:0,0:0:0:0:
220,192,41787,1,10,0:0:0:0:
352,192,42015,1,0,0:0:0:0:
156,72,42242,6,0,P|68:104|32:200,1,180,2|8,0:0|0:0,0:0:0:0:
84,192,42810,1,0,0:0:0:0:
148,192,42924,1,0,0:0:0:0:
448,192,43151,1,8,0:0:0:0:
204,192,43833,6,0,L|200:136,1,45
328,116,44060,1,10,0:0:0:0:
112,72,44515,1,2,0:0:0:0:
272,72,44742,1,0,0:0:0:0:
76,72,44969,1,8,0:0:0:0:
312,192,45424,1,8,0:0:0:0:
164,192,45651,1,2,0:0:0:0:
372,192,45878,6,0,L|464:192,1,90,8|0,0:0|0:0,0:0:0:0:
392,192,46560,1,0,0:0:0:0:
96,192,46787,6,0,B|28:192|28:192|28:124,2,135,4|0|0,0:0|0:0|0:0,0:0:0:0:
224,192,47697,1,2,0:0:0:0:
116,192,47924,2,0,L|72:192,1,45,0|0,0:0|0:0,0:0:0:0:
136,192,48151,2,0,L|236:232,1,90,2|0,0:0|0:0,0:0:0:0:
364,192,48606,5,2,0:0:0:0:
200,192,48833,1,0,0:0:0:0:
156,195,48946,1,0,0:0:0:0:
122,166,49060,1,2,0:0:0:0:
118,123,49173,1,0,0:0:0:0:
146,89,49287,1,0,0:0:0:0:
189,84,49401,1,0,0:0:0:0:
260,84,49515,2,0,L|360:84,1,90,2|0,0:0|0:0,0:0:0:0:
160,192,49969,5,2,0:0:0:0:
332,192,50197,1,2,0:0:0:0:
44,192,50424,1,2,0:0:0:0:
316,192,51106,6,0,L|320:136,1,45
192,116,51333,1,8,0:0:0:0:
384,72,51788,1,2,0:0:0:0:
232,72,52015,1,0,0:0:0:0:
80,72,52242,1,8,0:0:0:0:
260,192,52697,1,8,0:0:0:0:
432,192,52924,1,2,0:0:0:0:
216,192,53151,6,0,L|124:192,1,90,8|0,0:0|0:0,0:0:0:0:
344,192,53833,1,0,0:0:0:0:
48,192,54060,6,0,B|172:120,2,135,4|0|0,0:0|0:0|0:0,0:0:0:0:
276,192,54970,1,2,0:0:0:0:
384,192,55197,2,0,L|332:192,1,45,0|0,0:0|0:0,0:0:0:0:
404,192,55424,2,0,L|504:152,1,90,2|0,0:0|0:0,0:0:0:0:
340,128,55878,5,2,0:0:0:0:
280,128,55991,1,0,0:0:0:0:
260,184,56105,1,0,0:0:0:0:
316,212,56218,1,0,0:0:0:0:
372,212,56333,1,2,0:0:0:0:
420,248,56446,1,0,0:0:0:0:
404,300,56560,1,0,0:0:0:0:
344,295,56673,1,0,0:0:0:0:
252,295,56788,2,0,L|152:295,1,90,2|0,0:0|0:0,0:0:0:0:
340,212,57242,5,2,0:0:0:0:
176,128,57470,1,2,0:0:0:0:
464,128,57697,1,2,0:0:0:0:
164,128,58378,1,0,0:0:0:0:
456,192,58605,6,0,P|484:256|400:296,1,180,2|8,0:0|0:0,0:0:0:0:
292,296,59287,1,0,0:0:0:0:
436,192,59514,2,0,P|456:120|376:52,1,180,2|8,0:0|0:0,0:0:0:0:
280,56,60196,1,0,0:0:0:0:
64,192,60423,6,0,P|28:264|88:336,1,180,2|8,0:0|0:0,0:0:0:0:
208,276,61105,1,0,0:0:0:0:
152,276,61219,1,0,0:0:0:0:
96,276,61333,1,2,0:0:0:0:
312,192,61560,2,0,L|360:192,2,45,0|0|8,0:0|0:0|0:0,0:0:0:0:
192,192,62014,1,0,0:0:0:0:
488,192,62242,6,0,P|484:128|384:92,1,180,2|8,0:0|0:0,0:0:0:0:
252,92,62923,1,0,0:0:0:0:
36,92,63151,2,0,P|8:144|92:204,1,180,2|8,0:0|0:0,0:0:0:0:
292,204,63833,1,0,0:0:0:0:
236,204,63947,1,0,0:0:0:0:
180,204,64061,1,2,0:0:0:0:
396,200,64287,5,0,0:0:0:0:
440,148,64400,1,0,0:0:0:0:
400,92,64514,1,2,0:0:0:0:
332,92,64627,1,0,0:0:0:0:
292,148,64742,1,0,0:0:0:0:
332,200,64856,1,0,0:0:0:0:
396,200,64969,1,8,0:0:0:0:
216,200,65423,1,8,0:0:0:0:
420,200,65651,1,0,0:0:0:0:
124,200,65878,6,0,P|48:224|16:312,1,180,2|8,0:0|0:0,0:0:0:0:
132,312,66560,1,0,0:0:0:0:
284,312,66787,2,0,P|348:268|280:224,1,180,2|8,0:0|0:0,0:0:0:0:
176,220,67469,1,0,0:0:0:0:
392,156,67696,6,0,P|428:96|344:76,1,180,2|8,0:0|0:0,0:0:0:0:
220,72,68378,1,0,0:0:0:0:
164,72,68492,1,0,0:0:0:0:
108,72,68606,1,2,0:0:0:0:
324,144,68833,2,0,L|372:144,2,45,0|0|8,0:0|0:0|0:0,0:0:0:0:
180,144,69287,1,0,0:0:0:0:
476,192,69515,6,0,P|460:264|364:300,1,180,2|8,0:0|0:0,0:0:0:0:
252,300,70196,1,0,0:0:0:0:
464,192,70424,2,0,P|488:136|400:88,1,180,2|8,0:0|0:0,0:0:0:0:
200,88,71106,1,0,0:0:0:0:
144,88,71220,1,0,0:0:0:0:
88,88,71334,1,2,0:0:0:0:
304,192,71560,6,0,L|270:225,1,45
200,240,71787,2,0,L|236:276,1,45,8|0,0:0|0:0,0:0:0:0:
312,276,72014,2,0,L|278:309,1,45
192,308,72242,1,2,0:0:0:0:
364,192,72952,1,0,0:0:0:0:
200,192,73151,6,0,L|144:192,2,45,8|0|0,0:0|0:0|0:0,0:0:0:0:
416,192,73833,2,0,P|472:260|416:308,1,180,2|0,0:0|0:0,0:0:0:0:
200,308,74515,2,0,L|108:288,1,90,2|0,0:0|0:0,0:0:0:0:
404,192,74969,6,0,L|460:192,2,45,8|0|0,0:0|0:0|0:0,0:0:0:0:
188,192,75651,2,0,P|116:240|172:292,1,180,2|0,0:0|0:0,0:0:0:0:
380,292,76333,2,0,L|488:252,1,90,2|0,0:0|0:0,0:0:0:0:
172,76,76787,5,8,0:0:0:0:
116,76,76901,1,0,0:0:0:0:
60,76,77015,1,0,0:0:0:0:
236,192,77469,2,0,L|76:276,1,180,2|0,0:0|0:0,0:0:0:0:
276,276,78151,2,0,L|368:276,1,90,2|0,0:0|0:0,0:0:0:0:
76,192,78606,6,0,P|20:140|84:88,1,180,4|0,0:0|0:0,0:0:0:0:
264,192,79287,2,0,P|352:168|408:92,1,180,2|0,0:0|0:0,0:0:0:0:
292,80,79969,1,0,0:0:0:0:
164,176,80225,2,0,L|124:192,1,33.75
260,176,80424,5,8,0:0:0:0:
316,220,80537,1,0,0:0:0:0:
372,264,80651,1,0,0:0:0:0:
184,264,81106,2,0,P|252:244|296:144,1,180,2|0,0:0|0:0,0:0:0:0:
80,152,81787,2,0,L|72:60,1,90,2|0,0:0|0:0,0:0:0:0:
368,152,82242,5,8,0:0:0:0:
428,152,82356,1,0,0:0:0:0:
488,152,82469,1,0,0:0:0:0:
276,192,82924,2,0,P|220:228|292:292,1,180
64,296,83606,2,0,L|164:296,1,90,2|0,0:0|0:0,0:0:0:0:
448,192,84060,6,0,L|504:192,2,45,8|0|0,0:0|0:0|0:0,0:0:0:0:
232,192,84742,2,0,P|296:144|236:88,1,180,2|0,0:0|0:0,0:0:0:0:
24,88,85424,2,0,L|124:88,1,90,2|0,0:0|0:0,0:0:0:0:
408,88,85878,6,0,P|456:100|412:192,1,180,4|0,0:0|0:0,0:0:0:0:
240,192,86560,2,0,P|180:240|252:296,1,180,2|0,0:0|0:0,0:0:0:0:
400,300,87242,2,0,L|496:300,1,90,0|0,0:0|0:0,0:0:0:0:
172,192,87697,6,0,L|64:192,1,90,2|0,0:0|0:0,0:0:0:0:
300,192,88151,2,0,L|208:192,1,90,8|0,0:0|0:0,0:0:0:0:
84,76,88606,1,2,0:0:0:0:
300,76,88833,2,0,L|392:76,1,90,0|8,0:0|0:0,0:0:0:0:
456,76,89174,1,0,0:0:0:0:
500,136,89287,1,0,0:0:0:0:
447,189,89401,1,0,0:0:0:0:
312,192,89515,6,0,L|164:204,1,135,2|0,0:0|0:0,0:0:0:0:
304,268,89969,2,0,L|404:320,1,90,8|0,0:0|0:0,0:0:0:0:
176,344,90424,2,0,L|84:344,1,90,2|0,0:0|0:0,0:0:0:0:
412,232,90878,2,0,L|508:232,1,90,8|0,0:0|0:0,0:0:0:0:
436,156,91219,1,0,0:0:0:0:
300,156,91333,6,0,L|152:144,1,135,2|0,0:0|0:0,0:0:0:0:
96,144,91787,1,8,0:0:0:0:
276,76,92015,1,2,0:0:0:0:
60,76,92242,2,0,L|48:168,1,90,0|0,0:0|0:0,0:0:0:0:
264,168,92697,2,0,L|264:264,1,90,8|0,0:0|0:0,0:0:0:0:
480,192,93151,6,0,P|412:168|392:104,1,135,2|0,0:0|0:0,0:0:0:0:
468,116,93605,1,8,0:0:0:0:
288,44,93833,1,2,0:0:0:0:
504,192,94060,2,0,L|488:284,1,90,0|0,0:0|0:0,0:0:0:0:
288,280,94515,2,0,L|384:280,1,90,8|0,0:0|0:0,0:0:0:0:
76,192,94969,6,0,L|5:251,1,90,2|0,0:0|0:0,0:0:0:0:
164,192,95423,2,0,L|256:192,1,90,8|0,0:0|0:0,0:0:0:0:
364,112,95878,1,2,0:0:0:0:
184,112,96106,1,0,0:0:0:0:
364,192,96333,2,0,L|420:192,1,45,8|0,0:0|0:0,0:0:0:0:
340,268,96560,2,0,L|288:268,1,45
148,344,96787,6,0,P|87:321|60:252,1,135,2|0,0:0|0:0,0:0:0:0:
124,260,97241,1,8,0:0:0:0:
304,260,97469,1,2,0:0:0:0:
124,260,97697,1,0,0:0:0:0:
252,220,97924,2,0,L|280:172,1,45,2|0,0:0|0:0,0:0:0:0:
192,180,98151,1,8,0:0:0:0:
135,166,98264,1,0,0:0:0:0:
108,115,98378,1,2,0:0:0:0:
130,61,98491,1,0,0:0:0:0:
232,180,98606,6,0,L|380:192,1,135,2|0,0:0|0:0,0:0:0:0:
300,192,99060,1,8,0:0:0:0:
120,260,99288,1,2,0:0:0:0:
336,328,99515,2,0,L|264:252,1,90,0|0,0:0|0:0,0:0:0:0:
56,168,99970,2,0,L|136:88,1,90,8|0,0:0|0:0,0:0:0:0:
316,192,100424,6,0,L|408:192,1,90,2|0,0:0|0:0,0:0:0:0:
188,260,100878,2,0,L|84:260,1,90,8|0,0:0|0:0,0:0:0:0:
396,116,101333,2,0,L|480:80,1,90,2|0,0:0|0:0,0:0:0:0:
268,48,101787,2,0,L|368:48,1,90,8|0,0:0|0:0,0:0:0:0:
60,192,102242,6,0,P|31:226|26:270,1,90,2|0,0:0|0:0,0:0:0:0:
108,272,102583,1,0,0:0:0:0:
204,272,102697,2,0,L|312:272,1,90,2|0,0:0|0:0,0:0:0:0:
80,192,103151,2,0,P|100:128|204:100,1,180,2|2,0:0|0:0,0:0:0:0:
328,100,103833,1,0,0:0:0:0:
36,192,104060,6,0,P|40:264|140:304,1,180,2|8,0:0|0:0,0:0:0:0:
236,308,104742,1,0,0:0:0:0:
388,192,104969,2,0,P|464:156|468:68,1,180,2|8,0:0|0:0,0:0:0:0:
352,72,105651,1,0,0:0:0:0:
140,72,105878,6,0,P|52:110|28:188,1,180,2|8,0:0|0:0,0:0:0:0:
172,188,106560,1,0,0:0:0:0:
228,188,106674,1,0,0:0:0:0:
284,188,106788,1,2,0:0:0:0:
140,272,107015,2,0,L|92:272,2,45,0|0|8,0:0|0:0|0:0,0:0:0:0:
256,272,107469,1,0,0:0:0:0:
256,192,107697,12,0,110424,0:0:0:0:
