osu file format v14

[General]
AudioFilename: Moonlight Tango.mp3
AudioLeadIn: 0
PreviewTime: 58378
Countdown: 0
SampleSet: Soft
StackLeniency: 0.7
Mode: 2
LetterboxInBreaks: 0
WidescreenStoryboard: 0

[Editor]
DistanceSpacing: 1.1
BeatDivisor: 4
GridSize: 4
TimelineZoom: 2.300006

[Metadata]
Title:Moonlight Tango
TitleUnicode:Moonlight Tango
Artist:Tomohito Nishiura
ArtistUnicode:西浦智仁
Creator:JBHyperion
Version:Overdose
Source:Dark Cloud 2
Tags:ダーククラウド Chronicle ost original sound tracks playstation rpg level-5 inc. instrumental metal flotsam theme zelmite mine
BeatmapID:1135246
BeatmapSetID:536001

[Difficulty]
HPDrainRate:7
CircleSize:4.5
OverallDifficulty:9
ApproachRate:9
SliderMultiplier:2.2
SliderTickRate:1

[Events]
//Background and Video events
0,0,"DC2Cast.jpg",0,0
//Break Periods
//Storyboard Layer 0 (Background)
//Storyboard Layer 1 (Fail)
//Storyboard Layer 2 (Pass)
//Storyboard Layer 3 (Foreground)
//Storyboard Sound Samples

[TimingPoints]
454,454.545454545455,4,2,1,60,1,0
908,-100,4,2,2,50,0,0
3635,-80,4,2,2,50,0,0
4772,-100,4,2,2,50,0,0
5858,454.545454545455,4,2,1,30,1,0
6085,-100,4,2,1,40,0,0
6312,-100,4,2,1,50,0,0
6539,-100,4,2,1,50,0,0
6767,-100,4,2,1,60,0,0
6994,-100,4,2,1,50,0,0
7221,-100,4,2,1,50,0,0
7697,454.545454545455,4,2,1,50,1,0
10197,-100,4,2,1,25,0,0
10424,-100,4,2,1,50,0,0
15424,-100,4,2,2,40,0,0
15651,-100,4,2,1,50,0,0
16333,-100,4,2,2,40,0,0
16560,-100,4,2,1,50,0,0
17242,-100,4,2,2,40,0,0
17470,-100,4,2,1,50,0,0
18151,-100,4,2,3,50,0,0
18379,-100,4,2,1,50,0,0
19060,-100,4,2,2,40,0,0
19287,-100,4,2,1,50,0,0
19969,-100,4,2,2,40,0,0
20197,-100,4,2,1,50,0,0
21333,-100,4,2,2,40,0,0
22242,-100,4,2,1,50,0,0
22697,-100,4,2,2,40,0,0
22924,-100,4,2,1,50,0,0
23606,-100,4,2,2,40,0,0
23833,-100,4,2,1,50,0,0
24515,-100,4,2,2,40,0,0
24742,-100,4,2,1,50,0,0
25424,-100,4,2,3,50,0,0
25651,-100,4,2,1,50,0,0
26333,-100,4,2,2,40,0,0
26560,-100,4,2,1,50,0,0
27242,-100,4,2,2,40,0,0
27469,-100,4,2,1,50,0,0
28606,-100,4,2,2,40,0,0
29515,-100,4,2,2,65,0,1
33833,-80,4,2,2,65,0,1
34287,-100,4,2,2,65,0,1
43151,-100,4,2,2,65,0,0
44060,-100,4,2,1,50,0,0
46788,-100,4,2,1,30,0,0
47129,-100,4,2,1,50,0,0
47697,-100,4,2,1,40,0,0
54060,-100,4,2,1,30,0,0
54401,-100,4,2,1,50,0,0
54970,-100,4,2,1,40,0,0
59060,-100,4,2,2,40,0,0
59288,-100,4,2,1,50,0,0
59970,-100,4,2,2,40,0,0
60197,-100,4,2,1,50,0,0
60879,-100,4,2,2,40,0,0
61106,-100,4,2,1,50,0,0
61788,-100,4,2,3,50,0,0
62015,-100,4,2,1,50,0,0
62697,-100,4,2,2,40,0,0
62924,-100,4,2,1,50,0,0
63606,-100,4,2,2,40,0,0
63833,-100,4,2,1,50,0,0
64969,-100,4,2,2,40,0,0
65651,-100,4,2,1,50,0,0
66333,-100,4,2,2,40,0,0
66560,-100,4,2,1,50,0,0
67242,-100,4,2,2,40,0,0
67470,-100,4,2,1,50,0,0
68151,-100,4,2,2,40,0,0
68379,-100,4,2,1,50,0,0
69060,-100,4,2,3,50,0,0
69288,-100,4,2,1,50,0,0
69969,-100,4,2,2,40,0,0
70197,-100,4,2,1,50,0,0
70878,-100,4,2,2,40,0,0
71103,-100,4,2,1,50,0,0
71787,-100,4,2,2,40,0,0
72015,-100,4,2,1,50,0,0
73151,-100,4,2,2,50,0,0
78606,-100,4,2,1,50,0,0
79060,-100,4,2,1,25,0,0
79288,-100,4,2,2,50,0,0
79515,-100,4,2,1,25,0,0
79969,-100,4,2,2,50,0,0
86333,-100,4,2,1,50,0,0
86560,-100,4,2,1,50,0,0
87697,-80,4,2,2,60,0,1
94288,-80,4,2,2,25,0,1
94515,-80,4,2,2,60,0,1
102242,-100,4,2,1,50,0,0
104515,-100,4,2,2,40,0,0
104742,-100,4,2,1,50,0,0
105424,-100,4,2,2,40,0,0
105651,-100,4,2,1,50,0,0
105879,-100,4,2,1,40,0,0
106333,-100,4,2,2,30,0,0
106560,-100,4,2,1,35,0,0
106788,-100,4,2,1,30,0,0
107242,-100,4,2,3,25,0,0
107697,-100,4,2,1,35,0,0
108151,-100,4,2,1,30,0,0
108606,-100,4,2,1,25,0,0
109060,-100,4,2,1,20,0,0
109515,-100,4,2,1,15,0,0
109970,-100,4,2,1,10,0,0
110424,-100,4,2,1,5,0,0

[Colours]
Combo1 : 175,90,50
Combo2 : 100,255,100
Combo3 : 128,128,255
Combo4 : 255,80,80

[HitObjects]
320,192,454,6,0,P|271:34|228:192,1,440,4|2,0:0|0:0,0:0:0:0:
272,192,1448,1,0,0:0:0:0:
316,224,1552,1,0,0:0:0:0:
316,276,1628,1,0,0:0:0:0:
272,300,1704,1,0,0:0:0:0:
128,300,1846,1,2,0:0:0:0:
72,248,1931,1,0,0:0:0:0:
136,192,2101,1,0,0:0:0:0:
384,68,2272,6,0,P|500:176|320:324,1,440,2|0,0:0|0:0,0:0:0:0:
180,328,3408,1,0,0:0:0:0:
260,328,3522,1,0,0:0:0:0:
88,328,3635,2,0,B|-24:256|8:192|204:192|272:152|272:40|204:0|48:0|-20:44|-20:156|56:192|144:192,1,687.5,2|0,0:0|0:0,0:0:0:0:
464,68,4999,6,0,P|497:212|308:304,1,385,4|0,0:0|0:0,0:0:0:0:
156,304,5858,5,2,0:0:0:0:
122,261,5914,1,0,0:0:0:0:
120,207,5971,1,0,0:0:0:0:
150,161,6028,1,0,0:0:0:0:
260,160,6085,1,2,0:0:0:0:
267,106,6141,1,0,0:0:0:0:
242,58,6198,1,0,0:0:0:0:
193,33,6255,1,0,0:0:0:0:
83,34,6312,5,2,0:0:0:0:
76,88,6368,1,0,0:0:0:0:
101,136,6425,1,0,0:0:0:0:
150,161,6482,1,0,0:0:0:0:
260,160,6539,1,2,0:0:0:0:
267,214,6595,1,0,0:0:0:0:
242,262,6652,1,0,0:0:0:0:
193,287,6709,1,0,0:0:0:0:
80,288,6767,2,0,L|120:288,1,27.5,2|0,0:0|0:0,0:0:0:0:
232,284,6880,5,0,0:0:0:0:
292,284,6956,1,0,0:0:0:0:
350,282,7032,1,0,0:0:0:0:
296,160,7108,2,0,L|256:160,2,36.6666666666667,0|0|0,0:0|0:0|0:0,0:0:0:0:
356,160,7335,2,0,L|396:160,1,36.6666666666667,0|0,0:0|0:0,0:0:0:0:
324,88,7486,1,0,0:0:0:0:
256,88,7562,1,0,0:0:0:0:
188,88,7638,1,0,0:0:0:0:
44,88,7697,5,4,0:0:0:0:
308,88,8151,1,0,0:0:0:0:
132,192,8606,1,2,0:0:0:0:
384,232,9060,2,0,L|280:192,1,110,2|0,0:0|0:0,0:0:0:0:
60,192,9515,5,2,0:0:0:0:
324,280,9970,2,0,L|424:232,1,110,2|0,0:0|0:0,0:0:0:0:
204,192,10424,1,2,0:0:0:0:
356,192,10878,1,2,0:0:0:0:
148,192,11106,1,0,0:0:0:0:
456,120,11333,5,2,0:0:0:0:
496,172,11446,1,0,0:0:0:0:
484,236,11560,1,0,0:0:0:0:
428,268,11673,1,0,0:0:0:0:
304,268,11787,2,0,L|248:268,1,55,0|0,0:0|0:0,0:0:0:0:
196,344,12015,2,0,L|260:344,1,55,0|0,0:0|0:0,0:0:0:0:
441,172,12242,6,0,L|503:172,2,55,2|0|0,0:0|0:0|0:0,0:0:0:0:
376,172,12583,1,0,0:0:0:0:
252,172,12697,2,0,L|228:104,1,55,2|0,0:0|0:0,0:0:0:0:
320,124,12924,2,0,L|300:64,1,55,0|0,0:0|0:0,0:0:0:0:
168,76,13151,5,2,0:0:0:0:
116,96,13264,1,0,0:0:0:0:
92,144,13378,1,0,0:0:0:0:
92,200,13491,1,0,0:0:0:0:
220,200,13606,2,0,L|160:200,1,55,2|0,0:0|0:0,0:0:0:0:
40,272,13833,2,0,L|100:272,1,55,0|0,0:0|0:0,0:0:0:0:
284,272,14060,6,0,P|272:336|184:364,1,165,2|0,0:0|0:0,0:0:0:0:
312,332,14515,1,2,0:0:0:0:
118,272,14742,1,0,0:0:0:0:
468,328,14969,6,0,P|500:248|400:192,1,220,2|8,0:0|0:0,0:0:0:0:
268,192,15651,1,0,0:0:0:0:
44,192,15878,2,0,P|68:96|176:80,1,220,2|8,0:0|0:0,0:0:0:0:
376,80,16560,1,0,0:0:0:0:
44,192,16787,6,0,P|68:292|172:324,1,220,2|8,0:0|0:0,0:0:0:0:
324,192,17469,1,0,0:0:0:0:
224,192,17583,1,0,0:0:0:0:
124,192,17697,1,2,0:0:0:0:
288,280,17924,2,0,L|316:251,4,27.5,0|0|0|0|8,0:0|0:0|0:0|0:0|0:0,0:0:0:0:
132,280,18378,1,0,0:0:0:0:
452,280,18606,6,0,P|504:220|412:148,1,220,2|8,0:0|0:0,0:0:0:0:
284,148,19287,1,0,0:0:0:0:
64,152,19515,2,0,P|112:244|224:272,1,220,2|8,0:0|0:0,0:0:0:0:
416,276,20197,2,0,L|360:276,1,55,0|0,0:0|0:0,0:0:0:0:
156,152,20424,5,2,0:0:0:0:
364,192,20651,2,0,L|424:192,1,55
240,140,20878,1,2,0:0:0:0:
190,102,20991,1,0,0:0:0:0:
268,68,21105,1,0,0:0:0:0:
329,49,21218,1,0,0:0:0:0:
144,48,21333,2,0,L|128:120,1,55,8|0,0:0|0:0,0:0:0:0:
240,140,21560,2,0,L|268:196,1,55,0|0,0:0|0:0,0:0:0:0:
36,192,21787,1,8,0:0:0:0:
144,192,22015,1,0,0:0:0:0:
452,192,22242,6,0,P|480:268|380:336,1,220,2|8,0:0|0:0,0:0:0:0:
248,332,22924,1,0,0:0:0:0:
468,192,23151,2,0,P|444:108|320:64,1,220,2|8,0:0|0:0,0:0:0:0:
140,60,23833,1,0,0:0:0:0:
468,192,24060,6,0,P|432:288|324:328,1,220,2|8,0:0|0:0,0:0:0:0:
164,192,24742,1,0,0:0:0:0:
264,192,24856,1,0,0:0:0:0:
364,192,24970,1,2,0:0:0:0:
208,92,25197,2,0,L|172:68,4,27.5,0|0|0|0|8,0:0|0:0|0:0|0:0|0:0,0:0:0:0:
372,92,25651,1,0,0:0:0:0:
40,92,25878,6,0,P|40:164|160:228,1,220,2|8,0:0|0:0,0:0:0:0:
280,228,26559,1,0,0:0:0:0:
64,228,26787,2,0,P|12:304|96:372,1,220,2|8,0:0|0:0,0:0:0:0:
284,376,27469,2,0,L|204:376,1,55,0|0,0:0|0:0,0:0:0:0:
444,376,27697,5,2,0:0:0:0:
324,304,27924,2,0,L|260:304,1,55,0|0,0:0|0:0,0:0:0:0:
452,304,28151,1,2,0:0:0:0:
480,246,28264,1,0,0:0:0:0:
404,244,28378,1,0,0:0:0:0:
342,222,28491,1,0,0:0:0:0:
152,224,28606,2,0,L|96:224,1,55,8|0,0:0|0:0,0:0:0:0:
204,220,28833,2,0,L|252:192,1,55,0|0,0:0|0:0,0:0:0:0:
64,128,29060,1,10,0:0:0:0:
228,128,29287,1,0,0:0:0:0:
308,128,29401,1,0,0:0:0:0:
496,128,29515,6,0,P|488:192|444:228,1,110,2|0,0:0|0:0,0:0:0:0:
256,224,29969,2,0,L|320:224,1,55,8|0,0:0|0:0,0:0:0:0:
84,224,30197,2,0,P|8:152|80:84,1,220,2|0,0:0|0:0,0:0:0:0:
360,88,30878,1,8,0:0:0:0:
64,88,31106,1,0,0:0:0:0:
440,92,31333,6,0,P|496:140|408:224,1,220,2|8,0:0|0:0,0:0:0:0:
248,228,32015,1,0,0:0:0:0:
332,228,32128,1,0,0:0:0:0:
152,224,32242,2,0,P|56:176|76:80,1,220,2|8,0:0|0:0,0:0:0:0:
216,80,32924,2,0,L|148:80,1,55,0|0,0:0|0:0,0:0:0:0:
408,192,33151,6,0,L|292:192,1,110,2|0,0:0|0:0,0:0:0:0:
80,192,33606,2,0,L|140:192,1,55,8|0,0:0|0:0,0:0:0:0:
272,192,33833,2,0,P|352:256|256:356,1,275,2|0,0:0|0:0,0:0:0:0:
468,336,34515,2,0,L|372:280,1,110,10|0,0:0|0:0,0:0:0:0:
76,276,34969,6,0,P|32:192|128:140,1,220,2|8,0:0|0:0,0:0:0:0:
320,140,35651,2,0,L|260:140,1,55,0|0,0:0|0:0,0:0:0:0:
484,140,35878,2,0,P|508:240|420:292,1,220,2|8,0:0|0:0,0:0:0:0:
232,292,36560,1,0,0:0:0:0:
343,292,36674,1,0,0:0:0:0:
144,292,36787,6,0,L|24:292,1,110,2|0,0:0|0:0,0:0:0:0:
232,292,37242,2,0,L|300:292,1,55,8|0,0:0|0:0,0:0:0:0:
176,292,37469,2,0,P|259:201|340:292,1,275,2|0,0:0|0:0,0:0:0:0:
160,292,38151,1,10,0:0:0:0:
444,292,38378,1,0,0:0:0:0:
72,292,38606,6,0,P|24:216|112:152,1,220,2|8,0:0|0:0,0:0:0:0:
332,152,39287,2,0,L|264:152,1,55,0|0,0:0|0:0,0:0:0:0:
64,152,39515,2,0,P|28:216|116:312,1,220,2|8,0:0|0:0,0:0:0:0:
292,312,40197,2,0,L|336:276,1,55,0|0,0:0|0:0,0:0:0:0:
220,276,40424,6,0,L|104:236,1,110,2|0,0:0|0:0,0:0:0:0:
292,192,40878,1,8,0:0:0:0:
368,192,40992,1,0,0:0:0:0:
240,192,41106,2,0,P|144:156|200:96,1,220,2|0,0:0|0:0,0:0:0:0:
492,96,41787,1,10,0:0:0:0:
380,96,42015,1,0,0:0:0:0:
180,96,42242,5,2,0:0:0:0:
292,192,42469,2,0,L|332:232,1,55,0|0,0:0|0:0,0:0:0:0:
128,228,42697,1,8,0:0:0:0:
80,269,42810,1,0,0:0:0:0:
89,332,42924,1,0,0:0:0:0:
148,356,43037,1,0,0:0:0:0:
396,356,43151,1,8,0:0:0:0:
132,192,43833,5,0,0:0:0:0:
220,192,43947,1,0,0:0:0:0:
428,192,44060,1,10,0:0:0:0:
252,104,44515,1,2,0:0:0:0:
432,104,44742,1,0,0:0:0:0:
124,104,44969,1,8,0:0:0:0:
344,192,45424,5,8,0:0:0:0:
144,192,45651,1,2,0:0:0:0:
452,192,45878,2,0,L|364:268,1,110,8|0,0:0|0:0,0:0:0:0:
148,264,46560,1,0,0:0:0:0:
476,352,46787,6,0,B|320:284,2,165,4|0|0,0:0|0:0|0:0,0:0:0:0:
252,284,47697,1,2,0:0:0:0:
428,284,47924,6,0,L|468:240,1,55,0|0,0:0|0:0,0:0:0:0:
252,284,48151,1,2,0:0:0:0:
196,253,48264,1,0,0:0:0:0:
188,190,48378,1,0,0:0:0:0:
233,145,48491,1,0,0:0:0:0:
420,144,48606,2,0,L|364:144,1,55,2|0,0:0|0:0,0:0:0:0:
288,144,48833,2,0,L|360:144,1,55,0|0,0:0|0:0,0:0:0:0:
156,60,49060,2,0,L|88:60,1,55,2|0,0:0|0:0,0:0:0:0:
176,144,49287,2,0,L|100:144,1,55,0|0,0:0|0:0,0:0:0:0:
8,220,49515,6,0,L|96:292,1,110,2|0,0:0|0:0,0:0:0:0:
392,220,49969,1,2,0:0:0:0:
188,220,50196,1,2,0:0:0:0:
496,220,50423,1,2,0:0:0:0:
168,192,51106,5,0,0:0:0:0:
256,192,51220,1,0,0:0:0:0:
48,192,51333,1,8,0:0:0:0:
268,108,51788,1,2,0:0:0:0:
80,108,52015,1,0,0:0:0:0:
388,108,52242,1,8,0:0:0:0:
168,192,52697,5,8,0:0:0:0:
368,192,52924,1,2,0:0:0:0:
58,192,53151,2,0,L|170:192,1,110,8|0,0:0|0:0,0:0:0:0:
372,192,53833,1,0,0:0:0:0:
64,126,54060,6,0,B|220:194,2,165,4|0|0,0:0|0:0|0:0,0:0:0:0:
288,192,54970,1,2,0:0:0:0:
96,192,55197,6,0,L|68:240,1,55
268,288,55424,2,0,L|324:288,1,55,2|0,0:0|0:0,0:0:0:0:
392,356,55651,2,0,L|336:356,1,55
156,356,55879,2,0,L|212:335,1,55,2|0,0:0|0:0,0:0:0:0:
136,288,56106,2,0,L|199:264,1,55
356,192,56333,2,0,L|406:150,1,55,2|0,0:0|0:0,0:0:0:0:
308,192,56560,2,0,L|258:150,1,55
392,192,56788,6,0,L|500:140,1,110,2|0,0:0|0:0,0:0:0:0:
152,144,57242,1,2,0:0:0:0:
440,144,57469,1,2,0:0:0:0:
108,144,57696,1,2,0:0:0:0:
388,236,58378,1,0,0:0:0:0:
54,156,58606,6,0,P|26:232|126:300,1,220,2|8,0:0|0:0,0:0:0:0:
258,296,59288,1,0,0:0:0:0:
38,156,59515,2,0,P|156:108|186:28,1,220,2|8,0:0|0:0,0:0:0:0:
8,28,60197,1,0,0:0:0:0:
336,192,60424,6,0,P|300:288|192:328,1,220,2|8,0:0|0:0,0:0:0:0:
352,328,61106,1,0,0:0:0:0:
280,328,61220,1,0,0:0:0:0:
352,328,61334,1,2,0:0:0:0:
196,328,61560,1,0,0:0:0:0:
168,298,61616,1,0,0:0:0:0:
166,258,61673,1,0,0:0:0:0:
191,226,61730,1,0,0:0:0:0:
356,224,61787,1,8,0:0:0:0:
464,192,62015,1,0,0:0:0:0:
156,192,62242,6,0,P|56:158|38:55,1,220,2|8,0:0|0:0,0:0:0:0:
168,56,62923,1,0,0:0:0:0:
456,56,63151,2,0,P|504:132|412:192,1,220,2|8,0:0|0:0,0:0:0:0:
248,192,63833,2,0,L|304:192,1,55,0|0,0:0|0:0,0:0:0:0:
488,192,64060,5,2,0:0:0:0:
286,139,64287,2,0,L|302:191,1,55,0|0,0:0|0:0,0:0:0:0:
488,192,64515,2,0,L|424:192,1,55,2|0,0:0|0:0,0:0:0:0:
346,271,64742,2,0,L|406:271,1,55
232,272,64969,2,0,L|216:200,1,55,8|0,0:0|0:0,0:0:0:0:
320,192,65196,2,0,L|348:136,1,55
176,144,65423,1,8,0:0:0:0:
336,144,65651,1,0,0:0:0:0:
44,8,65878,6,0,P|12:88|112:144,1,220,2|8,0:0|0:0,0:0:0:0:
244,144,66560,1,0,0:0:0:0:
468,144,66787,2,0,P|380:176|348:292,1,220,2|8,0:0|0:0,0:0:0:0:
480,288,67469,1,0,0:0:0:0:
172,288,67696,6,0,P|71:257|45:155,1,220,2|8,0:0|0:0,0:0:0:0:
200,152,68378,1,0,0:0:0:0:
112,152,68492,1,0,0:0:0:0:
24,152,68606,1,2,0:0:0:0:
180,152,68833,1,0,0:0:0:0:
208,122,68889,1,0,0:0:0:0:
210,82,68946,1,0,0:0:0:0:
185,50,69003,1,0,0:0:0:0:
20,48,69060,1,8,0:0:0:0:
132,48,69288,1,0,0:0:0:0:
420,48,69515,6,0,P|500:96|444:192,1,220,2|8,0:0|0:0,0:0:0:0:
320,192,70196,1,0,0:0:0:0:
32,192,70424,2,0,P|52:100|168:72,1,220,2|8,0:0|0:0,0:0:0:0:
380,72,71106,2,0,L|324:72,1,55
136,68,71333,5,2,0:0:0:0:
268,136,71560,2,0,L|276:192,1,55,0|0,0:0|0:0,0:0:0:0:
88,192,71787,2,0,L|152:192,1,55,8|0,0:0|0:0,0:0:0:0:
332,268,72015,2,0,L|400:268,1,55,0|0,0:0|0:0,0:0:0:0:
164,268,72242,1,8,0:0:0:0:
388,192,72962,1,0,0:0:0:0:
120,192,73151,6,0,L|56:192,2,55,8|0|0,0:0|0:0|0:0,0:0:0:0:
428,192,73833,2,0,P|504:260|428:312,1,220,2|0,0:0|0:0,0:0:0:0:
200,312,74515,2,0,L|312:272,1,110,2|0,0:0|0:0,0:0:0:0:
16,192,74969,5,8,0:0:0:0:
96,192,75083,1,0,0:0:0:0:
176,192,75197,1,0,0:0:0:0:
448,192,75651,2,0,P|376:128|448:56,1,220,2|0,0:0|0:0,0:0:0:0:
268,56,76333,2,0,L|384:56,1,110,2|0,0:0|0:0,0:0:0:0:
92,56,76787,5,8,0:0:0:0:
164,56,76901,1,0,0:0:0:0:
92,56,77015,1,0,0:0:0:0:
400,56,77469,2,0,P|392:136|276:192,1,220,2|0,0:0|0:0,0:0:0:0:
76,156,78151,2,0,L|180:192,1,110,2|0,0:0|0:0,0:0:0:0:
488,192,78606,6,0,P|500:292|404:337,1,220,4|0,0:0|0:0,0:0:0:0:
96,336,79287,2,0,L|324:336,1,220,2|0,0:0|0:0,0:0:0:0:
204,332,79969,1,0,0:0:0:0:
368,296,80234,2,0,L|416:296,1,36.6666666666667,0|0,0:0|0:0,0:0:0:0:
212,188,80424,5,8,0:0:0:0:
284,188,80537,1,0,0:0:0:0:
356,188,80651,1,0,0:0:0:0:
12,192,81106,2,0,P|44:96|152:84,1,220,2|0,0:0|0:0,0:0:0:0:
328,84,81787,1,2,0:0:0:0:
112,84,82015,1,0,0:0:0:0:
420,84,82242,5,8,0:0:0:0:
336,84,82356,1,0,0:0:0:0:
252,84,82469,1,0,0:0:0:0:
440,84,82924,2,0,P|424:172|316:232,1,220
104,232,83606,2,0,L|196:292,1,110,2|0,0:0|0:0,0:0:0:0:
492,292,84060,5,8,0:0:0:0:
420,292,84174,1,0,0:0:0:0:
492,292,84288,1,0,0:0:0:0:
228,288,84742,2,0,P|248:200|356:144,1,220,2|0,0:0|0:0,0:0:0:0:
156,144,85424,1,2,0:0:0:0:
332,144,85651,1,0,0:0:0:0:
24,144,85879,6,0,P|16:240|116:296,1,220,4|0,0:0|0:0,0:0:0:0:
332,60,86560,2,0,P|432:96|444:204,1,220,2|0,0:0|0:0,0:0:0:0:
299,198,87280,2,0,L|447:198,1,146.666666666667,0|0,0:0|0:0,0:0:0:0:
212,196,87697,6,0,L|72:192,1,137.5,2|0,0:0|0:0,0:0:0:0:
404,100,88151,2,0,L|264:96,1,137.5,8|0,0:0|0:0,0:0:0:0:
44,96,88606,1,2,0:0:0:0:
348,96,88833,2,0,P|392:144|352:192,1,137.5,0|8,0:0|0:0,0:0:0:0:
284,192,89174,1,0,0:0:0:0:
96,192,89287,2,0,L|180:192,1,68.75,0|0,0:0|0:0,0:0:0:0:
416,192,89515,6,0,P|488:240|428:324,1,206.25,2|0,0:0|0:0,0:0:0:0:
224,324,89969,1,8,0:0:0:0:
360,324,90197,1,0,0:0:0:0:
52,320,90424,2,0,L|44:176,1,137.5,2|0,0:0|0:0,0:0:0:0:
360,192,90878,1,8,0:0:0:0:
428,192,90992,1,0,0:0:0:0:
348,124,91106,1,0,0:0:0:0:
440,124,91219,1,0,0:0:0:0:
148,48,91333,6,0,P|116:108|204:192,1,206.25,2|0,0:0|0:0,0:0:0:0:
332,192,91787,1,8,0:0:0:0:
48,192,92015,1,2,0:0:0:0:
202,192,92242,1,0,0:0:0:0:
24,192,92469,1,0,0:0:0:0:
332,192,92697,2,0,P|392:216|416:288,1,137.5,8|0,0:0|0:0,0:0:0:0:
112,144,93151,6,0,P|40:168|32:284,1,206.25,2|0,0:0|0:0,0:0:0:0:
268,280,93606,1,8,0:0:0:0:
88,284,93833,1,2,0:0:0:0:
392,280,94060,2,0,L|404:144,1,137.5
184,144,94515,2,0,L|48:96,1,137.5,8|0,0:0|0:0,0:0:0:0:
344,80,94969,6,0,L|484:80,1,137.5,2|0,0:0|0:0,0:0:0:0:
168,140,95424,2,0,L|28:140,1,137.5,8|0,0:0|0:0,0:0:0:0:
252,140,95878,1,2,0:0:0:0:
88,212,96106,1,0,0:0:0:0:
416,192,96333,2,0,L|392:260,1,68.75,8|0,0:0|0:0,0:0:0:0:
140,272,96560,2,0,L|164:204,1,68.75,0|0,0:0|0:0,0:0:0:0:
436,192,96787,6,0,P|452:120|348:68,1,206.25,2|0,0:0|0:0,0:0:0:0:
212,68,97242,1,8,0:0:0:0:
496,68,97469,1,2,0:0:0:0:
304,68,97697,1,0,0:0:0:0:
444,192,97924,2,0,L|368:192,1,68.75,2|0,0:0|0:0,0:0:0:0:
152,192,98151,2,0,L|216:232,1,68.75,8|0,0:0|0:0,0:0:0:0:
430,284,98378,2,0,L|394:348,1,68.75,2|0,0:0|0:0,0:0:0:0:
172,340,98606,6,0,P|160:272|256:192,1,206.25,2|0,0:0|0:0,0:0:0:0:
396,192,99060,1,8,0:0:0:0:
96,192,99287,1,2,0:0:0:0:
316,192,99515,1,0,0:0:0:0:
152,192,99742,1,0,0:0:0:0:
464,192,99969,2,0,P|444:132|376:108,1,137.5,8|0,0:0|0:0,0:0:0:0:
60,192,100424,6,0,L|44:328,1,137.5,2|0,0:0|0:0,0:0:0:0:
379,108,100878,2,0,L|395:248,1,137.5,8|0,0:0|0:0,0:0:0:0:
36,240,101333,6,0,L|173:240,1,137.5,2|0,0:0|0:0,0:0:0:0:
476,320,101787,2,0,L|336:320,1,137.5,8|0,0:0|0:0,0:0:0:0:
52,316,102242,6,0,P|32:268|64:224,1,110,2|0,0:0|0:0,0:0:0:0:
116,224,102583,1,0,0:0:0:0:
304,224,102697,1,2,0:0:0:0:
148,224,102924,1,0,0:0:0:0:
428,224,103151,2,0,P|384:152|312:124,1,165,2|0,0:0|0:0,0:0:0:0:
184,124,103606,2,0,P|228:52|304:28,1,165,2|0,0:0|0:0,0:0:0:0:
484,28,104060,6,0,P|504:112|396:164,1,220,2|8,0:0|0:0,0:0:0:0:
268,164,104742,1,0,0:0:0:0:
488,164,104969,2,0,P|472:264|368:296,1,220,2|8,0:0|0:0,0:0:0:0:
172,276,105651,1,0,0:0:0:0:
392,160,105878,6,0,P|368:60|264:28,1,220,2|8,0:0|0:0,0:0:0:0:
100,160,106560,1,0,0:0:0:0:
180,160,106674,1,0,0:0:0:0:
260,160,106788,1,2,0:0:0:0:
96,72,107015,2,0,L|68:101,4,27.5,0|0|0|0|8,0:0|0:0|0:0|0:0|0:0,0:0:0:0:
252,72,107469,1,0,0:0:0:0:
256,192,107697,12,0,110424,0:0:0:0:
