osu file format v14

[General]
AudioFilename: Moonlight Tango.mp3
AudioLeadIn: 0
PreviewTime: 58378
Countdown: 0
SampleSet: Soft
StackLeniency: 0.7
Mode: 2
LetterboxInBreaks: 0
WidescreenStoryboard: 0

[Editor]
DistanceSpacing: 1.1
BeatDivisor: 4
GridSize: 4
TimelineZoom: 2.000006

[Metadata]
Title:Moonlight Tango
TitleUnicode:Moonlight Tango
Artist:Tomohito Nishiura
ArtistUnicode:西浦智仁
Creator:JBHyperion
Version:Cup
Source:Dark Cloud 2
Tags:ダーククラウド Chronicle ost original sound tracks playstation rpg level-5 inc. instrumental metal flotsam theme zelmite mine
BeatmapID:1135245
BeatmapSetID:536001

[Difficulty]
HPDrainRate:3
CircleSize:2.5
OverallDifficulty:5.5
ApproachRate:5.5
SliderMultiplier:1.4
SliderTickRate:1

[Events]
//Background and Video events
0,0,"DC2Cast.jpg",0,0
//Break Periods
//Storyboard Layer 0 (Background)
//Storyboard Layer 1 (Fail)
//Storyboard Layer 2 (Pass)
//Storyboard Layer 3 (Foreground)
//Storyboard Sound Samples

[TimingPoints]
454,454.545454545455,4,2,1,60,1,0
908,-100,4,2,2,50,0,0
5858,454.545454545455,4,2,1,20,1,0
6085,-100,4,2,1,25,0,0
6312,-100,4,2,1,30,0,0
6539,-100,4,2,1,35,0,0
6767,-100,4,2,1,40,0,0
6994,-100,4,2,1,45,0,0
7221,-100,4,2,1,50,0,0
7697,454.545454545455,4,2,1,50,1,0
11787,-100,4,2,2,40,0,0
12015,-100,4,2,1,50,0,0
13606,-100,4,2,2,40,0,0
13834,-100,4,2,1,50,0,0
15424,-100,4,2,2,40,0,0
15651,-100,4,2,1,50,0,0
16333,-100,4,2,2,40,0,0
16560,-100,4,2,1,50,0,0
17242,-100,4,2,2,40,0,0
17470,-100,4,2,1,50,0,0
18151,-100,4,2,3,50,0,0
18379,-100,4,2,1,50,0,0
19060,-100,4,2,2,40,0,0
19287,-100,4,2,1,50,0,0
19969,-100,4,2,2,40,0,0
20197,-100,4,2,1,50,0,0
22697,-100,4,2,2,40,0,0
22924,-100,4,2,1,50,0,0
23606,-100,4,2,2,40,0,0
23833,-100,4,2,1,50,0,0
24515,-100,4,2,2,40,0,0
24742,-100,4,2,1,50,0,0
25424,-100,4,2,3,50,0,0
25651,-100,4,2,1,50,0,0
26333,-100,4,2,2,40,0,0
26560,-100,4,2,1,50,0,0
27242,-100,4,2,2,40,0,0
27469,-100,4,2,1,50,0,0
29515,-100,4,2,2,65,0,1
43151,-100,4,2,2,65,0,0
44060,-100,4,2,1,50,0,0
46788,-100,4,2,1,30,0,0
47129,-100,4,2,1,50,0,0
47697,-100,4,2,1,30,0,0
49970,-100,4,2,1,40,0,0
54060,-100,4,2,1,30,0,0
54401,-100,4,2,1,50,0,0
54970,-100,4,2,1,30,0,0
57242,-100,4,2,1,40,0,0
59060,-100,4,2,2,40,0,0
59288,-100,4,2,1,50,0,0
59970,-100,4,2,2,40,0,0
60197,-100,4,2,1,50,0,0
60879,-100,4,2,2,40,0,0
61106,-100,4,2,1,50,0,0
61788,-100,4,2,3,50,0,0
62015,-100,4,2,1,50,0,0
62697,-100,4,2,2,40,0,0
62924,-100,4,2,1,50,0,0
63606,-100,4,2,2,40,0,0
63833,-100,4,2,1,50,0,0
66333,-100,4,2,2,40,0,0
66560,-100,4,2,1,50,0,0
67242,-100,4,2,2,40,0,0
67470,-100,4,2,1,50,0,0
68151,-100,4,2,2,40,0,0
68379,-100,4,2,1,50,0,0
69060,-100,4,2,3,50,0,0
69288,-100,4,2,1,50,0,0
69969,-100,4,2,2,40,0,0
70197,-100,4,2,1,50,0,0
70878,-100,4,2,2,40,0,0
71106,-100,4,2,1,50,0,0
73151,-100,4,2,2,50,0,0
78606,-100,4,2,1,50,0,0
79060,-100,4,2,1,25,0,0
79288,-100,4,2,2,50,0,0
79515,-100,4,2,1,25,0,0
79970,-100,4,2,2,50,0,0
86333,-100,4,2,2,25,0,0
86560,-100,4,2,2,50,0,0
86787,-100,4,2,2,25,0,0
87015,-100,4,2,2,50,0,0
87697,-100,4,2,2,60,0,1
94288,-100,4,2,2,25,0,1
94515,-100,4,2,2,60,0,1
102242,-100,4,2,1,50,0,0
104515,-100,4,2,2,40,0,0
104742,-100,4,2,1,50,0,0
105424,-100,4,2,2,40,0,0
105651,-100,4,2,1,50,0,0
105879,-100,4,2,1,40,0,0
106333,-100,4,2,2,30,0,0
106560,-100,4,2,1,35,0,0
106788,-100,4,2,1,30,0,0
107242,-100,4,2,3,25,0,0
107697,-100,4,2,1,35,0,0
108151,-100,4,2,1,30,0,0
108606,-100,4,2,1,25,0,0
109060,-100,4,2,1,20,0,0
109515,-100,4,2,1,15,0,0
109970,-100,4,2,1,10,0,0
110424,-100,4,2,1,5,0,0

[Colours]
Combo1 : 175,90,50
Combo2 : 100,255,100
Combo3 : 128,128,255
Combo4 : 255,80,80

[HitObjects]
432,192,454,6,0,L|300:144,1,140,4|0,0:0|0:0,0:0:0:0:
160,192,1363,1,2,0:0:0:0:
256,192,1628,1,0,0:0:0:0:
352,192,1931,1,0,0:0:0:0:
204,192,2272,6,0,P|116:268|224:292,1,280,2|0,0:0|0:0,0:0:0:0:
392,244,3635,2,0,P|480:224|424:84,1,280,2|0,0:0|0:0,0:0:0:0:
232,152,4999,6,0,P|168:144|112:92,1,140,4|0,0:0|0:0,0:0:0:0:
256,192,5858,12,0,7221,0:0:0:0:
356,192,7697,6,0,L|228:132,1,140,4|0,0:0|0:0,0:0:0:0:
88,192,8606,1,2,0:0:0:0:
256,192,9060,2,0,L|320:224,1,70,2|0,0:0|0:0,0:0:0:0:
212,272,9515,5,2,0:0:0:0:
374,272,9970,2,0,L|510:196,1,140,2|2,0:0|0:0,0:0:0:0:
328,168,10879,2,0,L|252:168,1,70,2|0,0:0|0:0,0:0:0:0:
360,172,11333,6,0,P|432:152|464:88,2,140,2|8|2,0:0|0:0|0:0,0:0:0:0:
192,264,12697,1,2,0:0:0:0:
284,264,12924,1,0,0:0:0:0:
376,264,13151,6,0,B|352:196|352:196|260:196,1,140,2|8,0:0|0:0,0:0:0:0:
108,184,14060,1,2,0:0:0:0:
268,184,14515,1,2,0:0:0:0:
72,184,14970,6,0,B|16:184|16:184|96:244,1,140,2|8,0:0|0:0,0:0:0:0:
252,236,15879,2,0,L|132:316,1,140,2|8,0:0|0:0,0:0:0:0:
344,236,16788,6,0,L|224:316,1,140,2|8,0:0|0:0,0:0:0:0:
396,316,17697,2,0,L|468:316,2,70,2|0|8,0:0|0:0|0:0,0:0:0:0:
188,192,18606,6,0,L|60:136,1,140,2|8,0:0|0:0,0:0:0:0:
256,192,19515,2,0,L|384:136,1,140,2|8,0:0|0:0,0:0:0:0:
188,192,20424,5,2,0:0:0:0:
112,192,20651,1,0,0:0:0:0:
224,192,20879,2,0,B|312:192|312:192|352:140,2,140,2|0|2,0:0|0:0|0:0,0:0:0:0:
420,192,22242,6,0,B|484:192|484:192|420:248,1,140,2|8,0:0|0:0,0:0:0:0:
260,244,23151,2,0,P|197:276|172:344,1,140,2|8,0:0|0:0,0:0:0:0:
368,244,24060,6,0,L|248:324,1,140,2|8,0:0|0:0,0:0:0:0:
84,324,24969,2,0,L|12:324,2,70,2|0|8,0:0|0:0|0:0,0:0:0:0:
280,192,25878,6,0,L|408:136,1,140,2|8,0:0|0:0,0:0:0:0:
212,192,26787,2,0,B|152:192|152:192|212:132,1,140,2|8,0:0|0:0,0:0:0:0:
404,192,27696,5,2,0:0:0:0:
480,192,27923,1,0,0:0:0:0:
368,192,28151,2,0,B|280:192|280:192|240:140,2,140,2|0|2,0:0|0:0|0:0,0:0:0:0:
172,192,29515,5,2,0:0:0:0:
340,192,29970,1,8,0:0:0:0:
236,192,30197,2,0,P|144:152|116:48,1,210,2|8,0:0|0:0,0:0:0:0:
324,108,31333,6,0,L|436:192,1,140,2|8,0:0|0:0,0:0:0:0:
268,192,32242,2,0,L|124:192,1,140,2|8,0:0|0:0,0:0:0:0:
324,192,33151,5,2,0:0:0:0:
156,192,33606,1,8,0:0:0:0:
260,192,33833,2,0,B|324:192|324:192|260:232,1,140,2|0,0:0|0:0,0:0:0:0:
184,236,34515,1,10,0:0:0:0:
108,236,34742,1,0,0:0:0:0:
208,236,34970,6,0,L|320:152,1,140,2|8,0:0|0:0,0:0:0:0:
488,72,35879,2,0,L|348:36,1,140,2|8,0:0|0:0,0:0:0:0:
156,192,36788,5,2,0:0:0:0:
324,192,37243,1,8,0:0:0:0:
408,192,37470,2,0,B|408:252|408:252|324:284,1,140,2|0,0:0|0:0,0:0:0:0:
228,284,38151,1,10,0:0:0:0:
176,284,38379,1,0,0:0:0:0:
280,284,38606,6,0,L|420:284,1,140,2|8,0:0|0:0,0:0:0:0:
252,192,39515,2,0,L|380:136,1,140,2|8,0:0|0:0,0:0:0:0:
184,80,40424,6,0,L|124:120,2,70,2|0|8,0:0|0:0|0:0,0:0:0:0:
284,80,41106,2,0,L|420:124,1,140,2|0,0:0|0:0,0:0:0:0:
316,124,41788,1,10,0:0:0:0:
232,124,42015,1,0,0:0:0:0:
330,124,42242,6,0,L|462:180,2,140,2|8|8,0:0|0:0|0:0,0:0:0:0:
160,268,43833,6,0,L|136:192,1,70,0|10,0:0|0:0,0:0:0:0:
308,144,44515,2,0,L|440:192,1,140,2|8,0:0|0:0,0:0:0:0:
272,264,45424,2,0,L|200:236,1,70,8|2,0:0|0:0,0:0:0:0:
312,264,45878,6,0,L|377:289,1,70,8|0,0:0|0:0,0:0:0:0:
236,192,46560,1,0,0:0:0:0:
128,192,46788,6,0,L|12:164,2,105,4|0|0,0:0|0:0|0:0,0:0:0:0:
204,192,47697,2,0,L|320:112,1,140,2|0,0:0|0:0,0:0:0:0:
472,112,48606,6,0,L|356:192,1,140,2|0,0:0|0:0,0:0:0:0:
204,192,49515,1,2,0:0:0:0:
400,192,49970,6,0,L|484:192,2,70,2|2|2,0:0|0:0|0:0,0:0:0:0:
154,258,51106,6,0,L|178:182,1,70,0|10,0:0|0:0,0:0:0:0:
344,192,51788,2,0,L|212:240,1,140,2|8,0:0|0:0,0:0:0:0:
44,192,52697,2,0,L|116:164,1,70,8|2,0:0|0:0,0:0:0:0:
216,64,53151,6,0,L|150:89,1,70,8|0,0:0|0:0,0:0:0:0:
280,192,53833,1,0,0:0:0:0:
384,192,54061,6,0,L|500:220,2,105,4|0|0,0:0|0:0|0:0,0:0:0:0:
300,192,54970,2,0,L|184:112,1,140,2|0,0:0|0:0,0:0:0:0:
352,116,55879,6,0,L|468:196,1,140,2|0,0:0|0:0,0:0:0:0:
300,192,56788,1,0,0:0:0:0:
88,192,57242,5,2,0:0:0:0:
164,192,57470,1,2,0:0:0:0:
240,192,57697,1,2,0:0:0:0:
444,192,58606,6,0,B|500:192|500:192|420:132,1,140,2|8,0:0|0:0,0:0:0:0:
264,140,59515,2,0,L|380:217,1,140,2|8,0:0|0:0,0:0:0:0:
184,140,60424,6,0,L|64:60,1,140,2|8,0:0|0:0,0:0:0:0:
236,68,61333,2,0,L|308:68,2,70,2|0|8,0:0|0:0|0:0,0:0:0:0:
36,192,62242,6,0,L|64:328,1,140,2|8,0:0|0:0,0:0:0:0:
232,192,63151,2,0,L|336:288,1,140,2|8,0:0|0:0,0:0:0:0:
140,192,64060,5,2,0:0:0:0:
216,192,64287,1,0,0:0:0:0:
284,192,64515,2,0,B|372:192|372:192|372:132,2,140,2|0|2,0:0|0:0|0:0,0:0:0:0:
88,192,65878,6,0,P|44:184|88:136,1,140,2|8,0:0|0:0,0:0:0:0:
248,140,66787,2,0,B|176:140|176:140|176:228,1,140,2|8,0:0|0:0,0:0:0:0:
372,148,67696,6,0,P|416:192|372:248,1,140,2|8,0:0|0:0,0:0:0:0:
208,248,68606,2,0,L|136:248,2,70,2|0|8,0:0|0:0|0:0,0:0:0:0:
404,192,69515,6,0,B|448:192|448:192|356:144,1,140,2|8,0:0|0:0,0:0:0:0:
172,192,70424,2,0,B|52:272,1,140,2|8,0:0|0:0,0:0:0:0:
252,268,71332,5,2,0:0:0:0:
328,268,71559,1,0,0:0:0:0:
216,268,71787,2,0,B|48:268,1,140,2|0,0:0|0:0,0:0:0:0:
360,192,73151,6,0,L|432:192,1,70,8|0,0:0|0:0,0:0:0:0:
260,192,73833,1,2,0:0:0:0:
472,192,74515,1,2,0:0:0:0:
276,192,74970,6,0,L|204:192,1,70,8|0,0:0|0:0,0:0:0:0:
372,192,75651,2,0,B|444:192|444:192|360:192,1,140,2|0,0:0|0:0,0:0:0:0:
292,192,76334,1,2,0:0:0:0:
80,192,76788,6,0,L|8:192,1,70,8|0,0:0|0:0,0:0:0:0:
180,192,77470,1,2,0:0:0:0:
432,192,78151,1,2,0:0:0:0:
236,192,78606,6,0,B|132:168|132:168|92:136|104:56,2,210,4|2|0,0:0|0:0|0:0,0:0:0:0:
432,192,80424,6,0,L|362:192,1,70,8|0,0:0|0:0,0:0:0:0:
192,192,81106,1,2,0:0:0:0:
404,192,81788,1,2,0:0:0:0:
304,192,82015,1,0,0:0:0:0:
206,192,82243,6,0,L|276:192,1,70,8|0,0:0|0:0,0:0:0:0:
444,192,82924,2,0,B|312:144,1,140
228,116,83607,1,2,0:0:0:0:
424,192,84061,6,0,L|496:192,1,70,8|0,0:0|0:0,0:0:0:0:
324,192,84743,1,2,0:0:0:0:
72,192,85425,1,2,0:0:0:0:
268,192,85879,6,0,P|368:232|404:328,2,210,4|2|0,0:0|0:0|0:0,0:0:0:0:
56,192,87697,6,0,L|168:88,1,140,2|8,0:0|0:0,0:0:0:0:
328,96,88606,2,0,L|168:96,1,140,2|8,0:0|0:0,0:0:0:0:
384,192,89515,6,0,L|476:136,2,105,2|0|0,0:0|0:0|0:0,0:0:0:0:
300,192,90424,2,0,L|160:132,1,140,2|8,0:0|0:0,0:0:0:0:
352,216,91333,6,0,L|472:156,2,105,2|0|0,0:0|0:0|0:0,0:0:0:0:
268,216,92242,1,2,0:0:0:0:
100,192,92697,1,8,0:0:0:0:
296,192,93151,6,0,L|204:136,2,105,2|0|0,0:0|0:0|0:0,0:0:0:0:
380,192,94060,2,0,P|388:136|328:80,1,140,2|8,0:0|0:0,0:0:0:0:
124,192,94970,6,0,L|4:264,2,140,2|8|2,0:0|0:0|0:0,0:0:0:0:
292,192,96333,2,0,L|368:192,1,70,8|0,0:0|0:0,0:0:0:0:
264,192,96788,6,0,L|140:192,1,105,2|0,0:0|0:0,0:0:0:0:
308,192,97470,2,0,L|440:144,1,140,2|0,0:0|0:0,0:0:0:0:
356,80,98151,2,0,L|284:80,1,70,8|2,0:0|0:0,0:0:0:0:
188,80,98606,6,0,L|72:96,2,105,2|0|2,0:0|0:0|0:0,0:0:0:0:
356,80,99742,2,0,L|428:80,2,70,0|8|0,0:0|0:0|0:0,0:0:0:0:
256,80,100424,6,0,L|116:144,1,140,2|8,0:0|0:0,0:0:0:0:
324,136,101333,2,0,L|451:77,1,140,2|8,0:0|0:0,0:0:0:0:
256,192,102242,6,0,B|152:192|152:192|188:192,1,140,2|0,0:0|0:0,0:0:0:0:
384,192,103151,1,2,0:0:0:0:
216,192,103606,1,2,0:0:0:0:
412,192,104061,6,0,B|468:192|468:192|388:252,1,140,2|8,0:0|0:0,0:0:0:0:
232,244,104970,2,0,L|352:324,1,140,2|8,0:0|0:0,0:0:0:0:
168,244,105879,6,0,L|288:324,1,140,2|8,0:0|0:0,0:0:0:0:
440,324,106788,2,0,L|500:280,2,70,2|0|8,0:0|0:0|0:0,0:0:0:0:
256,192,107697,12,0,110424,0:0:0:0:
