osu file format v14

[General]
AudioFilename: Gundorada Workshop.mp3
AudioLeadIn: 0
PreviewTime: 34215
Countdown: 0
SampleSet: Soft
StackLeniency: 0.7
Mode: 0
LetterboxInBreaks: 0
WidescreenStoryboard: 0

[Editor]
DistanceSpacing: 1
BeatDivisor: 4
GridSize: 4
TimelineZoom: 1.1

[Metadata]
Title:Gandorada Daikoubou
TitleUnicode:ガンドラダ大工房
Artist:Tomohito Nishiura
ArtistUnicode:西浦 智仁
Creator:JBHyperion
Version:Easy
Source:Dark Cloud 2
Tags:ダーククロニクル chronicle ost original sound tracks playstation rpg level-5 inc. instrumental Gundorada Workshop
BeatmapID:796252
BeatmapSetID:362534

[Difficulty]
HPDrainRate:2.5
CircleSize:3
OverallDifficulty:2.5
ApproachRate:2.5
SliderMultiplier:0.9
SliderTickRate:1

[Events]
//Background and Video events
0,0,"Moonlight Workshop.jpg",0,0
//Break Periods
//Storyboard Layer 0 (Background)
//Storyboard Layer 1 (Fail)
//Storyboard Layer 2 (Pass)
//Storyboard Layer 3 (Foreground)
//Storyboard Sound Samples

[TimingPoints]
465,468.75,3,2,1,30,1,0
11715,-100,3,3,1,40,0,0
34215,-100,3,3,1,35,0,0
45465,-100,3,3,1,40,0,0
67965,-100,3,3,1,30,0,0
69371,-100,3,3,1,38,0,0
70777,-100,3,3,1,45,0,1
93277,-100,3,3,1,40,0,0
101715,-100,3,3,1,35,0,0
102183,-100,3,3,1,28,0,0
102652,-100,3,3,1,22,0,0
103121,-100,3,3,1,16,0,0
103590,-100,3,3,1,10,0,0
103824,-100,3,3,1,5,0,0

[Colours]
Combo1 : 20,20,140
Combo2 : 100,150,255
Combo3 : 10,60,255

[HitObjects]
213,206,465,6,0,P|289:246|364:203,1,180,2|0,0:0|0:0,0:0:0:0:
288,154,1871,2,4,P|275:82|300:14,1,135,4|4,0:2|0:2,0:2:0:0:
408,94,3277,6,0,P|420:137|418:185,1,90,2|0,0:0|0:0,0:0:0:0:
396,269,4215,1,2,0:0:0:0:
343,341,4683,2,4,P|283:365|219:341,1,135,4|4,0:2|0:2,0:2:0:0:
116,258,6090,6,0,B|41:206|41:206|25:115,1,180,2|0,0:0|0:0,0:0:0:0:
84,50,7496,2,4,P|152:24|223:37,1,135,4|4,0:2|0:2,0:2:0:0:
276,154,8902,6,0,P|315:176|361:176,1,90,2|0,0:0|0:0,0:0:0:0:
338,89,9840,1,2,0:0:0:0:
249,66,10308,2,0,P|188:128|188:178,1,135,4|4,0:2|0:2,0:0:0:0:
296,251,11715,6,0,P|241:297|125:293,1,180,4|8,0:0|0:0,0:0:0:0:
87,223,13121,2,0,B|47:143|47:143|46:53,1,180,2|8,0:0|0:0,0:0:0:0:
127,90,14527,6,0,P|172:82|209:59,2,90,2|8|8,0:0|0:0|0:0,0:0:0:0:
53,141,15933,2,0,P|2:221|42:301,1,180,2|8,0:0|0:0,0:0:0:0:
94,224,17340,6,0,B|135:189|173:227|173:227|214:193|253:232,1,180,4|8,0:0|0:0,0:0:0:0:
336,267,18746,2,0,P|384:266|424:238,1,90,2|8,0:0|0:0,0:0:0:0:
355,178,19683,1,8,0:0:0:0:
270,207,20152,6,0,B|180:207|180:207|113:143,1,180,2|8,0:0|0:0,0:0:0:0:
152,63,21558,2,0,P|236:34|320:61,1,180,2|0,0:0|0:0,0:0:0:0:
393,114,22965,6,0,L|485:114,2,90,4|8|8,0:0|0:0|0:0,0:0:0:0:
311,152,24371,2,0,P|295:196|311:236,1,90,2|8,0:0|0:0,0:0:0:0:
385,283,25308,1,8,0:0:0:0:
461,234,25777,6,0,P|493:154|461:70,1,180,2|8,0:0|0:0,0:0:0:0:
389,125,27183,2,0,P|303:146|224:105,1,180,2|8,0:0|0:0,0:0:0:0:
157,46,28590,6,0,P|202:17|250:19,2,90,4|8|8,0:0|0:0|0:0,0:0:0:0:
141,134,29996,2,0,P|103:158|35:157,1,90,2|8,0:0|0:0,0:0:0:0:
72,73,30933,1,8,0:0:0:0:
157,46,31402,6,0,P|197:65|225:102,1,90,2|8,0:0|0:0,0:0:0:0:
215,190,32340,1,8,0:0:0:0:
180,272,32808,2,0,P|140:296|92:300,2,90,4|0|0,0:0|0:0|0:0,0:0:0:0:
268,261,34215,6,0,B|306:229|302:182|302:182|364:116,1,180,2|0,0:0|0:0,0:0:0:0:
450,131,35621,2,4,P|481:198|474:270,1,135,4|4,0:2|0:2,0:2:0:0:
348,220,37027,6,0,P|259:221|188:274,1,180,2|0,0:0|0:0,0:0:0:0:
235,352,38433,2,0,P|302:344|359:309,1,135,4|4,0:2|0:2,0:0:0:0:
460,220,39840,6,0,B|502:139|502:139|464:52,1,180,2|0,0:0|0:0,0:0:0:0:
380,32,41246,2,4,P|307:39|249:82,1,135,4|4,0:2|0:2,0:2:0:0:
144,147,42652,6,0,P|103:165|57:161,1,90,2|0,0:0|0:0,0:0:0:0:
87,76,43590,1,2,0:0:0:0:
178,62,44058,2,0,P|232:127|223:187,1,135,4|4,0:2|0:2,0:0:0:0:
265,302,45465,6,0,P|335:356|427:312,1,180,4|8,0:0|0:0,0:0:0:0:
348,266,46871,2,0,B|305:174|369:98,1,180,2|8,0:0|0:0,0:0:0:0:
445,146,48277,6,0,P|447:191|434:233,2,90,2|8|8,0:0|0:0|0:0,0:0:0:0:
449,55,49683,2,0,P|368:5|289:54,1,180,2|8,0:0|0:0,0:0:0:0:
308,128,51090,6,0,B|290:166|242:179|242:179|220:227|171:235,1,180,4|8,0:0|0:0,0:0:0:0:
158,146,52496,2,0,P|185:110|225:89,1,90,2|8,0:0|0:0,0:0:0:0:
308,128,53433,1,8,0:0:0:0:
317,217,53902,6,0,B|362:294|362:294|449:327,1,180,2|8,0:0|0:0,0:0:0:0:
483,243,55308,2,0,P|474:155|403:104,1,180,2|8,0:0|0:0,0:0:0:0:
316,83,56715,6,0,L|246:20,2,90,4|8|8,0:0|0:0|0:0,0:0:0:0:
342,169,58121,2,0,P|322:211|282:228,1,90,2|8,0:0|0:0,0:0:0:0:
194,240,59058,1,8,0:0:0:0:
249,311,59527,6,0,P|328:347|417:304,1,180,2|8,0:0|0:0,0:0:0:0:
447,231,60933,2,0,P|429:146|344:108,1,180,2|8,0:0|0:0,0:0:0:0:
261,110,62340,6,0,P|208:121|176:156,2,90,4|8|8,0:0|0:0|0:0,0:0:0:0:
254,199,63746,2,0,P|219:227|175:234,1,90,2|8,0:0|0:0,0:0:0:0:
100,184,64683,1,8,0:0:0:0:
109,94,65152,6,0,P|143:65|187:58,1,90,2|8,0:0|0:0,0:0:0:0:
309,190,66558,2,0,P|320:239|308:282,1,90,4|0,0:0|0:0,0:0:0:0:
231,235,67496,1,2,0:2:0:0:
153,190,67965,6,0,L|57:190,2,90,2|8|8,0:0|0:0|0:0,0:0:0:0:
231,145,69371,1,2,0:0:0:0:
309,190,69840,2,0,P|320:141|308:98,1,90,8|8,0:0|0:0,0:0:0:0:
233,54,70777,6,0,P|184:68|153:99,1,90,4|8,0:0|0:0,0:0:0:0:
145,184,71715,1,8,0:0:0:0:
94,257,72183,2,0,P|49:257|9:238,2,90,2|8|8,0:0|0:0|0:0,0:0:0:0:
178,288,73590,6,0,P|215:313|259:322,1,90,2|8,0:0|0:0,0:0:0:0:
349,327,74527,1,8,0:0:0:0:
395,250,74996,2,0,P|438:238|483:239,2,90,2|8|8,0:0|0:0|0:0,0:0:0:0:
305,248,76402,6,0,B|245:180|245:180|254:87,1,180,4|8,0:0|0:0,0:0:0:0:
168,119,77808,2,0,L|156:216,2,90,2|8|8,0:0|0:0|0:0,0:0:0:0:
189,31,79215,5,2,0:0:0:0:
276,11,79683,2,0,P|324:38|341:73,1,90,8|8,0:0|0:0,0:0:0:0:
409,126,80621,2,0,P|459:112|487:80,2,90,2|8|8,0:0|0:0|0:0,0:0:0:0:
325,154,82027,6,0,P|302:192|304:236,1,90,4|8,0:0|0:0,0:0:0:0:
393,214,82965,1,8,0:0:0:0:
409,126,83433,2,0,P|352:69|253:102,1,180,2|8,0:0|0:0,0:0:0:0:
177,122,84840,6,0,P|130:93|111:42,2,90,2|8|8,0:0|0:0|0:0,0:0:0:0:
249,178,86246,2,0,P|269:230|257:278,1,90,2|8,0:0|0:0,0:0:0:0:
209,334,87183,1,8,0:0:0:0:
157,262,87652,6,0,L|101:186,1,90,4|8,0:0|0:0,0:0:0:0:
107,99,88590,1,8,0:0:0:0:
193,126,89058,2,0,L|249:202,1,90,2|8,0:0|0:0,0:0:0:0:
337,214,89996,1,8,0:0:0:0:
349,126,90465,6,0,P|371:87|415:59,2,90,2|8|8,0:0|0:0|0:0,0:0:0:0:
257,126,91871,2,0,P|238:88|190:59,2,90,2|8|8,0:0|0:0|0:0,0:0:0:0:
169,148,93277,6,0,B|123:164|125:219|125:219|46:264,1,180,4|8,0:0|0:0,0:0:0:0:
98,338,94683,2,4,P|164:369|237:362,1,135,4|4,0:2|0:2,0:2:0:0:
187,236,96090,6,0,P|181:147|230:69,1,180,2|8,0:0|0:0,0:0:0:0:
286,138,97496,2,4,P|343:175|409:180,1,135,4|4,0:2|0:2,0:2:0:0:
385,47,98902,6,0,P|345:17|287:3,2,90,2|8|8,0:0|0:0|0:0,0:0:0:0:
433,123,100308,2,4,P|447:194|422:262,1,135,4|4,0:2|0:2,0:2:0:0:
256,192,101715,12,0,103824,0:0:0:0:
