osu file format v14

[General]
AudioFilename: Gundorada Workshop.mp3
AudioLeadIn: 0
PreviewTime: 34215
Countdown: 0
SampleSet: Soft
StackLeniency: 0.7
Mode: 3
LetterboxInBreaks: 0
SpecialStyle: 0
WidescreenStoryboard: 0

[Editor]
DistanceSpacing: 0.6
BeatDivisor: 2
GridSize: 4
TimelineZoom: 1

[Metadata]
Title:Gandorada Daikoubou
TitleUnicode:ガンドラダ大工房
Artist:Tomohito Nishiura
ArtistUnicode:西浦 智仁
Creator:JBHyperion
Version:EZ
Source:Dark Cloud 2
Tags:ダーククロニクル chronicle ost original sound tracks playstation rpg level-5 inc. instrumental Gundorada Workshop
BeatmapID:796253
BeatmapSetID:362534

[Difficulty]
HPDrainRate:7
CircleSize:4
OverallDifficulty:7
ApproachRate:5
SliderMultiplier:1.2
SliderTickRate:1

[Events]
//Background and Video events
0,0,"Moonlight Workshop.jpg",0,0
//Break Periods
//Storyboard Layer 0 (Background)
//Storyboard Layer 1 (Fail)
//Storyboard Layer 2 (Pass)
//Storyboard Layer 3 (Foreground)
//Storyboard Sound Samples

[TimingPoints]
465,468.75,3,2,1,30,1,0
11715,-100,3,3,1,40,0,0
34215,-100,3,3,1,35,0,0
45465,-100,3,3,1,40,0,0
67965,-100,3,3,1,30,0,0
69371,-100,3,3,1,38,0,0
70777,-100,3,3,1,45,0,1
93277,-100,3,3,1,40,0,0
101715,-100,3,3,1,35,0,0
102183,-100,3,3,1,28,0,0
102652,-100,3,3,1,22,0,0
103121,-100,3,3,1,16,0,0
103590,-100,3,3,1,10,0,0
104058,-100,3,3,1,5,0,0

[Colours]
Combo1 : 20,20,140
Combo2 : 100,150,255
Combo3 : 10,60,255

[HitObjects]
448,192,465,5,2,0:0:0:0:
320,192,465,128,0,1402:0:0:0:0:
448,192,1871,1,4,0:2:0:0:
192,192,1871,128,0,2574:0:0:0:0:
448,192,2574,1,4,0:2:0:0:
64,192,3277,1,2,0:0:0:0:
320,192,3277,128,0,4215:0:0:0:0:
448,192,4215,1,0,0:0:0:0:
64,192,4683,128,0,5386:0:0:0:0:
192,192,4683,1,4,0:2:0:0:
192,192,5386,1,4,0:2:0:0:
320,192,6090,128,0,7027:0:0:0:0:
64,192,6090,1,2,0:0:0:0:
448,192,7496,128,0,8199:0:0:0:0:
192,192,7496,1,4,0:0:0:0:
192,192,8199,1,4,0:0:0:0:
64,192,8902,128,0,9840:0:0:0:0:
192,192,8902,1,2,0:0:0:0:
320,192,9840,1,0,0:0:0:0:
448,192,10308,128,4,11011:0:2:0:0:
192,192,10308,1,4,0:0:0:0:
192,192,11011,1,4,0:0:0:0:
192,192,11715,128,0,12183:0:0:0:0:
64,192,11715,1,4,0:0:0:0:
448,192,12183,1,8,0:0:0:0:
320,192,12652,1,8,0:0:0:0:
448,192,13121,128,0,14058:0:0:0:0:
192,192,13121,1,2,0:0:0:0:
192,192,13590,1,8,0:0:0:0:
64,192,14058,1,8,0:0:0:0:
320,192,14527,128,0,14996:0:0:0:0:
448,192,14527,1,2,0:0:0:0:
192,192,14996,1,8,0:0:0:0:
448,192,15465,1,8,0:0:0:0:
64,192,15933,128,0,16871:0:0:0:0:
320,192,15933,1,2,0:0:0:0:
448,192,16402,1,8,0:0:0:0:
448,192,16871,1,8,0:0:0:0:
320,192,17340,128,4,17808:0:0:0:0:
64,192,17340,1,2,0:0:0:0:
192,192,17808,1,8,0:0:0:0:
64,192,18277,1,8,0:0:0:0:
192,192,18746,128,0,19683:0:0:0:0:
320,192,18746,1,2,0:0:0:0:
320,192,19215,1,8,0:0:0:0:
448,192,19683,1,8,0:0:0:0:
320,192,20152,128,0,20621:0:0:0:0:
64,192,20152,1,2,0:0:0:0:
448,192,20621,1,8,0:0:0:0:
192,192,21090,1,8,0:0:0:0:
448,192,21558,128,0,22496:0:0:0:0:
320,192,21558,1,2,0:0:0:0:
192,192,22027,1,8,0:0:0:0:
192,192,22496,1,8,0:0:0:0:
320,192,22965,128,0,23433:0:0:0:0:
64,192,22965,1,4,0:0:0:0:
192,192,23433,1,8,0:0:0:0:
448,192,23902,1,8,0:0:0:0:
192,192,24371,128,0,25308:0:0:0:0:
320,192,24371,1,2,0:0:0:0:
320,192,24840,1,8,0:0:0:0:
64,192,25308,1,8,0:0:0:0:
320,192,25777,128,2,26246:0:0:0:0:
192,192,25777,1,0,0:0:0:0:
64,192,26246,1,8,0:0:0:0:
448,192,26715,1,8,0:0:0:0:
320,192,27183,128,0,28121:0:0:0:0:
192,192,27183,1,2,0:0:0:0:
64,192,27652,1,8,0:0:0:0:
64,192,28121,1,8,0:0:0:0:
64,192,28590,1,2,0:0:0:0:
192,192,28590,128,4,29527:0:0:0:0:
448,192,29058,1,8,0:0:0:0:
320,192,29527,1,8,0:0:0:0:
64,192,29996,128,0,30933:0:0:0:0:
192,192,29996,1,2,0:0:0:0:
192,192,30465,1,8,0:0:0:0:
320,192,30933,1,8,0:0:0:0:
320,192,31402,128,2,31871:0:0:0:0:
448,192,31402,1,0,0:0:0:0:
192,192,31871,1,8,0:0:0:0:
64,192,32340,1,8,0:0:0:0:
192,192,32808,1,2,0:0:0:0:
448,192,32808,128,4,33277:0:0:0:0:
320,192,33277,128,0,33746:0:0:0:0:
192,192,33746,128,2,34215:0:2:0:0:
64,192,34215,1,2,0:0:0:0:
320,192,34215,128,0,35152:0:0:0:0:
192,192,34683,1,8,0:0:0:0:
64,192,35152,1,8,0:0:0:0:
192,192,35621,128,2,36324:0:0:0:0:
448,192,35621,1,4,0:2:0:0:
448,192,36324,1,4,0:2:0:0:
64,192,37027,1,2,0:0:0:0:
320,192,37027,128,0,37965:0:0:0:0:
192,192,37496,1,8,0:0:0:0:
448,192,37965,1,8,0:0:0:0:
64,192,38433,128,0,39136:0:0:0:0:
320,192,38433,1,4,0:2:0:0:
320,192,39136,1,4,0:2:0:0:
64,192,39840,128,4,40777:0:0:0:0:
320,192,39840,1,2,0:0:0:0:
448,192,40308,1,8,0:0:0:0:
320,192,40777,1,8,0:0:0:0:
448,192,41246,1,4,0:2:0:0:
192,192,41246,128,2,41949:0:0:0:0:
448,192,41949,1,4,0:2:0:0:
64,192,42652,128,0,43590:0:0:0:0:
320,192,42652,1,2,0:0:0:0:
320,192,43121,1,8,0:0:0:0:
448,192,43590,1,8,0:0:0:0:
192,192,44058,128,0,45465:0:0:0:0:
320,192,44058,1,4,0:0:0:0:
448,192,44761,1,4,0:2:0:0:
320,192,45465,128,4,45933:0:0:0:0:
64,192,45933,1,8,0:0:0:0:
320,192,46402,1,8,0:0:0:0:
192,192,46871,1,2,0:0:0:0:
448,192,46871,128,0,47808:0:0:0:0:
192,192,47340,1,8,0:0:0:0:
64,192,47808,1,8,0:0:0:0:
320,192,48277,128,0,48746:0:0:0:0:
64,192,48277,1,2,0:0:0:0:
192,192,48746,1,8,0:0:0:0:
448,192,49215,1,8,0:0:0:0:
192,192,49683,1,2,0:0:0:0:
64,192,49683,128,0,50621:0:0:0:0:
320,192,50152,1,8,0:0:0:0:
320,192,50621,1,8,0:0:0:0:
64,192,51090,128,4,51558:0:0:0:0:
448,192,51090,1,0,0:0:0:0:
320,192,51558,1,8,0:0:0:0:
192,192,52027,1,8,0:0:0:0:
64,192,52496,1,2,0:0:0:0:
320,192,52496,128,0,53433:0:0:0:0:
64,192,52965,1,8,0:0:0:0:
192,192,53433,1,8,0:0:0:0:
448,192,53902,128,0,54840:0:0:0:0:
64,192,53902,1,2,0:0:0:0:
192,192,54371,1,8,0:0:0:0:
320,192,54840,1,8,0:0:0:0:
192,192,55308,1,2,0:0:0:0:
64,192,55308,128,0,56246:0:0:0:0:
320,192,55777,1,8,0:0:0:0:
320,192,56246,1,8,0:0:0:0:
320,192,56715,128,4,57183:0:0:0:0:
192,192,56715,1,0,0:0:0:0:
64,192,57183,1,8,0:0:0:0:
448,192,57652,1,8,0:0:0:0:
192,192,58121,1,2,0:0:0:0:
320,192,58121,128,0,59058:0:0:0:0:
192,192,58590,1,8,0:0:0:0:
64,192,59058,1,8,0:0:0:0:
192,192,59527,128,2,59996:0:0:0:0:
448,192,59527,1,0,0:0:0:0:
320,192,59996,1,8,0:0:0:0:
448,192,60465,1,8,0:0:0:0:
320,192,60933,1,2,0:0:0:0:
64,192,60933,128,0,61871:0:0:0:0:
320,192,61402,1,8,0:0:0:0:
192,192,61871,1,8,0:0:0:0:
320,192,62340,1,2,0:0:0:0:
192,192,62340,128,4,63277:0:0:0:0:
448,192,62808,1,8,0:0:0:0:
320,192,63277,1,8,0:0:0:0:
320,192,63746,1,2,0:0:0:0:
64,192,63746,128,0,64683:0:0:0:0:
192,192,64215,1,8,0:0:0:0:
320,192,64683,1,8,0:0:0:0:
320,192,65152,128,0,65621:0:0:0:0:
448,192,65152,1,2,0:0:0:0:
64,192,65621,1,8,0:0:0:0:
64,192,66558,1,2,0:0:0:0:
320,192,66558,128,4,67027:0:0:0:0:
448,192,67027,128,2,67496:0:2:0:0:
192,192,67496,128,0,67965:0:0:0:0:
64,192,67965,128,2,68902:0:0:0:0:
448,192,68433,1,8,0:0:0:0:
320,192,68902,1,8,0:0:0:0:
64,192,69371,128,0,70308:0:0:0:0:
320,192,69371,1,2,0:0:0:0:
448,192,69840,1,8,0:0:0:0:
192,192,70308,1,8,0:0:0:0:
192,192,70777,128,4,71715:0:0:0:0:
320,192,70777,1,2,0:0:0:0:
64,192,71715,1,8,0:0:0:0:
320,192,72183,128,0,72652:0:0:0:0:
448,192,72183,1,2,0:0:0:0:
192,192,72652,128,8,73121:0:0:0:0:
64,192,73121,128,8,73590:0:0:0:0:
192,192,73590,128,2,74527:0:0:0:0:
448,192,74527,1,8,0:0:0:0:
320,192,74996,1,2,0:0:0:0:
448,192,74996,128,0,75933:0:0:0:0:
64,192,75933,1,8,0:0:0:0:
192,192,76402,128,4,77340:0:0:0:0:
320,192,76402,1,2,0:0:0:0:
448,192,77340,1,8,0:0:0:0:
320,192,77808,128,0,78277:0:0:0:0:
64,192,77808,1,2,0:0:0:0:
192,192,78277,128,8,78746:0:0:0:0:
64,192,78746,128,8,79215:0:0:0:0:
320,192,79215,128,0,79683:0:0:0:0:
192,192,79215,1,2,0:0:0:0:
448,192,79683,128,8,80152:0:0:0:0:
320,192,80152,128,8,80621:0:0:0:0:
64,192,80621,128,0,81090:0:0:0:0:
192,192,80621,1,2,0:0:0:0:
192,192,81090,128,8,81558:0:0:0:0:
320,192,81558,128,8,82027:0:0:0:0:
448,192,82027,128,0,82965:0:0:0:0:
64,192,82027,1,4,0:0:0:0:
192,192,82965,1,8,0:0:0:0:
448,192,83433,128,0,84371:0:0:0:0:
320,192,83433,1,2,0:0:0:0:
192,192,84371,1,8,0:0:0:0:
64,192,84840,1,2,0:0:0:0:
320,192,84840,128,0,85777:0:0:0:0:
192,192,85777,1,8,0:0:0:0:
192,192,86246,128,0,87183:0:0:0:0:
448,192,86246,1,2,0:0:0:0:
320,192,87183,1,8,0:0:0:0:
64,192,87652,1,2,0:0:0:0:
448,192,87652,128,4,88590:0:0:0:0:
320,192,88590,1,8,0:0:0:0:
64,192,89058,1,2,0:0:0:0:
192,192,89058,128,0,89996:0:0:0:0:
320,192,89996,1,8,0:0:0:0:
64,192,90465,128,0,93277:0:0:0:0:
192,192,90465,1,2,0:0:0:0:
448,192,90933,1,8,0:0:0:0:
320,192,91402,1,8,0:0:0:0:
448,192,91871,1,2,0:0:0:0:
320,192,92340,1,8,0:0:0:0:
192,192,92808,1,8,0:0:0:0:
192,192,93277,1,2,0:0:0:0:
320,192,93277,128,4,94215:0:0:0:0:
448,192,93746,1,8,0:0:0:0:
64,192,94215,1,8,0:0:0:0:
192,192,94683,128,2,95386:0:0:0:0:
448,192,94683,1,4,0:2:0:0:
448,192,95386,1,4,0:2:0:0:
64,192,96090,1,2,0:0:0:0:
320,192,96090,128,0,97027:0:0:0:0:
192,192,96558,1,8,0:0:0:0:
448,192,97027,1,8,0:0:0:0:
64,192,97496,128,2,98199:0:0:0:0:
320,192,97496,1,4,0:2:0:0:
320,192,98199,1,4,0:2:0:0:
192,192,98902,128,4,99840:0:0:0:0:
64,192,98902,1,2,0:0:0:0:
320,192,99371,1,8,0:0:0:0:
64,192,99840,1,8,0:0:0:0:
192,192,100308,1,4,0:2:0:0:
320,192,100308,128,2,101011:0:0:0:0:
192,192,101011,1,4,0:2:0:0:
192,192,101715,128,0,102652:0:0:0:0:
64,192,101715,1,2,0:0:0:0:
64,192,102183,1,0,0:0:0:0:
320,192,102652,1,0,0:0:0:0:
64,192,103121,128,4,104058:0:0:0:0:
448,192,103121,1,2,0:0:0:0:
